  0
SECTION
  2
HEADER
  9
$ACADVER
  1
AC1018
  9
$ACADMAINTVER
 70
     0
  9
$DWGCODEPAGE
  3
ANSI_1252
  9
$INSBASE
 10
0.0
 20
0.0
 30
0.0
  9
$EXTMIN
 10
66.808817
 20
-26.581285
 30
66.808817
  9
$EXTMAX
 10
74.015323
 20
-19.987145
 30
74.015323
  9
$LIMMIN
 10
66.808817
 20
-26.581285
  9
$LIMMAX
 10
74.015323
 20
-19.987145
  9
$ORTHOMODE
 70
     0
  9
$REGENMODE
 70
     1
  9
$FILLMODE
 70
     1
  9
$QTEXTMODE
 70
     0
  9
$MIRRTEXT
 70
     1
  9
$LTSCALE
 40
1.0
  9
$ATTMODE
 70
     1
  9
$TEXTSIZE
 40
0.2
  9
$TRACEWID
 40
0.05
  9
$TEXTSTYLE
  7
Standard
  9
$CLAYER
  8
0
  9
$CELTYPE
  6
ByLayer
  9
$CECOLOR
 62
   256
  9
$CELTSCALE
 40
1.0
  9
$DISPSILH
 70
     0
  9
$DIMSCALE
 40
1.0
  9
$DIMASZ
 40
0.18
  9
$DIMEXO
 40
0.0625
  9
$DIMDLI
 40
0.38
  9
$DIMRND
 40
0.0
  9
$DIMDLE
 40
0.0
  9
$DIMEXE
 40
0.18
  9
$DIMTP
 40
0.0
  9
$DIMTM
 40
0.0
  9
$DIMTXT
 40
0.18
  9
$DIMCEN
 40
0.09
  9
$DIMTSZ
 40
0.0
  9
$DIMTOL
 70
     0
  9
$DIMLIM
 70
     0
  9
$DIMTIH
 70
     1
  9
$DIMTOH
 70
     1
  9
$DIMSE1
 70
     0
  9
$DIMSE2
 70
     0
  9
$DIMTAD
 70
     0
  9
$DIMZIN
 70
     0
  9
$DIMBLK
  1

  9
$DIMASO
 70
     1
  9
$DIMSHO
 70
     1
  9
$DIMPOST
  1

  9
$DIMAPOST
  1

  9
$DIMALT
 70
     0
  9
$DIMALTD
 70
     2
  9
$DIMALTF
 40
25.4
  9
$DIMLFAC
 40
1.0
  9
$DIMTOFL
 70
     0
  9
$DIMTVP
 40
0.0
  9
$DIMTIX
 70
     0
  9
$DIMSOXD
 70
     0
  9
$DIMSAH
 70
     0
  9
$DIMBLK1
  1

  9
$DIMBLK2
  1

  9
$DIMSTYLE
  2
Standard
  9
$DIMCLRD
 70
     0
  9
$DIMCLRE
 70
     0
  9
$DIMCLRT
 70
     0
  9
$DIMTFAC
 40
1.0
  9
$DIMGAP
 40
0.09
  9
$DIMJUST
 70
     0
  9
$DIMSD1
 70
     0
  9
$DIMSD2
 70
     0
  9
$DIMTOLJ
 70
     1
  9
$DIMTZIN
 70
     0
  9
$DIMALTZ
 70
     0
  9
$DIMALTTZ
 70
     0
  9
$DIMUPT
 70
     0
  9
$DIMDEC
 70
     4
  9
$DIMTDEC
 70
     4
  9
$DIMALTU
 70
     2
  9
$DIMALTTD
 70
     2
  9
$DIMTXSTY
  7
Standard
  9
$DIMAUNIT
 70
     0
  9
$DIMADEC
 70
     0
  9
$DIMALTRND
 40
0.0
  9
$DIMAZIN
 70
     0
  9
$DIMDSEP
 70
    46
  9
$DIMATFIT
 70
     3
  9
$DIMFRAC
 70
     0
  9
$DIMLDRBLK
  1

  9
$DIMLUNIT
 70
     2
  9
$DIMLWD
 70
    -2
  9
$DIMLWE
 70
    -2
  9
$DIMTMOVE
 70
     0
  9
$LUNITS
 70
     2
  9
$LUPREC
 70
     4
  9
$SKETCHINC
 40
0.1
  9
$FILLETRAD
 40
0.5
  9
$AUNITS
 70
     0
  9
$AUPREC
 70
     0
  9
$MENU
  1
.
  9
$ELEVATION
 40
0.0
  9
$PELEVATION
 40
0.0
  9
$THICKNESS
 40
0.0
  9
$LIMCHECK
 70
     0
  9
$CHAMFERA
 40
0.5
  9
$CHAMFERB
 40
0.5
  9
$CHAMFERC
 40
1.0
  9
$CHAMFERD
 40
0.0
  9
$SKPOLY
 70
     0
  9
$TDCREATE
 40
2457155.374804688
  9
$TDUCREATE
 40
2457155.291471354
  9
$TDUPDATE
 40
2457155.374804699
  9
$TDUUPDATE
 40
2457155.291471366
  9
$TDINDWG
 40
0.0000000116
  9
$TDUSRTIMER
 40
0.0000000116
  9
$USRTIMER
 70
     1
  9
$ANGBASE
 50
0.0
  9
$ANGDIR
 70
     0
  9
$PDMODE
 70
    65
  9
$PDSIZE
 40
0.0
  9
$PLINEWID
 40
0.0
  9
$SPLFRAME
 70
     0
  9
$SPLINETYPE
 70
     6
  9
$SPLINESEGS
 70
     8
  9
$HANDSEED
  5
164
  9
$SURFTAB1
 70
     6
  9
$SURFTAB2
 70
     6
  9
$SURFTYPE
 70
     6
  9
$SURFU
 70
     6
  9
$SURFV
 70
     6
  9
$UCSBASE
  2

  9
$UCSNAME
  2

  9
$UCSORG
 10
0.0
 20
0.0
 30
0.0
  9
$UCSXDIR
 10
1.0
 20
0.0
 30
0.0
  9
$UCSYDIR
 10
0.0
 20
1.0
 30
0.0
  9
$UCSORTHOREF
  2

  9
$UCSORTHOVIEW
 70
     0
  9
$UCSORGTOP
 10
0.0
 20
0.0
 30
0.0
  9
$UCSORGBOTTOM
 10
0.0
 20
0.0
 30
0.0
  9
$UCSORGLEFT
 10
0.0
 20
0.0
 30
0.0
  9
$UCSORGRIGHT
 10
0.0
 20
0.0
 30
0.0
  9
$UCSORGFRONT
 10
0.0
 20
0.0
 30
0.0
  9
$UCSORGBACK
 10
0.0
 20
0.0
 30
0.0
  9
$PUCSBASE
  2

  9
$PUCSNAME
  2

  9
$PUCSORG
 10
0.0
 20
0.0
 30
0.0
  9
$PUCSXDIR
 10
1.0
 20
0.0
 30
0.0
  9
$PUCSYDIR
 10
0.0
 20
1.0
 30
0.0
  9
$PUCSORTHOREF
  2

  9
$PUCSORTHOVIEW
 70
     0
  9
$PUCSORGTOP
 10
0.0
 20
0.0
 30
0.0
  9
$PUCSORGBOTTOM
 10
0.0
 20
0.0
 30
0.0
  9
$PUCSORGLEFT
 10
0.0
 20
0.0
 30
0.0
  9
$PUCSORGRIGHT
 10
0.0
 20
0.0
 30
0.0
  9
$PUCSORGFRONT
 10
0.0
 20
0.0
 30
0.0
  9
$PUCSORGBACK
 10
0.0
 20
0.0
 30
0.0
  9
$USERI1
 70
     0
  9
$USERI2
 70
     0
  9
$USERI3
 70
     0
  9
$USERI4
 70
     0
  9
$USERI5
 70
     0
  9
$USERR1
 40
0.0
  9
$USERR2
 40
0.0
  9
$USERR3
 40
0.0
  9
$USERR4
 40
0.0
  9
$USERR5
 40
0.0
  9
$WORLDVIEW
 70
     1
  9
$SHADEDGE
 70
     3
  9
$SHADEDIF
 70
    70
  9
$TILEMODE
 70
     0
  9
$MAXACTVP
 70
    64
  9
$PINSBASE
 10
0.0
 20
0.0
 30
0.0
  9
$PLIMCHECK
 70
     0
  9
$PEXTMIN
 10
0.030856
 20
0.053716
 30
0.0
  9
$PEXTMAX
 10
0.175186
 20
0.177977
 30
0.0
  9
$PLIMMIN
 10
0.030856
 20
0.053716
  9
$PLIMMAX
 10
0.175186
 20
0.177977
  9
$UNITMODE
 70
     0
  9
$VISRETAIN
 70
     1
  9
$PLINEGEN
 70
     0
  9
$PSLTSCALE
 70
     0
  9
$TREEDEPTH
 70
  3020
  9
$CMLSTYLE
  2
Standard
  9
$CMLJUST
 70
     0
  9
$CMLSCALE
 40
1.0
  9
$PROXYGRAPHICS
 70
     1
  9
$MEASUREMENT
 70
     1
  9
$CELWEIGHT
370
    -1
  9
$ENDCAPS
280
     0
  9
$JOINSTYLE
280
     0
  9
$LWDISPLAY
290
     0
  9
$INSUNITS
 70
     6
  9
$HYPERLINKBASE
  1

  9
$STYLESHEET
  1

  9
$XEDIT
290
     1
  9
$CEPSNTYPE
380
     0
  9
$PSTYLEMODE
290
     1
  9
$FINGERPRINTGUID
  2
{ED39DD14-68C6-457C-BD79-E70C2C56946F}
  9
$VERSIONGUID
  2
{FAEB1C32-E019-11D5-929B-00C0DF256EC4}
  9
$EXTNAMES
290
     1
  9
$PSVPSCALE
 40
0.0
  9
$OLESTARTUP
290
     0
  9
$SORTENTS
280
   127
  9
$INDEXCTL
280
     0
  9
$HIDETEXT
280
     1
  9
$XCLIPFRAME
290
     0
  9
$HALOGAP
280
     0
  9
$OBSCOLOR
 70
   257
  9
$OBSLTYPE
280
     0
  9
$INTERSECTIONDISPLAY
280
     0
  9
$INTERSECTIONCOLOR
 70
   257
  9
$DIMASSOC
280
     2
  9
$PROJECTNAME
  1

  0
ENDSEC
  0
SECTION
  2
CLASSES
  0
CLASS
  1
ACDBDICTIONARYWDFLT
  2
AcDbDictionaryWithDefault
  3
ObjectDBX Classes
 90
        0
 91
       19
280
     0
281
     0
  0
CLASS
  1
VISUALSTYLE
  2
AcDbVisualStyle
  3
ObjectDBX Classes
 90
     4095
 91
       19
280
     0
281
     0
  0
CLASS
  1
MATERIAL
  2
AcDbMaterial
  3
ObjectDBX Classes
 90
     1153
 91
       19
280
     0
281
     0
  0
CLASS
  1
SCALE
  2
AcDbScale
  3
ObjectDBX Classes
 90
     1153
 91
       18
280
     0
281
     0
  0
CLASS
  1
SORTENTSTABLE
  2
AcDbSortentsTable
  3
ObjectDBX Classes
 90
        0
 91
       18
280
     0
281
     0
  0
CLASS
  1
DICTIONARYVAR
  2
AcDbDictionaryVar
  3
ObjectDBX Classes
 90
        0
 91
       18
280
     0
281
     0
  0
ENDSEC
  0
SECTION
  2
TABLES
  0
TABLE
  2
VPORT
  5
8
330
0
100
AcDbSymbolTable
 70
     1
  0
VPORT
  5
29
330
8
100
AcDbSymbolTableRecord
100
AcDbViewportTableRecord
  2
*Active
 70
     0
 10
0.0
 20
0.0
 11
1.0
 21
1.0
 12
70.41207
 22
-23.284215
 13
0.0
 23
0.0
 14
0.5
 24
0.5
 15
0.5
 25
0.5
 16
0.0
 26
0.0
 36
1.0
 17
0.0
 27
0.0
 37
0.0
 40
7.912968
 41
1.311438
 42
50.0
 43
0.0
 44
0.0
 50
0.0
 51
0.0
 71
     0
 72
   100
 73
     1
 74
     3
 75
     0
 76
     0
 77
     0
 78
     0
281
     0
 65
     1
110
0.0
120
0.0
130
0.0
111
1.0
121
0.0
131
0.0
112
0.0
122
1.0
132
0.0
 79
     0
146
0.0
  0
ENDTAB
  0
TABLE
  2
LTYPE
  5
5
330
0
100
AcDbSymbolTable
 70
     3
  0
LTYPE
  5
14
330
5
100
AcDbSymbolTableRecord
100
AcDbLinetypeTableRecord
  2
ByBlock
 70
     0
  3

 72
    65
 73
     0
 40
0.0
  0
LTYPE
  5
15
330
5
100
AcDbSymbolTableRecord
100
AcDbLinetypeTableRecord
  2
ByLayer
 70
     0
  3

 72
    65
 73
     0
 40
0.0
  0
LTYPE
  5
16
330
5
100
AcDbSymbolTableRecord
100
AcDbLinetypeTableRecord
  2
Continuous
 70
     0
  3
Solid line
 72
    65
 73
     0
 40
0.0
  0
LTYPE
  5
44
330
5
100
AcDbSymbolTableRecord
100
AcDbLinetypeTableRecord
  2
AUSGEZOGEN
 70
     0
  3
durchgezogene Linie
 72
    65
 73
     0
 40
0.0
  0
LTYPE
  5
46
330
5
100
AcDbSymbolTableRecord
100
AcDbLinetypeTableRecord
  2
PUNKT2_S9
 70
     0
  3
Eng Punktiert
 72
    65
 73
     2
 40
0.0
 49
0.0
 74
     0
 49
0.0
 74
     0
  0
ENDTAB
  0
TABLE
  2
LAYER
  5
2
330
0
100
AcDbSymbolTable
 70
     4
  0
LAYER
  5
10
330
2
100
AcDbSymbolTableRecord
100
AcDbLayerTableRecord
  2
0
 70
     0
 62
     7
  6
Continuous
370
    -3
390
F
  0
LAYER
  5
47
330
2
100
AcDbSymbolTableRecord
100
AcDbLayerTableRecord
  2
STANDARD
 70
     0
 62
     7
  6
AUSGEZOGEN
370
    25
390
F
1001
AcAecLayerStandard
1000

1000
STANDARD
  0
LAYER
  5
A4
330
2
100
AcDbSymbolTableRecord
100
AcDbLayerTableRecord
  2
XR$1$STANDARD
 70
     0
 62
     7
  6
AUSGEZOGEN
370
    25
390
F
1001
AcAecLayerStandard
1000

1000
STANDARD
  0
LAYER
  5
D8
330
2
100
AcDbSymbolTableRecord
100
AcDbLayerTableRecord
  2
DEFPOINTS
 70
     0
 62
     7
  6
Continuous
290
     0
370
    -3
390
F
  0
ENDTAB
  0
TABLE
  2
STYLE
  5
3
330
0
100
AcDbSymbolTable
 70
     3
  0
STYLE
  5
11
330
3
100
AcDbSymbolTableRecord
100
AcDbTextStyleTableRecord
  2
Standard
 70
     0
 40
0.0
 41
1.0
 50
0.0
 71
     0
 42
0.2
  3
txt
  4

  0
STYLE
  5
45
330
3
100
AcDbSymbolTableRecord
100
AcDbTextStyleTableRecord
  2
ARIAL
 70
     0
 40
0.0
 41
1.0
 50
0.0
 71
     0
 42
2.5
  3
ARIAL.TTF
  4

1001
ACAD
1000
Arial
1071
       34
  0
STYLE
  5
49
330
3
100
AcDbSymbolTableRecord
100
AcDbTextStyleTableRecord
  2
CALIBRI
 70
     0
 40
0.0
 41
1.0
 50
0.0
 71
     0
 42
2.5
  3
Calibri
  4

1001
ACAD
1000
Calibri
1071
        0
  0
ENDTAB
  0
TABLE
  2
VIEW
  5
6
330
0
100
AcDbSymbolTable
 70
     0
  0
ENDTAB
  0
TABLE
  2
UCS
  5
7
330
0
100
AcDbSymbolTable
 70
     0
  0
ENDTAB
  0
TABLE
  2
APPID
  5
9
330
0
100
AcDbSymbolTable
 70
     3
  0
APPID
  5
12
330
9
100
AcDbSymbolTableRecord
100
AcDbRegAppTableRecord
  2
ACAD
 70
     0
  0
APPID
  5
48
330
9
100
AcDbSymbolTableRecord
100
AcDbRegAppTableRecord
  2
AcAecLayerStandard
 70
     0
  0
APPID
  5
EA
330
9
100
AcDbSymbolTableRecord
100
AcDbRegAppTableRecord
  2
NEM_ODX
 70
     0
  0
ENDTAB
  0
TABLE
  2
DIMSTYLE
  5
A
330
0
100
AcDbSymbolTable
 70
     5
100
AcDbDimStyleTable
  0
DIMSTYLE
105
27
330
A
100
AcDbSymbolTableRecord
100
AcDbDimStyleTableRecord
  2
Standard
 70
     0
340
11
  0
DIMSTYLE
105
E9
102
{ACAD_REACTORS
330
EB
102
}
330
A
100
AcDbSymbolTableRecord
100
AcDbDimStyleTableRecord
  2
_DIMSTYLE_2
 70
     0
  3
<>
 41
0.15
 42
0.000001
 43
0.0
 44
0.0
 45
0.0001
 73
     0
 74
     0
 75
     1
 76
     1
 77
     2
 78
     4
140
0.15
141
0.0
147
0.075
172
     1
173
     1
174
     1
176
    94
177
    94
178
    94
271
     2
272
     0
274
     0
278
     0
279
     2
283
     0
340
49
343
D9
344
D9
371
     0
372
    25
  0
DIMSTYLE
105
F6
102
{ACAD_REACTORS
330
F7
102
}
330
A
100
AcDbSymbolTableRecord
100
AcDbDimStyleTableRecord
  2
_DIMSTYLE_3
 70
     0
  3
<>
 41
0.15
 42
0.000001
 43
0.0
 44
0.0
 45
0.01
 73
     0
 74
     0
 75
     1
 76
     1
 77
     2
 78
     4
140
0.15
141
0.0
144
100.0
147
0.075
172
     1
173
     1
174
     1
176
    94
177
    94
178
    94
271
     1
272
     0
274
     0
278
     0
279
     2
283
     0
340
49
343
D9
344
D9
371
     0
372
    25
  0
DIMSTYLE
105
102
102
{ACAD_REACTORS
330
103
330
10E
330
137
102
}
330
A
100
AcDbSymbolTableRecord
100
AcDbDimStyleTableRecord
  2
_DIMSTYLE_4
 70
     0
  3
<>
 41
0.15
 42
0.000001
 43
0.0
 44
0.0
 45
0.0001
 73
     0
 74
     0
 75
     1
 76
     1
 77
     2
 78
     4
140
0.15
141
0.0
147
0.075
172
     1
173
     1
174
     1
176
    94
177
    94
178
    94
271
     2
272
     0
274
     0
278
     0
279
     2
283
     0
340
49
343
D9
344
D9
371
     0
372
    25
  0
DIMSTYLE
105
12B
102
{ACAD_REACTORS
330
12C
102
}
330
A
100
AcDbSymbolTableRecord
100
AcDbDimStyleTableRecord
  2
_DIMSTYLE_5
 70
     0
  3
<>
 41
0.15
 42
0.000001
 43
0.0
 44
0.0
 45
0.01
 73
     0
 74
     0
 75
     1
 76
     1
 77
     2
 78
     4
140
0.15
141
0.0
144
100.0
147
0.075
172
     1
173
     1
174
     1
176
    94
177
    94
178
    94
271
     1
272
     0
274
     0
278
     0
279
     2
283
     0
340
49
343
D9
344
D9
371
     0
372
    25
  0
ENDTAB
  0
TABLE
  2
BLOCK_RECORD
  5
1
330
0
100
AcDbSymbolTable
 70
    10
  0
BLOCK_RECORD
  5
1F
330
1
100
AcDbSymbolTableRecord
100
AcDbBlockTableRecord
  2
*Model_Space
340
22
  0
BLOCK_RECORD
  5
3F
102
{ACAD_XDICTIONARY
360
A2
102
}
330
1
100
AcDbSymbolTableRecord
100
AcDbBlockTableRecord
  2
*Paper_Space
340
40
  0
BLOCK_RECORD
  5
A5
330
1
100
AcDbSymbolTableRecord
100
AcDbBlockTableRecord
  2
NSY140
340
0
1001
ACAD
1000
DesignCenter Data
1002
{
1070
     1
1070
     6
1002
}
  0
BLOCK_RECORD
  5
D9
330
1
100
AcDbSymbolTableRecord
100
AcDbBlockTableRecord
  2
ALL_ML_STRICH
340
0
102
{BLKREFS
331
E4
331
E5
331
F1
331
F2
331
FD
331
FE
331
109
331
10A
331
126
331
127
331
132
331
133
102
}
1001
ACAD
1000
DesignCenter Data
1002
{
1070
     1
1070
     6
1002
}
  0
BLOCK_RECORD
  5
DF
330
1
100
AcDbSymbolTableRecord
100
AcDbBlockTableRecord
  2
*D4
340
0
  0
BLOCK_RECORD
  5
EC
330
1
100
AcDbSymbolTableRecord
100
AcDbBlockTableRecord
  2
*D5
340
0
  0
BLOCK_RECORD
  5
F8
330
1
100
AcDbSymbolTableRecord
100
AcDbBlockTableRecord
  2
*D6
340
0
  0
BLOCK_RECORD
  5
104
330
1
100
AcDbSymbolTableRecord
100
AcDbBlockTableRecord
  2
*D7
340
0
  0
BLOCK_RECORD
  5
121
330
1
100
AcDbSymbolTableRecord
100
AcDbBlockTableRecord
  2
*D8
340
0
  0
BLOCK_RECORD
  5
12D
330
1
100
AcDbSymbolTableRecord
100
AcDbBlockTableRecord
  2
*D9
340
0
  0
ENDTAB
  0
ENDSEC
  0
SECTION
  2
BLOCKS
  0
BLOCK
  5
20
330
1F
100
AcDbEntity
  8
0
100
AcDbBlockBegin
  2
*Model_Space
 70
     0
 10
0.0
 20
0.0
 30
0.0
  3
*Model_Space
  1

  0
ENDBLK
  5
21
330
1F
100
AcDbEntity
  8
0
100
AcDbBlockEnd
  0
BLOCK
  5
41
330
3F
100
AcDbEntity
 67
     1
  8
0
100
AcDbBlockBegin
  2
*Paper_Space
 70
     0
 10
0.0
 20
0.0
 30
0.0
  3
*Paper_Space
  1

  0
ENDBLK
  5
42
330
3F
100
AcDbEntity
 67
     1
  8
0
100
AcDbBlockEnd
  0
BLOCK
  5
A6
330
A5
100
AcDbEntity
  8
0
100
AcDbBlockBegin
  2
NSY140
 70
     0
 10
0.0
 20
0.0
 30
0.0
  3
NSY140
  1

  0
LINE
  5
A8
330
A5
100
AcDbEntity
  8
0
  6
ByBlock
 62
     0
370
    -2
100
AcDbLine
 10
0.0
 20
-0.025
 30
0.0
 11
0.0
 21
0.025
 31
0.0
  0
LINE
  5
A9
330
A5
100
AcDbEntity
  8
0
  6
ByBlock
 62
     0
370
    -2
100
AcDbLine
 10
-0.025
 20
0.0
 30
0.0
 11
0.025
 21
0.0
 31
0.0
  0
LINE
  5
AA
330
A5
100
AcDbEntity
  8
0
  6
ByBlock
 62
     0
370
    -2
100
AcDbLine
 10
-0.015
 20
-0.015
 30
0.0
 11
0.015
 21
0.015
 31
0.0
  0
ENDBLK
  5
A7
330
A5
100
AcDbEntity
  8
0
100
AcDbBlockEnd
  0
BLOCK
  5
DA
330
D9
100
AcDbEntity
  8
0
100
AcDbBlockBegin
  2
ALL_ML_STRICH
 70
     0
 10
0.0
 20
0.0
 30
0.0
  3
ALL_ML_STRICH
  1

  0
LINE
  5
DC
330
D9
100
AcDbEntity
  8
0
  6
ByBlock
 62
     0
370
    -2
100
AcDbLine
 10
-1.0
 20
0.0
 30
0.0
 11
0.5
 21
0.0
 31
0.0
  0
LINE
  5
DD
330
D9
100
AcDbEntity
  8
0
  6
ByBlock
 62
     0
370
    -2
100
AcDbLine
 10
0.0
 20
-0.5
 30
0.0
 11
0.0
 21
0.5
 31
0.0
  0
LINE
  5
DE
330
D9
100
AcDbEntity
  8
0
  6
ByBlock
 62
     0
370
    -2
100
AcDbLine
 10
-0.3
 20
-0.3
 30
0.0
 11
0.3
 21
0.3
 31
0.0
  0
ENDBLK
  5
DB
330
D9
100
AcDbEntity
  8
0
100
AcDbBlockEnd
  0
BLOCK
  5
E0
330
DF
100
AcDbEntity
  8
0
100
AcDbBlockBegin
  2
*D4
 70
     1
 10
0.0
 20
0.0
 30
0.0
  3
*D4
  1

  0
MTEXT
  5
E2
330
DF
100
AcDbEntity
  8
XR$1$STANDARD
  6
AUSGEZOGEN
 62
    94
370
    25
100
AcDbMText
 10
70.236522
 20
-21.062145
 30
0.0
 40
0.15
 41
0.5
 71
     5
 72
     1
  1
\W0.83;\A1;{5.70\H0.099000;\S^ ;}
  7
CALIBRI
 73
     1
 44
1.0
  0
LINE
  5
E3
330
DF
100
AcDbEntity
  8
XR$1$STANDARD
  6
AUSGEZOGEN
 62
    94
370
    -2
100
AcDbLine
 10
67.383469
 20
-21.179348
 30
0.0
 11
73.083469
 21
-21.179348
 31
0.0
  0
INSERT
  5
E4
330
DF
100
AcDbEntity
  8
XR$1$STANDARD
  6
AUSGEZOGEN
 62
    94
370
    25
100
AcDbBlockReference
  2
ALL_ML_STRICH
 10
67.383469
 20
-21.179348
 30
0.0
 41
0.15
 42
0.15
 43
0.15
 50
180.0
  0
INSERT
  5
E5
330
DF
100
AcDbEntity
  8
XR$1$STANDARD
  6
AUSGEZOGEN
 62
    94
370
    25
100
AcDbBlockReference
  2
ALL_ML_STRICH
 10
73.083469
 20
-21.179348
 30
0.0
 41
0.15
 42
0.15
 43
0.15
  0
POINT
  5
E6
330
DF
100
AcDbEntity
  8
DEFPOINTS
  6
AUSGEZOGEN
 62
    94
370
    25
100
AcDbPoint
 10
67.383469
 20
-21.379348
 30
0.0
  0
POINT
  5
E7
330
DF
100
AcDbEntity
  8
DEFPOINTS
  6
AUSGEZOGEN
 62
    94
370
    25
100
AcDbPoint
 10
73.083469
 20
-21.579333
 30
0.0
  0
POINT
  5
E8
330
DF
100
AcDbEntity
  8
DEFPOINTS
  6
AUSGEZOGEN
 62
    94
370
    25
100
AcDbPoint
 10
67.383469
 20
-21.179348
 30
0.0
  0
ENDBLK
  5
E1
330
DF
100
AcDbEntity
  8
0
100
AcDbBlockEnd
  0
BLOCK
  5
ED
330
EC
100
AcDbEntity
  8
0
100
AcDbBlockBegin
  2
*D5
 70
     1
 10
0.0
 20
0.0
 30
0.0
  3
*D5
  1

  0
MTEXT
  5
EF
330
EC
100
AcDbEntity
  8
XR$1$STANDARD
  6
AUSGEZOGEN
 62
    94
370
    25
100
AcDbMText
 10
73.423121
 20
-23.348231
 30
0.0
 40
0.15
 41
0.5
 71
     5
 72
     1
  1
\W0.83;\A1;{96\H0.099000;\S^ ;}
  7
CALIBRI
 11
6.123233995736766E-17
 21
1.0
 31
0.0
 73
     1
 44
1.0
  0
LINE
  5
F0
330
EC
100
AcDbEntity
  8
XR$1$STANDARD
  6
AUSGEZOGEN
 62
    94
370
    -2
100
AcDbLine
 10
73.540323
 20
-23.819373
 30
0.0
 11
73.540323
 21
-22.859373
 31
0.0
  0
INSERT
  5
F1
330
EC
100
AcDbEntity
  8
XR$1$STANDARD
  6
AUSGEZOGEN
 62
    94
370
    25
100
AcDbBlockReference
  2
ALL_ML_STRICH
 10
73.540323
 20
-23.819373
 30
0.0
 41
0.15
 42
0.15
 43
0.15
 50
-90.0
  0
INSERT
  5
F2
330
EC
100
AcDbEntity
  8
XR$1$STANDARD
  6
AUSGEZOGEN
 62
    94
370
    25
100
AcDbBlockReference
  2
ALL_ML_STRICH
 10
73.540323
 20
-22.859373
 30
0.0
 41
0.15
 42
0.15
 43
0.15
 50
90.0
  0
POINT
  5
F3
330
EC
100
AcDbEntity
  8
DEFPOINTS
  6
AUSGEZOGEN
 62
    94
370
    25
100
AcDbPoint
 10
73.340323
 20
-23.819373
 30
0.0
  0
POINT
  5
F4
330
EC
100
AcDbEntity
  8
DEFPOINTS
  6
AUSGEZOGEN
 62
    94
370
    25
100
AcDbPoint
 10
71.760205
 20
-22.859373
 30
0.0
  0
POINT
  5
F5
330
EC
100
AcDbEntity
  8
DEFPOINTS
  6
AUSGEZOGEN
 62
    94
370
    25
100
AcDbPoint
 10
73.540323
 20
-23.819373
 30
0.0
  0
ENDBLK
  5
EE
330
EC
100
AcDbEntity
  8
0
100
AcDbBlockEnd
  0
BLOCK
  5
F9
330
F8
100
AcDbEntity
  8
0
100
AcDbBlockBegin
  2
*D6
 70
     1
 10
0.0
 20
0.0
 30
0.0
  3
*D6
  1

  0
MTEXT
  5
FB
330
F8
100
AcDbEntity
  8
XR$1$STANDARD
  6
AUSGEZOGEN
 62
    94
370
    25
100
AcDbMText
 10
73.423121
 20
-22.215673
 30
0.0
 40
0.15
 41
0.5
 71
     5
 72
     1
  1
\W0.83;\A1;{1.28\H0.099000;\S^ ;}
  7
CALIBRI
 11
6.123233995736766E-17
 21
1.0
 31
0.0
 73
     1
 44
1.0
  0
LINE
  5
FC
330
F8
100
AcDbEntity
  8
XR$1$STANDARD
  6
AUSGEZOGEN
 62
    94
370
    -2
100
AcDbLine
 10
73.540323
 20
-22.859373
 30
0.0
 11
73.540323
 21
-21.579333
 31
0.0
  0
INSERT
  5
FD
330
F8
100
AcDbEntity
  8
XR$1$STANDARD
  6
AUSGEZOGEN
 62
    94
370
    25
100
AcDbBlockReference
  2
ALL_ML_STRICH
 10
73.540323
 20
-22.859373
 30
0.0
 41
0.15
 42
0.15
 43
0.15
 50
-90.0
  0
INSERT
  5
FE
330
F8
100
AcDbEntity
  8
XR$1$STANDARD
  6
AUSGEZOGEN
 62
    94
370
    25
100
AcDbBlockReference
  2
ALL_ML_STRICH
 10
73.540323
 20
-21.579333
 30
0.0
 41
0.15
 42
0.15
 43
0.15
 50
90.0
  0
POINT
  5
FF
330
F8
100
AcDbEntity
  8
DEFPOINTS
  6
AUSGEZOGEN
 62
    94
370
    25
100
AcDbPoint
 10
71.760205
 20
-22.859373
 30
0.0
  0
POINT
  5
100
330
F8
100
AcDbEntity
  8
DEFPOINTS
  6
AUSGEZOGEN
 62
    94
370
    25
100
AcDbPoint
 10
72.943522
 20
-21.579333
 30
0.0
  0
POINT
  5
101
330
F8
100
AcDbEntity
  8
DEFPOINTS
  6
AUSGEZOGEN
 62
    94
370
    25
100
AcDbPoint
 10
73.540323
 20
-22.859373
 30
0.0
  0
ENDBLK
  5
FA
330
F8
100
AcDbEntity
  8
0
100
AcDbBlockEnd
  0
BLOCK
  5
105
330
104
100
AcDbEntity
  8
0
100
AcDbBlockBegin
  2
*D7
 70
     1
 10
0.0
 20
0.0
 30
0.0
  3
*D7
  1

  0
MTEXT
  5
107
330
104
100
AcDbEntity
  8
XR$1$STANDARD
  6
AUSGEZOGEN
 62
    94
370
    25
100
AcDbMText
 10
73.82428
 20
-22.69688
 30
0.0
 40
0.15
 41
0.5
 71
     5
 72
     1
  1
\W0.83;\A1;{2.24\H0.099000;\S^ ;}
  7
CALIBRI
 11
6.123233995736766E-17
 21
1.0
 31
0.0
 73
     1
 44
1.0
  0
LINE
  5
108
330
104
100
AcDbEntity
  8
XR$1$STANDARD
  6
AUSGEZOGEN
 62
    94
370
    -2
100
AcDbLine
 10
73.940323
 20
-23.819373
 30
0.0
 11
73.940323
 21
-21.579333
 31
0.0
  0
INSERT
  5
109
330
104
100
AcDbEntity
  8
XR$1$STANDARD
  6
AUSGEZOGEN
 62
    94
370
    25
100
AcDbBlockReference
  2
ALL_ML_STRICH
 10
73.940323
 20
-23.819373
 30
0.0
 41
0.15
 42
0.15
 43
0.15
 50
-90.0
  0
INSERT
  5
10A
330
104
100
AcDbEntity
  8
XR$1$STANDARD
  6
AUSGEZOGEN
 62
    94
370
    25
100
AcDbBlockReference
  2
ALL_ML_STRICH
 10
73.940323
 20
-21.579333
 30
0.0
 41
0.15
 42
0.15
 43
0.15
 50
90.0
  0
POINT
  5
10B
330
104
100
AcDbEntity
  8
DEFPOINTS
  6
AUSGEZOGEN
 62
    94
370
    25
100
AcDbPoint
 10
73.340323
 20
-23.819373
 30
0.0
  0
POINT
  5
10C
330
104
100
AcDbEntity
  8
DEFPOINTS
  6
AUSGEZOGEN
 62
    94
370
    25
100
AcDbPoint
 10
73.340323
 20
-21.579333
 30
0.0
  0
POINT
  5
10D
330
104
100
AcDbEntity
  8
DEFPOINTS
  6
AUSGEZOGEN
 62
    94
370
    25
100
AcDbPoint
 10
73.940323
 20
-23.819373
 30
0.0
  0
ENDBLK
  5
106
330
104
100
AcDbEntity
  8
0
100
AcDbBlockEnd
  0
BLOCK
  5
122
330
121
100
AcDbEntity
  8
0
100
AcDbBlockBegin
  2
*D8
 70
     1
 10
0.0
 20
0.0
 30
0.0
  3
*D8
  1

  0
MTEXT
  5
124
330
121
100
AcDbEntity
  8
XR$1$STANDARD
  6
AUSGEZOGEN
 62
    94
370
    25
100
AcDbMText
 10
66.886019
 20
-26.153623
 30
0.0
 40
0.15
 41
0.5
 71
     5
 72
     1
  1
\W0.83;\A1;{72\H0.099000;\S^ ;}
  7
CALIBRI
 11
6.123233995736766E-17
 21
1.0
 31
0.0
 73
     1
 44
1.0
  0
LINE
  5
125
330
121
100
AcDbEntity
  8
XR$1$STANDARD
  6
AUSGEZOGEN
 62
    94
370
    -2
100
AcDbLine
 10
67.001715
 20
-26.506285
 30
0.0
 11
67.001715
 21
-25.786432
 31
0.0
  0
INSERT
  5
126
330
121
100
AcDbEntity
  8
XR$1$STANDARD
  6
AUSGEZOGEN
 62
    94
370
    25
100
AcDbBlockReference
  2
ALL_ML_STRICH
 10
67.001715
 20
-26.506285
 30
0.0
 41
0.15
 42
0.15
 43
0.15
 50
-90.0
  0
INSERT
  5
127
330
121
100
AcDbEntity
  8
XR$1$STANDARD
  6
AUSGEZOGEN
 62
    94
370
    25
100
AcDbBlockReference
  2
ALL_ML_STRICH
 10
67.001715
 20
-25.786432
 30
0.0
 41
0.15
 42
0.15
 43
0.15
 50
90.0
  0
POINT
  5
128
330
121
100
AcDbEntity
  8
DEFPOINTS
  6
AUSGEZOGEN
 62
    94
370
    25
100
AcDbPoint
 10
68.03823
 20
-26.506285
 30
0.0
  0
POINT
  5
129
330
121
100
AcDbEntity
  8
DEFPOINTS
  6
AUSGEZOGEN
 62
    94
370
    25
100
AcDbPoint
 10
67.9925
 20
-25.786432
 30
0.0
  0
POINT
  5
12A
330
121
100
AcDbEntity
  8
DEFPOINTS
  6
AUSGEZOGEN
 62
    94
370
    25
100
AcDbPoint
 10
67.001715
 20
-26.506285
 30
0.0
  0
ENDBLK
  5
123
330
121
100
AcDbEntity
  8
0
100
AcDbBlockEnd
  0
BLOCK
  5
12E
330
12D
100
AcDbEntity
  8
0
100
AcDbBlockBegin
  2
*D9
 70
     1
 10
0.0
 20
0.0
 30
0.0
  3
*D9
  1

  0
MTEXT
  5
130
330
12D
100
AcDbEntity
  8
XR$1$STANDARD
  6
AUSGEZOGEN
 62
    94
370
    25
100
AcDbMText
 10
70.237644
 20
-25.278135
 30
0.0
 40
0.15
 41
0.5
 71
     5
 72
     1
  1
\W0.83;\A1;{5.70\H0.099000;\S^ ;}
  7
CALIBRI
 73
     1
 44
1.0
  0
LINE
  5
131
330
12D
100
AcDbEntity
  8
XR$1$STANDARD
  6
AUSGEZOGEN
 62
    94
370
    -2
100
AcDbLine
 10
67.384591
 20
-25.395337
 30
0.0
 11
73.084591
 21
-25.395337
 31
0.0
  0
INSERT
  5
132
330
12D
100
AcDbEntity
  8
XR$1$STANDARD
  6
AUSGEZOGEN
 62
    94
370
    25
100
AcDbBlockReference
  2
ALL_ML_STRICH
 10
67.384591
 20
-25.395337
 30
0.0
 41
0.15
 42
0.15
 43
0.15
 50
180.0
  0
INSERT
  5
133
330
12D
100
AcDbEntity
  8
XR$1$STANDARD
  6
AUSGEZOGEN
 62
    94
370
    25
100
AcDbBlockReference
  2
ALL_ML_STRICH
 10
73.084591
 20
-25.395337
 30
0.0
 41
0.15
 42
0.15
 43
0.15
  0
POINT
  5
134
330
12D
100
AcDbEntity
  8
DEFPOINTS
  6
AUSGEZOGEN
 62
    94
370
    25
100
AcDbPoint
 10
67.384591
 20
-25.595337
 30
0.0
  0
POINT
  5
135
330
12D
100
AcDbEntity
  8
DEFPOINTS
  6
AUSGEZOGEN
 62
    94
370
    25
100
AcDbPoint
 10
73.084591
 20
-25.786432
 30
0.0
  0
POINT
  5
136
330
12D
100
AcDbEntity
  8
DEFPOINTS
  6
AUSGEZOGEN
 62
    94
370
    25
100
AcDbPoint
 10
67.384591
 20
-25.395337
 30
0.0
  0
ENDBLK
  5
12F
330
12D
100
AcDbEntity
  8
0
100
AcDbBlockEnd
  0
ENDSEC
  0
SECTION
  2
ENTITIES
  0
LINE
  5
AB
330
1F
100
AcDbEntity
  8
XR$1$STANDARD
  6
AUSGEZOGEN
 62
     7
370
    25
100
AcDbLine
 10
70.387282
 20
-21.643597
 30
0.0
 11
70.51441
 21
-21.579335
 31
0.0
  0
LINE
  5
AC
330
1F
100
AcDbEntity
  8
XR$1$STANDARD
  6
AUSGEZOGEN
 62
     7
370
    25
100
AcDbLine
 10
70.51441
 20
-21.579335
 30
0.0
 11
73.083469
 21
-21.579333
 31
0.0
  0
LINE
  5
AD
330
1F
100
AcDbEntity
  8
XR$1$STANDARD
  6
AUSGEZOGEN
 62
     7
370
    25
100
AcDbLine
 10
73.083469
 20
-21.579333
 30
0.0
 11
72.617583
 21
-22.859374
 31
0.0
  0
LINE
  5
AE
330
1F
100
AcDbEntity
  8
XR$1$STANDARD
  6
AUSGEZOGEN
 62
     7
370
    25
100
AcDbLine
 10
72.700973
 20
-21.579339
 30
0.0
 11
72.235086
 21
-22.859374
 31
0.0
  0
LINE
  5
AF
330
1F
100
AcDbEntity
  8
XR$1$STANDARD
  6
AUSGEZOGEN
 62
     7
370
    25
100
AcDbLine
 10
72.373256
 20
-22.508924
 30
0.0
 11
70.526982
 21
-22.508926
 31
0.0
  0
LINE
  5
B0
330
1F
100
AcDbEntity
  8
XR$1$STANDARD
  6
AUSGEZOGEN
 62
     7
370
    25
100
AcDbLine
 10
70.526982
 20
-22.508926
 30
0.0
 11
70.737748
 21
-21.929819
 31
0.0
  0
LINE
  5
B1
330
1F
100
AcDbEntity
  8
XR$1$STANDARD
  6
AUSGEZOGEN
 62
     7
370
    25
100
AcDbLine
 10
70.737748
 20
-21.929819
 30
0.0
 11
72.58404
 21
-21.9298
 31
0.0
  0
LINE
  5
B2
330
1F
100
AcDbEntity
  8
XR$1$STANDARD
  6
AUSGEZOGEN
 62
     7
370
    25
100
AcDbLine
 10
72.58404
 20
-21.9298
 30
0.0
 11
72.373256
 21
-22.508924
 31
0.0
  0
LINE
  5
B3
330
1F
100
AcDbEntity
  8
XR$1$STANDARD
  6
AUSGEZOGEN
 62
     7
370
    25
100
AcDbLine
 10
72.36579
 20
-22.500261
 30
0.0
 11
70.540697
 21
-22.500442
 31
0.0
  0
LINE
  5
B4
330
1F
100
AcDbEntity
  8
XR$1$STANDARD
  6
AUSGEZOGEN
 62
     7
370
    25
100
AcDbLine
 10
70.540697
 20
-22.500442
 30
0.0
 11
70.74523
 21
-21.938469
 31
0.0
  0
LINE
  5
B5
330
1F
100
AcDbEntity
  8
XR$1$STANDARD
  6
AUSGEZOGEN
 62
     7
370
    25
100
AcDbLine
 10
70.74523
 20
-21.938469
 30
0.0
 11
72.570165
 21
-21.938763
 31
0.0
  0
LINE
  5
B6
330
1F
100
AcDbEntity
  8
XR$1$STANDARD
  6
AUSGEZOGEN
 62
     7
370
    25
100
AcDbLine
 10
67.428131
 20
-22.48583
 30
0.0
 11
67.608778
 21
-22.389695
 31
0.0
  0
ARC
  5
B7
330
1F
100
AcDbEntity
  8
XR$1$STANDARD
  6
AUSGEZOGEN
 62
     7
370
    25
100
AcDbCircle
 10
69.019275
 20
-22.41406
 30
0.0
 40
0.7704629515052385
100
AcDbArc
 50
90.0
 51
119.966263
  0
LINE
  5
B8
330
1F
100
AcDbEntity
  8
XR$1$STANDARD
  6
AUSGEZOGEN
 62
     7
370
    25
100
AcDbLine
 10
70.387282
 20
-21.643597
 30
0.0
 11
69.019275
 21
-21.643597
 31
0.0
  0
ARC
  5
B9
330
1F
100
AcDbEntity
  8
XR$1$STANDARD
  6
AUSGEZOGEN
 62
     7
370
    25
100
AcDbCircle
 10
69.764788
 20
-21.887382
 30
0.0
 40
0.5023136205862367
100
AcDbArc
 50
270.0
 51
340.096444
  0
LINE
  5
BA
330
1F
100
AcDbEntity
  8
XR$1$STANDARD
  6
AUSGEZOGEN
 62
     7
370
    25
100
AcDbLine
 10
67.608778
 20
-22.389695
 30
0.0
 11
69.764788
 21
-22.389695
 31
0.0
  0
LINE
  5
BB
330
1F
100
AcDbEntity
  8
XR$1$STANDARD
  6
AUSGEZOGEN
 62
     7
370
    25
100
AcDbLine
 10
70.387282
 20
-21.643586
 30
0.0
 11
70.237097
 21
-22.058388
 31
0.0
  0
ARC
  5
BC
330
1F
100
AcDbEntity
  8
XR$1$STANDARD
  6
AUSGEZOGEN
 62
     7
370
    25
100
AcDbCircle
 10
69.770659
 20
-21.893453
 30
0.0
 40
0.5923690147481138
100
AcDbArc
 50
270.0
 51
340.096444
  0
LINE
  5
BD
330
1F
100
AcDbEntity
  8
XR$1$STANDARD
  6
AUSGEZOGEN
 62
     7
370
    25
100
AcDbLine
 10
67.428136
 20
-22.485822
 30
0.0
 11
69.770659
 21
-22.485822
 31
0.0
  0
LINE
  5
BE
330
1F
100
AcDbEntity
  8
XR$1$STANDARD
  6
AUSGEZOGEN
 62
     7
370
    25
100
AcDbLine
 10
70.514393
 20
-21.579328
 30
0.0
 11
70.327644
 21
-22.095118
 31
0.0
  0
LINE
  5
BF
330
1F
100
AcDbEntity
  8
XR$1$STANDARD
  6
AUSGEZOGEN
 62
     7
370
    25
100
AcDbLine
 10
68.974763
 20
-23.76984
 30
0.0
 11
69.039102
 21
-23.838781
 31
0.0
  0
ARC
  5
C0
330
1F
100
AcDbEntity
  8
XR$1$STANDARD
  6
AUSGEZOGEN
 62
     7
370
    25
100
AcDbCircle
 10
70.726182
 20
-23.390889
 30
0.0
 40
0.5315174701449381
100
AcDbArc
 50
89.999935
 51
122.596402
  0
LINE
  5
C1
330
1F
100
AcDbEntity
  8
XR$1$STANDARD
  6
AUSGEZOGEN
 62
     7
370
    25
100
AcDbLine
 10
69.039102
 20
-23.838781
 30
0.0
 11
70.439844
 21
-22.943093
 31
0.0
  0
LINE
  5
C2
330
1F
100
AcDbEntity
  8
XR$1$STANDARD
  6
AUSGEZOGEN
 62
     7
370
    25
100
AcDbLine
 10
72.617583
 20
-22.859374
 30
0.0
 11
70.726183
 21
-22.859371
 31
0.0
  0
SPLINE
  5
C3
330
1F
100
AcDbEntity
  8
XR$1$STANDARD
  6
AUSGEZOGEN
 62
     7
370
    25
100
AcDbSpline
210
0.0
220
0.0
230
1.0
 70
     8
 71
     3
 72
    11
 73
     7
 74
     5
 42
0.0000000001
 43
0.0000000001
 44
0.0
 12
-0.3039911383471902
 22
-0.9526748594386123
 32
0.0
 13
0.9965847238533835
 23
-0.08257655951948782
 33
0.0
 40
0.0
 40
0.0
 40
0.0
 40
0.0
 40
0.1619272202131184
 40
0.4915662414879722
 40
0.7803977126852446
 40
1.007585336899543
 40
1.007585336899543
 40
1.007585336899543
 40
1.007585336899543
 10
67.42813618949047
 20
-22.48582197797214
 30
0.0
 10
67.41172804282314
 20
-22.53724330855741
 30
0.0
 10
67.36006171604785
 20
-22.69903115877822
 30
0.0
 10
67.49493495349827
 20
-22.95514653123017
 30
0.0
 10
67.72561442450885
 20
-23.13362820181628
 30
0.0
 10
67.90231109107587
 20
-23.14819829318562
 30
0.0
 10
67.97778166298937
 20
-23.1544517506433
 30
0.0
 11
67.42813618949047
 21
-22.48582197797214
 31
0.0
 11
67.39251419425152
 21
-22.64378241004658
 31
0.0
 11
67.51954906865022
 21
-22.94796003090904
 31
0.0
 11
67.75368851207348
 21
-23.11708229374699
 31
0.0
 11
67.97778166298937
 21
-23.1544517506433
 31
0.0
  0
ARC
  5
C4
330
1F
100
AcDbEntity
  8
XR$1$STANDARD
  6
AUSGEZOGEN
 62
     7
370
    25
100
AcDbCircle
 10
68.546264
 20
-23.647287
 30
0.0
 40
0.4928350618132668
100
AcDbArc
 50
0.0
 51
90.0
  0
LINE
  5
C5
330
1F
100
AcDbEntity
  8
XR$1$STANDARD
  6
AUSGEZOGEN
 62
     7
370
    25
100
AcDbLine
 10
67.977782
 20
-23.154452
 30
0.0
 11
68.546264
 21
-23.154452
 31
0.0
  0
LINE
  5
C6
330
1F
100
AcDbEntity
  8
XR$1$STANDARD
  6
AUSGEZOGEN
 62
     7
370
    25
100
AcDbLine
 10
69.039099
 20
-23.838796
 30
0.0
 11
69.039099
 21
-23.647287
 31
0.0
  0
ARC
  5
C7
330
1F
100
AcDbEntity
  8
XR$1$STANDARD
  6
AUSGEZOGEN
 62
     7
370
    25
100
AcDbCircle
 10
68.4836
 20
-23.709053
 30
0.0
 40
0.4911634868796328
100
AcDbArc
 50
0.0
 51
90.0
  0
LINE
  5
C8
330
1F
100
AcDbEntity
  8
XR$1$STANDARD
  6
AUSGEZOGEN
 62
     7
370
    25
100
AcDbLine
 10
68.064943
 20
-23.217889
 30
0.0
 11
68.4836
 21
-23.217889
 31
0.0
  0
LINE
  5
C9
330
1F
100
AcDbEntity
  8
XR$1$STANDARD
  6
AUSGEZOGEN
 62
     7
370
    25
100
AcDbLine
 10
68.974763
 20
-23.76984
 30
0.0
 11
68.974763
 21
-23.709053
 31
0.0
  0
CIRCLE
  5
CA
330
1F
100
AcDbEntity
  8
XR$1$STANDARD
  6
AUSGEZOGEN
 62
     7
370
    25
100
AcDbCircle
 10
68.064923
 20
-23.217822
 30
0.0
 40
0.0000703280712526
  0
ARC
  5
CB
330
1F
100
AcDbEntity
  8
XR$1$STANDARD
  6
AUSGEZOGEN
 62
     7
370
    25
100
AcDbCircle
 10
67.99946
 20
-23.329847
 30
0.0
 40
0.4794309560517325
100
AcDbArc
 50
180.0
 51
270.0
  0
LINE
  5
CC
330
1F
100
AcDbEntity
  8
XR$1$STANDARD
  6
AUSGEZOGEN
 62
     7
370
    25
100
AcDbLine
 10
68.621192
 20
-23.809278
 30
0.0
 11
67.99946
 21
-23.809278
 31
0.0
  0
LINE
  5
CD
330
1F
100
AcDbEntity
  8
XR$1$STANDARD
  6
AUSGEZOGEN
 62
     7
370
    25
100
AcDbLine
 10
67.520029
 20
-23.329847
 30
0.0
 11
67.520029
 21
-22.948524
 31
0.0
  0
ARC
  5
CE
330
1F
100
AcDbEntity
  8
XR$1$STANDARD
  6
AUSGEZOGEN
 62
     7
370
    25
100
AcDbCircle
 10
68.081769
 20
-22.634983
 30
0.0
 40
0.5831493653503392
100
AcDbArc
 50
235.761816
 51
268.346583
  0
ARC
  5
CF
330
1F
100
AcDbEntity
  8
XR$1$STANDARD
  6
AUSGEZOGEN
 62
     7
370
    25
100
AcDbCircle
 10
68.652471
 20
-22.485052
 30
0.0
 40
1.324595280091127
100
AcDbArc
 50
268.646912
 51
284.082209
  0
LINE
  5
D0
330
1F
100
AcDbEntity
  8
XR$1$STANDARD
  6
AUSGEZOGEN
 62
     7
370
    25
100
AcDbLine
 10
67.764512
 20
-22.248161
 30
0.0
 11
68.634436
 21
-21.746593
 31
0.0
  0
ARC
  5
D1
330
1F
100
AcDbEntity
  8
XR$1$STANDARD
  6
AUSGEZOGEN
 62
     7
370
    25
100
AcDbCircle
 10
68.011239
 20
-22.676087
 30
0.0
 40
0.4939578301340458
100
AcDbArc
 50
119.966263
 51
144.563484
  0
HATCH
  5
D2
330
1F
100
AcDbEntity
  8
XR$1$STANDARD
  6
AUSGEZOGEN
 62
   255
370
    25
100
AcDbHatch
 10
0.0
 20
0.0
 30
0.0
210
0.0
220
0.0
230
1.0
  2
SOLID
 70
     1
 71
     0
 91
        1
 92
        3
 72
     0
 73
     1
 93
       55
 10
67.60877815808222
 20
-22.38969546606342
 10
69.76478764276771
 20
-22.38969546606342
 10
69.78597230199158
 20
-22.38924854455177
 10
69.80711926412923
 20
-22.38790857529224
 10
69.82819089917467
 20
-22.38567794269595
 10
69.84914971116282
 20
-22.38256061606671
 10
69.86995840489183
 20
-22.37856214253793
 10
69.89057995228812
 20
-22.3736896372017
 10
69.91097765829596
 20
-22.36795177044784
 10
69.93111522617478
 20
-22.36135875253535
 10
69.95095682208724
 20
-22.35392231542374
 10
69.97046713886397
 20
-22.3456556918966
 10
69.98961145883098
 20
-22.33657359201446
 10
70.00835571558801
 20
-22.32669217693896
 10
70.02666655462819
 20
-22.31602903017484
 10
70.04451139269064
 20
-22.30460312628092
 10
70.06185847574095
 20
-22.2924347971058
 10
70.07867693547584
 20
-22.27954569560828
 10
70.094936844252
 20
-22.265958757327
 10
70.11060926834071
 20
-22.25169815956772
 10
70.12566631941412
 20
-22.23678927838095
 10
70.14008120417118
 20
-22.22125864340654
 10
70.15382827201508
 20
-22.20513389066538
 10
70.16688306069713
 20
-22.18844371338247
 10
70.17922233984635
 20
-22.17121781092872
 10
70.19082415230658
 20
-22.15348683597229
 10
70.20166785320839
 20
-22.13528233993367
 10
70.21173414670551
 20
-22.11663671684143
 10
70.22100512031092
 20
-22.0975831456886
 10
70.22946427677124
 20
-22.07815553139224
 10
70.23709656342278
 20
-22.05838844446127
 10
70.38727720186152
 20
-21.64359944996817
 10
69.01927487773402
 20
-21.64359704243996
 10
68.9857055252575
 20
-21.64432870432754
 10
68.95219993033285
 20
-21.64652230036052
 10
68.9188217294186
 20
-21.65017366428897
 10
68.88563431701652
 20
-21.6552758611556
 10
68.85270072526792
 20
-21.66181920046724
 10
68.82008350423791
 20
-21.66979125459973
 10
68.78784460311556
 20
-21.67917688240148
 10
68.75604525255494
 20
-21.68995825795071
 10
68.72474584838122
 20
-21.70211490441185
 10
68.69400583688211
 20
-21.71562373292675
 10
68.66388360190277
 20
-21.73045908646687
 10
68.63443635395868
 20
-21.74659278856311
 10
67.76451158198994
 20
-22.24816134854714
 10
67.74637360610592
 20
-22.25914442024353
 10
67.72872370303912
 20
-22.27089580121726
 10
67.71159439667582
 20
-22.28339383692569
 10
67.69501725158666
 20
-22.29661549694815
 10
67.67902281486187
 20
-22.31053641742468
 10
67.66364055982147
 20
-22.32513094595181
 10
67.64889883170406
 20
-22.34037218885288
 10
67.63482479543441
 20
-22.35623206073564
 10
67.621444385566
 20
-22.37268133624583
 97
        0
 75
     0
 76
     1
 98
        0
  0
HATCH
  5
D3
330
1F
100
AcDbEntity
  8
XR$1$STANDARD
  6
AUSGEZOGEN
 62
   255
370
    25
100
AcDbHatch
 10
0.0
 20
0.0
 30
0.0
210
0.0
220
0.0
230
1.0
  2
SOLID
 70
     1
 71
     0
 91
        1
 92
        3
 72
     0
 73
     1
 93
      164
 10
67.42814495241606
 20
-22.48582197797214
 10
67.41745999205439
 20
-22.51974109460167
 10
67.41141104693325
 20
-22.54012832961006
 10
67.40680089437664
 20
-22.5569287490487
 10
67.40310974967532
 20
-22.57173398899317
 10
67.40011855105679
 20
-22.58520021382629
 10
67.39770666382937
 20
-22.59768010070656
 10
67.3957976529012
 20
-22.60939201174824
 10
67.39433875381856
 20
-22.62048409718022
 10
67.3932915131759
 20
-22.63106355122805
 10
67.39262694971275
 20
-22.64121180778617
 10
67.39231916238786
 20
-22.65112149873111
 10
67.39235226543671
 20
-22.66114563136775
 10
67.39273137013566
 20
-22.67130612624417
 10
67.39346313466919
 20
-22.68160823636889
 10
67.39455500322444
 20
-22.69205682181325
 10
67.39601514259795
 20
-22.70265627025459
 10
67.39785236902307
 20
-22.71341041190397
 10
67.40007606419506
 20
-22.72432242854608
 10
67.40269607931657
 20
-22.7353947560099
 10
67.40572262581588
 20
-22.74662897935173
 10
67.40916615120204
 20
-22.7580257199876
 10
67.41303719831926
 20
-22.76958451399145
 10
67.41734624605519
 20
-22.78130368079111
 10
67.42210352935336
 20
-22.79318018156188
 10
67.4273188361981
 20
-22.80520946675558
 10
67.43300127910089
 20
-22.81738531243883
 10
67.4391590385585
 20
-22.82969964547738
 10
67.44579907601607
 20
-22.84214235813293
 10
67.45292681411892
 20
-22.85470111338134
 10
67.46054578254987
 20
-22.86736114326676
 10
67.46865722862755
 20
-22.88010504393385
 10
67.47725969320302
 20
-22.89291257268246
 10
67.48634855437614
 20
-22.90576045451324
 10
67.4959155443041
 20
-22.91862220819632
 10
67.5059482480288
 20
-22.93146800487351
 10
67.5164295978979
 20
-22.94426457549141
 10
67.52002871591797
 20
-22.94852350437669
 10
67.52726614988246
 20
-22.95689242537371
 10
67.53823733411147
 20
-22.9690957337523
 10
67.54931858309088
 20
-22.98085655553012
 10
67.56049791586281
 20
-22.99217235186725
 10
67.57176414057703
 20
-23.00304188949062
 10
67.58310689199911
 20
-23.01346513831478
 10
67.59451663040896
 20
-23.02344313620004
 10
67.60598463992736
 20
-23.03297786230614
 10
67.61750302128388
 20
-23.04207211375404
 10
67.6290646798292
 20
-23.05072938643517
 10
67.6406633095162
 20
-23.05895376059694
 10
67.6522933734951
 20
-23.06674979165293
 10
67.66395008189042
 20
-23.07412240651544
 10
67.67562936725405
 20
-23.08107680562377
 10
67.6873278581204
 20
-23.08761837074185
 10
67.6990428510287
 20
-23.09375257852011
 10
67.71077228132273
 20
-23.09948491975617
 10
67.72251469299086
 20
-23.10482082424387
 10
67.73426920776907
 20
-23.10976559106817
 10
67.74603549369581
 20
-23.11432432418124
 10
67.75366922179984
 20
-23.11707553211112
 10
67.7578434580543
 20
-23.11851213208978
 10
67.77006169823666
 20
-23.12245449047473
 10
67.78285261967255
 20
-23.12619101373785
 10
67.79629539141146
 20
-23.12972643037324
 10
67.81049061923868
 20
-23.13306638874491
 10
67.82557069952047
 20
-23.13621834546572
 10
67.84171767949387
 20
-23.13919304645484
 10
67.85919696715203
 20
-23.14200729857113
 10
67.8784288119245
 20
-23.14468982799052
 10
67.90016842915004
 20
-23.14729603845878
 10
67.92611682746397
 20
-23.14995819049404
 10
67.96333724667791
 20
-23.15325026403533
 10
67.97778166298937
 20
-23.1544517506433
 10
68.54626411006352
 20
-23.1544517506433
 10
68.56776127353197
 20
-23.15492082041884
 10
68.58921751592794
 20
-23.15632713684447
 10
68.61059199407454
 20
-23.15866802291696
 10
68.63184402043775
 20
-23.16193902262661
 10
68.65293314057755
 20
-23.16613390943957
 10
68.67381921015507
 20
-23.17124469815036
 10
68.69446247134982
 20
-23.1772616600822
 10
68.71482362854081
 20
-23.18417334160607
 10
68.73486392310808
 20
-23.19196658594335
 10
68.7545452072119
 20
-23.20062655821051
 10
68.77383001640939
 20
-23.21013677365814
 10
68.79268164097014
 20
-23.2204791290506
 10
68.81106419575538
 20
-23.23163393712659
 10
68.8289426885272
 20
-23.24357996407494
 10
68.84628308655856
 20
-23.25629446995437
 10
68.86305238141618
 20
-23.26975325198032
 10
68.87921865179422
 20
-23.28393069059623
 10
68.89475112427817
 20
-23.29879979824191
 10
68.90962023192385
 20
-23.31433227072586
 10
68.92379767053977
 20
-23.3304985411039
 10
68.9372564525657
 20
-23.34726783596152
 10
68.94997095844515
 20
-23.36460823399286
 10
68.96191698539349
 20
-23.38248672676471
 10
68.97307179346949
 20
-23.40086928154993
 10
68.98341414886195
 20
-23.41972090611068
 10
68.99292436430957
 20
-23.43900571530817
 10
69.00158433657673
 20
-23.458686999412
 10
69.009377580914
 20
-23.47872729397928
 10
69.01628926243788
 20
-23.49908845117027
 10
69.02230622436973
 20
-23.51973171236502
 10
69.02741701308051
 20
-23.54061778194254
 10
69.03161189989348
 20
-23.56170690208232
 10
69.03488289960312
 20
-23.58295892844554
 10
69.03722378567561
 20
-23.60433340659214
 10
69.03863010210125
 20
-23.62578964898811
 10
69.0390991718768
 20
-23.64728681245656
 10
69.0390991718768
 20
-23.83877728140635
 10
69.03910239597579
 20
-23.83878073608166
 10
70.43984437343842
 20
-22.9430927971094
 10
70.45827277305479
 20
-22.93182981473383
 10
70.47714352485895
 20
-22.92132479637307
 10
70.49642547088044
 20
-22.91159508712575
 10
70.51608677421584
 20
-22.90265675195822
 10
70.53609497159529
 20
-22.89452454917929
 10
70.5564170269836
 20
-22.88721190607242
 10
70.57701938612665
 20
-22.88073089672558
 10
70.59786803195387
 20
-22.87509222209545
 10
70.61892854074455
 20
-22.87030519233878
 10
70.64016613896572
 20
-22.86637771144015
 10
70.66154576068767
 20
-22.86331626416154
 10
70.6830321054821
 20
-22.86112590533514
 10
70.70458969670757
 20
-22.85981025151719
 10
70.72618294008592
 20
-22.85937147501665
 10
72.23508634271631
 20
-22.85937317974323
 10
72.36263730882325
 20
-22.50892373442269
 10
70.52698217465165
 20
-22.50892587145991
 10
70.73774797497019
 20
-21.92981858123044
 10
72.57341732199892
 20
-21.92980041645319
 10
72.7009746301037
 20
-21.57933354633622
 10
70.51441033792173
 20
-21.57933537572207
 10
70.51438619486514
 20
-21.5793475797094
 10
70.32764376230877
 20
-22.09511783234982
 10
70.31864315006422
 20
-22.1184287865622
 10
70.30866742579032
 20
-22.14133940707496
 10
70.29773434081049
 20
-22.16380892553648
 10
70.28586335002569
 20
-22.18579735851511
 10
70.27307557729532
 20
-22.20726557864779
 10
70.25939377784832
 20
-22.22817538426525
 10
70.24484229779132
 20
-22.24848956737015
 10
70.22944703078598
 20
-22.26817197984686
 10
70.2132353719724
 20
-22.28718759778529
 10
70.19623616922077
 20
-22.30550258380433
 10
70.17847967179799
 20
-22.32308434726376
 10
70.15999747654057
 20
-22.33990160225781
 10
70.14082247162952
 20
-22.3559244232869
 10
70.12098877806748
 20
-22.3711242985086
 10
70.10053168896194
 20
-22.38547418047316
 10
70.07948760672292
 20
-22.39894853425307
 10
70.05789397828661
 20
-22.41152338288131
 10
70.03578922848031
 20
-22.42317635001718
 10
70.01321269164733
 20
-22.43388669976391
 10
69.99020454165336
 20
-22.44363537356724
 10
69.96680572039907
 20
-22.45240502412917
 10
69.94305786496591
 20
-22.46018004627666
 10
69.9190032335249
 20
-22.46694660473027
 10
69.89468463014032
 20
-22.47269265872341
 10
69.87014532860184
 20
-22.47740798342826
 10
69.84542899542095
 20
-22.48108418815043
 10
69.82057961212841
 20
-22.48371473125972
 10
69.79564139701137
 20
-22.4852949318307
 10
69.77065872642886
 20
-22.48582197797214
 97
        0
 75
     0
 76
     1
 98
        0
  0
HATCH
  5
D4
330
1F
100
AcDbEntity
  8
XR$1$STANDARD
  6
AUSGEZOGEN
 62
   255
370
    25
100
AcDbHatch
 10
0.0
 20
0.0
 30
0.0
210
0.0
220
0.0
230
1.0
  2
SOLID
 70
     1
 71
     0
 91
        1
 92
        3
 72
     0
 73
     1
 93
        9
 10
72.58404009331355
 20
-21.92980031133607
 10
72.37325602310064
 20
-22.50892372206058
 10
72.36263730882325
 20
-22.50892373442269
 10
72.23508634271631
 20
-22.85937317974323
 10
72.61758254468795
 20
-22.8593736118792
 10
73.0834691500709
 20
-21.57933322632273
 10
72.7009746301037
 20
-21.57933354633622
 10
72.70097279081736
 20
-21.57933859982108
 10
72.57341732199892
 20
-21.92980041645319
 97
        0
 75
     0
 76
     1
 98
        0
  0
HATCH
  5
D5
330
1F
100
AcDbEntity
  8
XR$1$STANDARD
  6
AUSGEZOGEN
 62
   255
370
    25
100
AcDbHatch
 10
0.0
 20
0.0
 30
0.0
210
0.0
220
0.0
230
1.0
  2
SOLID
 70
     1
 71
     0
 91
        1
 92
        3
 72
     0
 73
     1
 93
       64
 10
70.12098877806748
 20
-22.3711242985086
 10
70.14082247162952
 20
-22.3559244232869
 10
70.15999747654057
 20
-22.33990160225781
 10
70.178479671798
 20
-22.32308434726374
 10
70.19623616922078
 20
-22.30550258380432
 10
70.2132353719724
 20
-22.28718759778529
 10
70.22944703078598
 20
-22.26817197984686
 10
70.24484229779135
 20
-22.24848956737013
 10
70.25939377784832
 20
-22.22817538426525
 10
70.27307557729533
 20
-22.20726557864777
 10
70.28586335002572
 20
-22.18579735851508
 10
70.29773434081049
 20
-22.16380892553648
 10
70.30866742579032
 20
-22.14133940707496
 10
70.31864315006422
 20
-22.1184287865622
 10
70.32764376230877
 20
-22.09511783234982
 10
70.51438619486514
 20
-21.5793475797094
 10
70.38727720186152
 20
-21.64359944996817
 10
70.23709656342278
 20
-22.05838844446127
 10
70.22946427677124
 20
-22.07815553139225
 10
70.2210051203109
 20
-22.09758314568865
 10
70.2117341467055
 20
-22.11663671684146
 10
70.20166785320838
 20
-22.13528233993368
 10
70.19082415230658
 20
-22.15348683597229
 10
70.17922233984635
 20
-22.17121781092872
 10
70.16688306069712
 20
-22.1884437133825
 10
70.15382827201506
 20
-22.20513389066538
 10
70.14008120417118
 20
-22.22125864340655
 10
70.12566631941411
 20
-22.23678927838096
 10
70.11060926834071
 20
-22.25169815956772
 10
70.094936844252
 20
-22.265958757327
 10
70.07867693547584
 20
-22.27954569560828
 10
70.06185847574095
 20
-22.2924347971058
 10
70.04451139269064
 20
-22.30460312628092
 10
70.02666655462819
 20
-22.31602903017484
 10
70.00835571558801
 20
-22.32669217693896
 10
69.98961145883098
 20
-22.33657359201446
 10
69.97046713886397
 20
-22.3456556918966
 10
69.95095682208724
 20
-22.35392231542374
 10
69.93111522617478
 20
-22.36135875253535
 10
69.91097765829596
 20
-22.36795177044784
 10
69.89057995228812
 20
-22.3736896372017
 10
69.86995840489183
 20
-22.37856214253793
 10
69.84914971116281
 20
-22.38256061606671
 10
69.82819089917467
 20
-22.38567794269595
 10
69.8071192641292
 20
-22.38790857529224
 10
69.78597230199158
 20
-22.38924854455177
 10
69.76478764276771
 20
-22.38969546606342
 10
67.60877815808222
 20
-22.38969546606342
 10
67.42814495241606
 20
-22.48582197797214
 10
69.77065872642886
 20
-22.48582197797214
 10
69.79564139701138
 20
-22.4852949318307
 10
69.82057961212841
 20
-22.48371473125972
 10
69.84542899542095
 20
-22.48108418815043
 10
69.87014532860185
 20
-22.47740798342826
 10
69.89468463014032
 20
-22.47269265872341
 10
69.9190032335249
 20
-22.46694660473027
 10
69.94305786496592
 20
-22.46018004627665
 10
69.96680572039908
 20
-22.45240502412917
 10
69.99020454165336
 20
-22.44363537356724
 10
70.01321269164734
 20
-22.43388669976391
 10
70.03578922848031
 20
-22.42317635001718
 10
70.05789397828663
 20
-22.41152338288131
 10
70.07948760672292
 20
-22.39894853425307
 10
70.10053168896195
 20
-22.38547418047315
 97
        0
 75
     0
 76
     1
 98
        0
  0
HATCH
  5
D6
330
1F
100
AcDbEntity
  8
XR$1$STANDARD
  6
AUSGEZOGEN
 62
   255
370
    25
100
AcDbHatch
 10
0.0
 20
0.0
 30
0.0
210
0.0
220
0.0
230
1.0
  2
SOLID
 70
     1
 71
     0
 91
        1
 92
        3
 72
     0
 73
     1
 93
      123
 10
68.54626411006352
 20
-23.1544517506433
 10
67.97778166298937
 20
-23.1544517506433
 10
67.9633488013128
 20
-23.15325122514991
 10
67.96333488238439
 20
-23.15325005491817
 10
67.92613980717636
 20
-23.14996022300481
 10
67.92611682746397
 20
-23.14995819049404
 10
67.92609675835938
 20
-23.14995613152273
 10
67.90017707310281
 20
-23.14729692527715
 10
67.90016842915004
 20
-23.14729603845878
 10
67.90016012213553
 20
-23.14729504258898
 10
67.87843157155388
 20
-23.14469015882316
 10
67.87842632632379
 20
-23.14468948128966
 10
67.85920617109495
 20
-23.14200858237141
 10
67.85919696715203
 20
-23.14200729857113
 10
67.84172855999927
 20
-23.13919479827023
 10
67.84171767949387
 20
-23.13919304645484
 10
67.84170729899112
 20
-23.13919113409154
 10
67.82557768361629
 20
-23.13621963212098
 10
67.82557069952047
 20
-23.13621834546572
 10
67.82556333571216
 20
-23.13621680632238
 10
67.81049061923868
 20
-23.13306638874491
 10
67.8104794035099
 20
-23.13306374982516
 10
67.79630458452105
 20
-23.12972859339617
 10
67.79629539141146
 20
-23.12972643037324
 10
67.78285641117269
 20
-23.12619201089327
 10
67.78285261967255
 20
-23.12619101373785
 10
67.78284845863817
 20
-23.1261897982037
 10
67.77007318036745
 20
-23.12245784467005
 10
67.77006169823666
 20
-23.12245449047473
 10
67.77004976302956
 20
-23.12245063944029
 10
67.75784496835911
 20
-23.11851261940732
 10
67.7578401158029
 20
-23.11851098182467
 10
67.75366922179984
 20
-23.11707553211112
 10
67.77351802622262
 20
-23.13000229031255
 10
67.79387560899755
 20
-23.14211231658028
 10
67.81470819859099
 20
-23.1533856090663
 10
67.83598142247604
 20
-23.1638035675122
 10
67.85766018110556
 20
-23.17334900290962
 10
67.87970870582437
 20
-23.18200616586105
 10
67.90209061788534
 20
-23.18976077256537
 10
67.92476898847217
 20
-23.1966000283853
 10
67.9477063996297
 20
-23.20251264895777
 10
67.97086500600135
 20
-23.20748887881246
 10
67.99420659727164
 20
-23.21152050746771
 10
68.017692661211
 20
-23.21460088297736
 10
68.04128444721853
 20
-23.21672492290606
 10
68.06489899338871
 20
-23.21788784990051
 10
68.0649430302583
 20
-23.21788912271494
 10
68.48359967245389
 20
-23.21788912271494
 10
68.50502392284778
 20
-23.21835660152153
 10
68.5264073909634
 20
-23.21975814806883
 10
68.5477093721538
 20
-23.22209109443332
 10
68.56888931688707
 20
-23.225350999719
 10
68.5899069079346
 20
-23.22953165851089
 10
68.61072213711729
 20
-23.23462511268734
 10
68.63129538146332
 20
-23.24062166656886
 10
68.65158747863279
 20
-23.24750990537431
 10
68.67155980146538
 20
-23.25527671694961
 10
68.69117433150946
 20
-23.26390731672749
 10
68.71039373139224
 20
-23.27338527587075
 10
68.72918141589369
 20
-23.28369255254546
 10
68.74750162158857
 20
-23.29480952626466
 10
68.76531947492406
 20
-23.30671503523701
 10
68.78260105860363
 20
-23.31938641664953
 10
68.79931347615054
 20
-23.33279954980749
 10
68.81542491452812
 20
-23.34692890204958
 10
68.83090470469769
 20
-23.36174757735076
 10
68.84572337999887
 20
-23.37722736752033
 10
68.85985273224097
 20
-23.39333880589791
 10
68.87326586539893
 20
-23.41005122344482
 10
68.88593724681145
 20
-23.4273328071244
 10
68.89784275578378
 20
-23.44515066045989
 10
68.90895972950298
 20
-23.46347086615476
 10
68.9192670061777
 20
-23.48225855065622
 10
68.92874496532096
 20
-23.50147795053901
 10
68.93737556509885
 20
-23.52109248058307
 10
68.94514237667416
 20
-23.54106480341567
 10
68.9520306154796
 20
-23.56135690058513
 10
68.95802716936112
 20
-23.58193014493116
 10
68.96312062353758
 20
-23.60274537411385
 10
68.96730128232946
 20
-23.62376296516139
 10
68.97056118761513
 20
-23.64494290989465
 10
68.97289413397964
 20
-23.66624489108505
 10
68.97429568052692
 20
-23.68762835920066
 10
68.9747631593335
 20
-23.70905260959457
 10
68.9747631593335
 20
-23.76984018194581
 10
69.0390991718768
 20
-23.83877728140635
 10
69.03909917187673
 20
-23.64728681245419
 10
69.03863010210125
 20
-23.62578964898811
 10
69.03722378567558
 20
-23.60433340659164
 10
69.03488289960312
 20
-23.58295892844554
 10
69.03161189989343
 20
-23.56170690208209
 10
69.02741701308051
 20
-23.54061778194254
 10
69.02230622436971
 20
-23.51973171236494
 10
69.01628926243788
 20
-23.49908845117025
 10
69.009377580914
 20
-23.47872729397928
 10
69.00158433657673
 20
-23.458686999412
 10
68.99292436430956
 20
-23.43900571530815
 10
68.98341414886194
 20
-23.41972090611068
 10
68.97307179346947
 20
-23.40086928154991
 10
68.96191698539349
 20
-23.38248672676471
 10
68.94997095844515
 20
-23.36460823399286
 10
68.9372564525657
 20
-23.34726783596151
 10
68.92379767053976
 20
-23.33049854110388
 10
68.90962023192385
 20
-23.31433227072586
 10
68.89475112427816
 20
-23.29879979824191
 10
68.87921865179422
 20
-23.28393069059622
 10
68.86305238141617
 20
-23.2697532519803
 10
68.84628308655856
 20
-23.25629446995437
 10
68.8289426885272
 20
-23.24357996407494
 10
68.81106419575536
 20
-23.23163393712658
 10
68.79268164097014
 20
-23.2204791290506
 10
68.77383001640939
 20
-23.21013677365814
 10
68.7545452072119
 20
-23.20062655821051
 10
68.73486392310808
 20
-23.19196658594335
 10
68.71482362854081
 20
-23.18417334160607
 10
68.69446247134982
 20
-23.1772616600822
 10
68.67381921015507
 20
-23.17124469815036
 10
68.65293314057752
 20
-23.16613390943956
 10
68.63184402043774
 20
-23.1619390226266
 10
68.61059199407453
 20
-23.15866802291696
 10
68.58921751592793
 20
-23.15632713684447
 10
68.56776127353197
 20
-23.15492082041884
 97
        0
 75
     0
 76
     1
 98
        0
  0
HATCH
  5
D7
330
1F
100
AcDbEntity
  8
XR$1$STANDARD
  6
AUSGEZOGEN
 62
   255
370
    25
100
AcDbHatch
 10
0.0
 20
0.0
 30
0.0
210
0.0
220
0.0
230
1.0
  2
SOLID
 70
     1
 71
     0
 91
        1
 92
        3
 72
     0
 73
     1
 93
      160
 10
68.50502392284777
 20
-23.21835660152153
 10
68.48359967245389
 20
-23.21788912271494
 10
68.0649430302583
 20
-23.21788912271494
 10
68.06493816323714
 20
-23.21789038582471
 10
68.06493515379796
 20
-23.21789098443938
 10
68.0649321211119
 20
-23.21789145121441
 10
68.06492907095182
 20
-23.21789178526127
 10
68.06492600912392
 20
-23.21789198594407
 10
68.06492294145654
 20
-23.21789205288081
 10
68.06491987378915
 20
-23.21789198594407
 10
68.06491681196125
 20
-23.21789178526127
 10
68.06491376180121
 20
-23.21789145121441
 10
68.06491072911513
 20
-23.21789098443938
 10
68.06490771967594
 20
-23.21789038582471
 10
68.06490473921231
 20
-23.2178896565099
 10
68.06490179339765
 20
-23.21788879788323
 10
68.06489899338871
 20
-23.21788784990051
 10
68.04128444721852
 20
-23.21672492290606
 10
68.01769266121099
 20
-23.21460088297736
 10
67.99420659727163
 20
-23.2115205074677
 10
67.97086500600133
 20
-23.20748887881246
 10
67.9477063996297
 20
-23.20251264895777
 10
67.92476898847215
 20
-23.1966000283853
 10
67.90209061788534
 20
-23.18976077256537
 10
67.87970870582437
 20
-23.18200616586105
 10
67.85766018110556
 20
-23.17334900290962
 10
67.83598142247601
 20
-23.16380356751219
 10
67.81470819859098
 20
-23.15338560906629
 10
67.79387560899754
 20
-23.14211231658027
 10
67.7735180262226
 20
-23.13000229031255
 10
67.75366889903985
 20
-23.11707541578791
 10
67.74604392363278
 20
-23.11432736234412
 10
67.74603549369581
 20
-23.11432432418124
 10
67.74603023101218
 20
-23.11432228520561
 10
67.73426920776907
 20
-23.10976559106817
 10
67.73426416230625
 20
-23.10976346859543
 10
67.7225187255516
 20
-23.10482252061951
 10
67.72251469299086
 20
-23.10482082424387
 10
67.72251052104824
 20
-23.10481892845891
 10
67.71077743607495
 20
-23.09948726214257
 10
67.71077228132273
 20
-23.09948491975617
 10
67.69904654975483
 20
-23.09375438614076
 10
67.6990428510287
 20
-23.09375257852011
 10
67.69903936752085
 20
-23.09375075448479
 10
67.68733292530499
 20
-23.08762102402244
 10
67.6873278581204
 20
-23.08761837074185
 10
67.67563380940072
 20
-23.08107928958448
 10
67.67562936725405
 20
-23.08107680562377
 10
67.6756248568862
 20
-23.08107411993735
 10
67.66395008189042
 20
-23.07412240651544
 10
67.66394518277266
 20
-23.07411930792987
 10
67.65229261947471
 20
-23.06674928620719
 10
67.64066736952604
 20
-23.05895648216088
 10
67.6406633095162
 20
-23.05895376059694
 10
67.6406594343678
 20
-23.05895101280075
 10
67.6290683833355
 20
-23.0507320125231
 10
67.6290646798292
 20
-23.05072938643517
 10
67.62906116444535
 20
-23.05072675414531
 10
67.61750402612279
 20
-23.04207286616896
 10
67.60598835404464
 20
-23.03298079475953
 10
67.60598463992736
 20
-23.03297786230614
 10
67.6059811008679
 20
-23.03297491986329
 10
67.5945205294147
 20
-23.02344637790922
 10
67.59451663040896
 20
-23.02344313620004
 10
67.59451288762553
 20
-23.02343986307634
 10
67.58310822897285
 20
-23.01346630751961
 10
67.58310565953208
 20
-23.01346400575797
 10
67.5717681300002
 20
-23.00304555551033
 10
67.57176414057703
 20
-23.00304188949062
 10
67.56050159507227
 20
-22.99217590153065
 10
67.56049791586281
 20
-22.99217235186725
 10
67.56049425558204
 20
-22.99216864690628
 10
67.5493221508943
 20
-22.9808601668849
 10
67.54931858309088
 20
-22.98085655553012
 10
67.54931515058915
 20
-22.98085291252551
 10
67.53824141355457
 20
-22.96910006337284
 10
67.53823733411147
 20
-22.9690957337523
 10
67.53823283015652
 20
-22.9690907239785
 10
67.52726509085657
 20
-22.95689120078169
 10
67.52002871591797
 20
-22.94852350437669
 10
67.52002871591797
 20
-23.32984712471193
 10
67.52048502795493
 20
-23.35075960929888
 10
67.52185309544991
 20
-23.37163228578283
 10
67.52413031420869
 20
-23.39242542183778
 10
67.5273123494159
 20
-23.41309943654743
 10
67.5313931438867
 20
-23.43361497574974
 10
67.53636492959689
 20
-23.45393298694983
 10
67.54221824246974
 20
-23.47401479365856
 10
67.54894194039156
 20
-23.49382216901551
 10
67.5565232244212
 20
-23.51331740855588
 10
67.56494766315359
 20
-23.53246340198319
 10
67.57419922019083
 20
-23.55122370381076
 10
67.58426028466825
 20
-23.56956260273779
 10
67.59511170477778
 20
-23.58744518962787
 10
67.6067328242245
 20
-23.60483742396046
 10
67.61910152154704
 20
-23.621706198629
 10
67.63219425222705
 20
-23.63801940296215
 10
67.64598609350756
 20
-23.65374598384829
 10
67.66045079183476
 20
-23.66885600484686
 10
67.67556081283334
 20
-23.68332070317408
 10
67.69128739371948
 20
-23.69711254445458
 10
67.70760059805264
 20
-23.71020527513459
 10
67.72446937272117
 20
-23.72257397245713
 10
67.74186160705376
 20
-23.73419509190385
 10
67.75974419394383
 20
-23.74504651201339
 10
67.77808309287086
 20
-23.75510757649081
 10
67.79684339469844
 20
-23.76435913352804
 10
67.81598938812574
 20
-23.77278357226044
 10
67.83548462766613
 20
-23.78036485629007
 10
67.85529200302307
 20
-23.78708855421189
 10
67.8753738097318
 20
-23.79294186708476
 10
67.89569182093189
 20
-23.79791365279493
 10
67.9162073601342
 20
-23.80199444726573
 10
67.93688137484385
 20
-23.80517648247295
 10
67.9576745108988
 20
-23.80745370123172
 10
67.97854718738274
 20
-23.8088217687267
 10
67.9994596719697
 20
-23.80927808076366
 10
68.6211922491634
 20
-23.80927808076366
 10
68.67216599958148
 20
-23.80950100176008
 10
68.72311058272729
 20
-23.80776250426078
 10
68.77395055314462
 20
-23.80406516286208
 10
68.82461062030164
 20
-23.79841445307467
 10
68.87501576009092
 20
-23.79081874321468
 10
68.92509132593514
 20
-23.78128928201082
 10
68.9747631593335
 20
-23.76984018194581
 10
68.9747631593335
 20
-23.70905260959457
 10
68.9742956805268
 20
-23.68762835919472
 10
68.97289413397962
 20
-23.66624489108498
 10
68.97056118761513
 20
-23.64494290989467
 10
68.96730128232946
 20
-23.62376296516137
 10
68.96312062353758
 20
-23.60274537411385
 10
68.95802716936112
 20
-23.58193014493116
 10
68.95203061547957
 20
-23.56135690058505
 10
68.94514237667416
 20
-23.54106480341567
 10
68.93737556509885
 20
-23.52109248058306
 10
68.92874496532094
 20
-23.50147795053897
 10
68.91926700617769
 20
-23.4822585506562
 10
68.90895972950298
 20
-23.46347086615476
 10
68.89784275578378
 20
-23.44515066045988
 10
68.88593724681142
 20
-23.42733280712437
 10
68.87326586539892
 20
-23.41005122344481
 10
68.85985273224097
 20
-23.3933388058979
 10
68.84572337999886
 20
-23.37722736752032
 10
68.83090470469769
 20
-23.36174757735076
 10
68.81542491452812
 20
-23.34692890204958
 10
68.79931347615053
 20
-23.33279954980749
 10
68.78260105860363
 20
-23.31938641664952
 10
68.76531947492406
 20
-23.30671503523701
 10
68.74750162158855
 20
-23.29480952626465
 10
68.72918141589369
 20
-23.28369255254546
 10
68.71039373139224
 20
-23.27338527587075
 10
68.69117433150943
 20
-23.26390731672748
 10
68.67155980146538
 20
-23.2552767169496
 10
68.65158747863278
 20
-23.2475099053743
 10
68.63129538146332
 20
-23.24062166656886
 10
68.61072213711726
 20
-23.23462511268734
 10
68.58990690793459
 20
-23.22953165851088
 10
68.56888931688704
 20
-23.225350999719
 10
68.5477093721538
 20
-23.22209109443332
 10
68.5264073909634
 20
-23.21975814806883
 97
        0
 75
     0
 76
     1
 98
        0
  0
DIMENSION
  5
EB
330
1F
100
AcDbEntity
  8
XR$1$STANDARD
  6
AUSGEZOGEN
 62
    94
370
    25
100
AcDbDimension
  2
*D4
 10
73.083469
 20
-21.179348
 30
0.0
 11
70.236522
 21
-21.062145
 31
0.0
 70
   160
  1
<>
 71
     5
 42
-1.0
  3
_DIMSTYLE_2
100
AcDbAlignedDimension
 13
67.383469
 23
-21.379347
 33
0.0
 14
73.083469
 24
-21.579332
 34
0.0
100
AcDbRotatedDimension
1001
ACAD
1000
DSTYLE
1002
{
1070
     3
1000
<>
1070
   372
1070
    25
1070
   371
1070
     0
1070
   178
1070
    94
1070
   177
1070
    94
1070
   176
1070
    94
1002
}
1001
NEM_ODX
1000
MASSLINIE
1002
{
1000
UTF_TYPE
1070
     6
1000
ODXVALUES
1070
     3
1070
     2
1070
   499
1040
0.1
1002
}
  0
DIMENSION
  5
F7
330
1F
100
AcDbEntity
  8
XR$1$STANDARD
  6
AUSGEZOGEN
 62
    94
370
    25
100
AcDbDimension
  2
*D5
 10
73.540323
 20
-22.859373
 30
0.0
 11
73.423121
 21
-23.348231
 31
0.0
 70
   160
  1
<>
 71
     5
 42
-1.0
  3
_DIMSTYLE_3
100
AcDbAlignedDimension
 13
73.340324
 23
-23.819373
 33
0.0
 14
71.760206
 24
-22.859373
 34
0.0
 50
90.0
100
AcDbRotatedDimension
1001
ACAD
1000
DSTYLE
1002
{
1070
     3
1000
<>
1070
   372
1070
    25
1070
   371
1070
     0
1070
   178
1070
    94
1070
   177
1070
    94
1070
   176
1070
    94
1002
}
1001
NEM_ODX
1000
MASSLINIE
1002
{
1000
UTF_TYPE
1070
     6
1000
ODXVALUES
1070
     3
1070
     2
1070
   499
1040
0.1
1002
}
  0
DIMENSION
  5
103
330
1F
100
AcDbEntity
  8
XR$1$STANDARD
  6
AUSGEZOGEN
 62
    94
370
    25
100
AcDbDimension
  2
*D6
 10
73.540323
 20
-21.579333
 30
0.0
 11
73.423121
 21
-22.215673
 31
0.0
 70
   160
  1
<>
 71
     5
 42
-1.0
  3
_DIMSTYLE_4
100
AcDbAlignedDimension
 13
71.760206
 23
-22.859373
 33
0.0
 14
72.943523
 24
-21.579333
 34
0.0
 50
90.0
100
AcDbRotatedDimension
1001
ACAD
1000
DSTYLE
1002
{
1070
     3
1000
<>
1070
   372
1070
    25
1070
   371
1070
     0
1070
   178
1070
    94
1070
   177
1070
    94
1070
   176
1070
    94
1002
}
1001
NEM_ODX
1000
MASSLINIE
1002
{
1000
UTF_TYPE
1070
     6
1000
ODXVALUES
1070
     3
1070
     2
1070
   499
1040
0.1
1002
}
  0
DIMENSION
  5
10E
330
1F
100
AcDbEntity
  8
XR$1$STANDARD
  6
AUSGEZOGEN
 62
    94
370
    25
100
AcDbDimension
  2
*D7
 10
73.940323
 20
-21.579333
 30
0.0
 11
73.82428
 21
-22.69688
 31
0.0
 70
   160
  1
<>
 71
     5
 42
-1.0
  3
_DIMSTYLE_4
100
AcDbAlignedDimension
 13
73.340324
 23
-23.819373
 33
0.0
 14
73.340324
 24
-21.579333
 34
0.0
 50
90.0
100
AcDbRotatedDimension
1001
ACAD
1000
DSTYLE
1002
{
1070
     3
1000
<>
1070
   372
1070
    25
1070
   371
1070
     0
1070
   178
1070
    94
1070
   177
1070
    94
1070
   176
1070
    94
1002
}
1001
NEM_ODX
1000
MASSLINIE
1002
{
1000
UTF_TYPE
1070
     6
1000
ODXVALUES
1070
     3
1070
     2
1070
   499
1040
0.1
1002
}
  0
MTEXT
  5
10F
330
1F
100
AcDbEntity
  8
XR$1$STANDARD
  6
AUSGEZOGEN
 62
     7
370
    35
100
AcDbMText
 10
70.233469
 20
-20.587145
 30
0.0
 40
0.175
 41
1.2425
 71
     5
 72
     5
  1
{\L\fCalibri|i0|b0;\H0.175000;\W1.000000;\C7;Draufsicht\l}\P
  7
CALIBRI
 73
     1
 44
1.0
  0
MTEXT
  5
110
330
1F
100
AcDbEntity
  8
XR$1$STANDARD
  6
AUSGEZOGEN
 62
     7
370
    50
100
AcDbMText
 10
70.233469
 20
-20.187145
 30
0.0
 40
0.25
 41
1.483333
 71
     5
 72
     5
  1
{\fCalibri|i0|b0;\H0.250000;\W1.000000;\C7;Pos. Osa}\P
  7
CALIBRI
 73
     1
 44
1.0
  0
ARC
  5
111
330
1F
100
AcDbEntity
  8
XR$1$STANDARD
  6
AUSGEZOGEN
 62
     7
370
    25
100
AcDbCircle
 10
67.420469
 20
-25.806139
 30
0.0
 40
0.0197068905683388
100
AcDbArc
 50
90.0
 51
199.415244
  0
LINE
  5
112
330
1F
100
AcDbEntity
  8
XR$1$STANDARD
  6
AUSGEZOGEN
 62
     7
370
    25
100
AcDbLine
 10
73.084591
 20
-25.786432
 30
0.0
 11
67.420469
 21
-25.786432
 31
0.0
  0
ARC
  5
113
330
1F
100
AcDbEntity
  8
XR$1$STANDARD
  6
AUSGEZOGEN
 62
     7
370
    25
100
AcDbCircle
 10
67.660252
 20
-26.485138
 30
0.0
 40
0.0201464750496793
100
AcDbArc
 50
199.415244
 51
270.0
  0
LINE
  5
114
330
1F
100
AcDbEntity
  8
XR$1$STANDARD
  6
AUSGEZOGEN
 62
     7
370
    25
100
AcDbLine
 10
67.401883
 20
-25.81269
 30
0.0
 11
67.641251
 21
-26.491835
 31
0.0
  0
LINE
  5
115
330
1F
100
AcDbEntity
  8
XR$1$STANDARD
  6
AUSGEZOGEN
 62
     7
370
    25
100
AcDbLine
 10
72.235082
 20
-25.786432
 30
0.0
 11
72.348125
 21
-26.505292
 31
0.0
  0
LINE
  5
116
330
1F
100
AcDbEntity
  8
XR$1$STANDARD
  6
AUSGEZOGEN
 62
     7
370
    25
100
AcDbLine
 10
72.529926
 20
-26.505292
 30
0.0
 11
72.618687
 21
-25.786432
 31
0.0
  0
LINE
  5
117
330
1F
100
AcDbEntity
  8
XR$1$STANDARD
  6
AUSGEZOGEN
 62
     7
370
    25
100
AcDbLine
 10
69.03613
 20
-25.803259
 30
0.0
 11
68.974888
 21
-26.150657
 31
0.0
  0
ARC
  5
118
330
1F
100
AcDbEntity
  8
XR$1$STANDARD
  6
AUSGEZOGEN
 62
     7
370
    25
100
AcDbCircle
 10
69.056182
 20
-25.806794
 30
0.0
 40
0.0203618831579743
100
AcDbArc
 50
90.0
 51
170.002149
  0
LINE
  5
119
330
1F
100
AcDbEntity
  8
XR$1$STANDARD
  6
AUSGEZOGEN
 62
     7
370
    25
100
AcDbLine
 10
68.974886
 20
-26.150657
 30
0.0
 11
67.548553
 21
-26.14943
 31
0.0
  0
ARC
  5
11A
330
1F
100
AcDbEntity
  8
XR$1$STANDARD
  6
AUSGEZOGEN
 62
     7
370
    25
100
AcDbCircle
 10
67.548536
 20
-26.169257
 30
0.0
 40
0.0198270081614929
100
AcDbArc
 50
89.950711
 51
203.09748
  0
LINE
  5
11B
330
1F
100
AcDbEntity
  8
XR$1$STANDARD
  6
AUSGEZOGEN
 62
     7
370
    25
100
AcDbLine
 10
72.903566
 20
-26.505292
 30
0.0
 11
73.084591
 21
-25.786432
 31
0.0
  0
LINE
  5
11C
330
1F
100
AcDbEntity
  8
XR$1$STANDARD
  6
AUSGEZOGEN
 62
     7
370
    25
100
AcDbLine
 10
67.660252
 20
-26.505285
 30
0.0
 11
72.903567
 21
-26.505285
 31
0.0
  0
HATCH
  5
11D
330
1F
100
AcDbEntity
  8
XR$1$STANDARD
  6
AUSGEZOGEN
 62
   255
370
    25
100
AcDbHatch
 10
0.0
 20
0.0
 30
0.0
210
0.0
220
0.0
230
1.0
  2
SOLID
 70
     1
 71
     0
 91
        1
 92
        3
 72
     0
 73
     1
 93
      126
 10
68.974885866644
 20
-26.15065658262835
 10
69.03612971870739
 20
-25.80325909859365
 10
69.03629719736665
 20
-25.80241404401875
 10
69.03650027153506
 20
-25.80157683005686
 10
69.03673857769952
 20
-25.80074895536354
 10
69.03701168927988
 20
-25.79993190187659
 10
69.03731911739253
 20
-25.7991271321633
 10
69.0376603117255
 20
-25.7983360868024
 10
69.03803466152361
 20
-25.79756018180529
 10
69.03844149668164
 20
-25.79680080608139
 10
69.038880088944
 20
-25.79605931895185
 10
69.03934965320822
 20
-25.79533704771636
 10
69.03984934893042
 20
-25.79463528527714
 10
69.04037828162978
 20
-25.79395528782465
 10
69.04093550448994
 20
-25.79329827258892
 10
69.04152002005362
 20
-25.79266541566062
 10
69.04213078200821
 20
-25.79205784988584
 10
69.0427666970588
 20
-25.79147666283822
 10
69.04342662688505
 20
-25.79092289487213
 10
69.04410939017906
 20
-25.79039753726039
 10
69.04481376475981
 20
-25.78990153041983
 10
69.04553848976094
 20
-25.78943576222793
 10
69.04628226788789
 20
-25.78900106643343
 10
69.04704376773996
 20
-25.78859822116392
 10
69.0478216261937
 20
-25.78822794753292
 10
69.0486144508429
 20
-25.78789090834905
 10
69.04942082249116
 20
-25.78758770692959
 10
69.05023929769219
 20
-25.7873188860205
 10
69.05106841133376
 20
-25.78708492682489
 10
69.05190667926031
 20
-25.7868862481416
 10
69.0527526009296
 20
-25.78672320561558
 10
69.05360466209883
 20
-25.78659609110126
 10
69.05446133753519
 20
-25.78650513214006
 10
69.05532109374606
 20
-25.78645049155316
 10
69.05618239172411
 20
-25.78643226715
 10
67.42046911552195
 20
-25.78643226715
 10
67.41961407976366
 20
-25.78645082488581
 10
67.41876065435865
 20
-25.78650646314205
 10
67.41791044662723
 20
-25.786599077131
 10
67.4170650578297
 20
-25.78672849242576
 10
67.41622608015048
 20
-25.78689446528876
 10
67.4153950936994
 20
-25.78709668313081
 10
67.41457366353589
 20
-25.78733476509979
 10
67.41376333672123
 20
-25.78760826279801
 10
67.41296563940496
 20
-25.78791666112664
 10
67.41218207395052
 20
-25.7882593792559
 10
67.41141411610577
 20
-25.78863577171889
 10
67.4106632122236
 20
-25.78904512962734
 10
67.4099307765378
 20
-25.78948668200667
 10
67.40921818849972
 20
-25.789959597248
 10
67.4085267901801
 20
-25.79046298467445
 10
67.40785788374144
 20
-25.79099589621854
 10
67.40721272898567
 20
-25.79155732820784
 10
67.40659254098132
 20
-25.79214622325515
 10
67.4059984877752
 20
-25.7927614722501
 10
67.40543168819242
 20
-25.79340191644788
 10
67.4048932097294
 20
-25.7940663496517
 10
67.40438406654313
 20
-25.79475352048446
 10
67.40390521754136
 20
-25.79546213474555
 10
67.40345756457651
 20
-25.79619085784834
 10
67.40304195074711
 20
-25.79693831733373
 10
67.40265915880998
 20
-25.79770310545496
 10
67.40230990970603
 20
-25.79848378182894
 10
67.40199486120241
 20
-25.79927887614905
 10
67.40171460665371
 20
-25.80008689095425
 10
67.4014696738844
 20
-25.80090630444939
 10
67.40126052419487
 20
-25.80173557337131
 10
67.40108755149241
 20
-25.80257313589537
 10
67.40095108154962
 20
-25.80341741457697
 10
67.40085137139057
 20
-25.80426681932247
 10
67.40078860880695
 20
-25.80511975038393
 10
67.40076291200424
 20
-25.80597460137201
 10
67.40077432937916
 20
-25.80682976228146
 10
67.40082283942853
 20
-25.80768362252331
 10
67.4009083507897
 20
-25.80853457395823
 10
67.4010307024127
 20
-25.8093810139253
 10
67.40118966386348
 20
-25.81022134826035
 10
67.40138493575797
 20
-25.81105399429842
 10
67.40161615032592
 20
-25.8118773838545
 10
67.40188287210349
 20
-25.81268996617702
 10
67.52945087666656
 20
-26.17463154944424
 10
67.52945130080018
 20
-26.1746327528149
 10
67.52944992527134
 20
-26.17462786761987
 10
67.52923699001107
 20
-26.17380382498772
 10
67.52905961629014
 20
-26.1729714030708
 10
67.52891813095663
 20
-26.1721321357802
 10
67.52881279472679
 20
-26.17128756964108
 10
67.52874380170464
 20
-26.17043926094281
 10
67.52871127902418
 20
-26.16958877287123
 10
67.52871528661527
 20
-26.16873767262809
 10
67.52875581709306
 20
-26.16788752854322
 10
67.5288327957717
 20
-26.16703990718453
 10
67.5289460808019
 20
-26.16619637047129
 10
67.52909546343238
 20
-26.16535847279594
 10
67.52928066839443
 20
-26.1645277581598
 10
67.52950135440926
 20
-26.16370575732797
 10
67.52975711481685
 20
-26.16289398500856
 10
67.53004747832526
 20
-26.16209393706146
 10
67.53037190987911
 20
-26.16130708774201
 10
67.53072981164557
 20
-26.16053488698429
 10
67.53112052411592
 20
-26.15977875772935
 10
67.5315433273209
 20
-26.15904009330317
 10
67.53199744215739
 20
-26.1583202548491
 10
67.532482031824
 20
-26.15762056881974
 10
67.53299620336311
 20
-26.15694232453262
 10
67.53353900930641
 20
-26.15628677179439
 10
67.53410944942061
 20
-26.1556551185978
 10
67.53470647255075
 20
-26.15504852889567
 10
67.53532897855716
 20
-26.15446812045615
 10
67.53597582034253
 20
-26.15391496280291
 10
67.53664580596593
 20
-26.15339007524438
 10
67.53733770083899
 20
-26.15289442499543
 10
67.53805023000103
 20
-26.15242892539509
 10
67.53878208046834
 20
-26.15199443422351
 10
67.53953190365368
 20
-26.15159175212139
 10
67.54029831785135
 20
-26.15122162111451
 10
67.54107991078325
 20
-26.15088472324652
 10
67.54187524220129
 20
-26.15058167932204
 10
67.5426828465413
 20
-26.15031304776275
 10
67.54350123562378
 20
-26.15007932357837
 10
67.54432890139599
 20
-26.14988093745449
 10
67.54516431871104
 20
-26.14971825495894
 10
67.54600594813819
 20
-26.14959157586818
 10
67.54685223879953
 20
-26.14950113361487
 10
67.54770163122792
 20
-26.14944709485772
 10
67.54855256024051
 20
-26.14942955917444
 97
        0
 75
     0
 76
     1
 98
        0
  0
HATCH
  5
11E
330
1F
100
AcDbEntity
  8
XR$1$STANDARD
  6
AUSGEZOGEN
 62
   255
370
    25
100
AcDbHatch
 10
0.0
 20
0.0
 30
0.0
210
0.0
220
0.0
230
1.0
  2
SOLID
 70
     1
 71
     0
 91
        1
 92
        3
 72
     0
 73
     1
 93
      113
 10
68.974885866644
 20
-26.15065658262835
 10
67.54855256024051
 20
-26.14942955917444
 10
67.54770163122787
 20
-26.14944709485772
 10
67.54685223879957
 20
-26.14950113361486
 10
67.54600594813822
 20
-26.14959157586818
 10
67.5451643187111
 20
-26.14971825495893
 10
67.54432890139603
 20
-26.14988093745448
 10
67.54350123562378
 20
-26.15007932357837
 10
67.54268284654128
 20
-26.15031304776276
 10
67.54187524220131
 20
-26.15058167932203
 10
67.54107991078328
 20
-26.15088472324651
 10
67.54029831785135
 20
-26.15122162111451
 10
67.53953190365368
 20
-26.15159175212139
 10
67.53878208046835
 20
-26.15199443422351
 10
67.53805023000102
 20
-26.15242892539509
 10
67.537337700839
 20
-26.15289442499542
 10
67.53664580596595
 20
-26.15339007524437
 10
67.53597582034254
 20
-26.15391496280291
 10
67.53532897855719
 20
-26.15446812045611
 10
67.53470647255077
 20
-26.15504852889567
 10
67.53410944942063
 20
-26.15565511859778
 10
67.53353900930642
 20
-26.15628677179436
 10
67.53299620336311
 20
-26.15694232453262
 10
67.53248203182402
 20
-26.15762056881972
 10
67.53199744215738
 20
-26.15832025484912
 10
67.53154332732092
 20
-26.15904009330314
 10
67.53112052411592
 20
-26.15977875772935
 10
67.53072981164559
 20
-26.16053488698424
 10
67.53037190987911
 20
-26.161307087742
 10
67.53004747832526
 20
-26.16209393706146
 10
67.52975711481685
 20
-26.16289398500857
 10
67.52950135440928
 20
-26.16370575732795
 10
67.52928066839443
 20
-26.16452775815977
 10
67.52909546343237
 20
-26.16535847279596
 10
67.5289460808019
 20
-26.16619637047128
 10
67.5288327957717
 20
-26.16703990718449
 10
67.52875581709306
 20
-26.16788752854318
 10
67.52871528661527
 20
-26.16873767262811
 10
67.52871127902418
 20
-26.16958877287133
 10
67.52874380170464
 20
-26.17043926094275
 10
67.52881279472679
 20
-26.17128756964104
 10
67.52891813095663
 20
-26.17213213578017
 10
67.52905961629014
 20
-26.1729714030708
 10
67.52923699001107
 20
-26.17380382498771
 10
67.5294499252713
 20
-26.17462786761978
 10
67.52945130079952
 20
-26.17463275281257
 10
67.53029785332133
 20
-26.17703462906021
 10
67.64125084438714
 20
-26.49183536136093
 10
67.64155239012692
 20
-26.49263624290745
 10
67.64188767549207
 20
-26.49342359594685
 10
67.6422560955181
 20
-26.49419599983677
 10
67.64265698545485
 20
-26.49495206090795
 10
67.64308962196571
 20
-26.49569041497898
 10
67.64355322443298
 20
-26.49640972981762
 10
67.64404695636614
 20
-26.49710870754468
 10
67.64456992691133
 20
-26.49778608697572
 10
67.64512119245866
 20
-26.49844064589673
 10
67.64569975834478
 20
-26.49907120326934
 10
67.64630458064765
 20
-26.49967662136183
 10
67.64693456806998
 20
-26.50025580780197
 10
67.64758858390846
 20
-26.50080771754799
 10
67.64826544810462
 20
-26.50133135477423
 10
67.64896393937408
 20
-26.50182577466786
 10
67.64968279741018
 20
-26.5022900851337
 10
67.65042072515787
 20
-26.50272344840384
 10
67.65117639115422
 20
-26.50312508254919
 10
67.6519484319306
 20
-26.50349426289041
 10
67.65273545447297
 20
-26.50383032330542
 10
67.65353603873528
 20
-26.50413265743133
 10
67.6543487402017
 20
-26.5044007197585
 10
67.65517209249296
 20
-26.50463402661482
 10
67.65600461001227
 20
-26.50483215703843
 10
67.6568447906258
 20
-26.50499475353724
 10
67.65769111837288
 20
-26.50512152273399
 10
67.6585420662015
 20
-26.50521223589559
 10
67.6593960987235
 20
-26.50526672934583
 10
67.66025167498489
 20
-26.50528490476071
 10
72.34812406303395
 20
-26.50528490476071
 10
72.23508188663571
 20
-25.78643226715
 10
69.05618239172411
 20
-25.78643226715
 10
69.0553210937461
 20
-25.78645049155316
 10
69.05446133753517
 20
-25.78650513214006
 10
69.05360466209886
 20
-25.78659609110126
 10
69.05275260092962
 20
-25.78672320561558
 10
69.0519066792603
 20
-25.7868862481416
 10
69.0510684113338
 20
-25.78708492682488
 10
69.05023929769223
 20
-25.78731888602049
 10
69.04942082249114
 20
-25.78758770692959
 10
69.04861445084293
 20
-25.78789090834904
 10
69.0478216261937
 20
-25.78822794753292
 10
69.04704376773998
 20
-25.78859822116392
 10
69.0462822678879
 20
-25.78900106643342
 10
69.04553848976094
 20
-25.78943576222792
 10
69.04481376475981
 20
-25.78990153041982
 10
69.04410939017905
 20
-25.79039753726039
 10
69.04342662688508
 20
-25.79092289487211
 10
69.04276669705878
 20
-25.79147666283824
 10
69.04213078200823
 20
-25.79205784988584
 10
69.04152002005358
 20
-25.79266541566065
 10
69.04093550448998
 20
-25.79329827258889
 10
69.04037828162977
 20
-25.79395528782466
 10
69.03984934893042
 20
-25.79463528527713
 10
69.03934965320822
 20
-25.79533704771636
 10
69.03888008894401
 20
-25.79605931895182
 10
69.03844149668164
 20
-25.79680080608138
 10
69.0380346615236
 20
-25.7975601818053
 10
69.03766031172552
 20
-25.79833608680239
 10
69.03731911739254
 20
-25.79912713216326
 10
69.03701168927988
 20
-25.79993190187657
 10
69.03673857769952
 20
-25.80074895536352
 10
69.03650027153506
 20
-25.80157683005684
 10
69.03629719736665
 20
-25.80241404401878
 10
69.03612971870739
 20
-25.80325909859363
 97
        0
 75
     0
 76
     1
 98
        0
  0
HATCH
  5
11F
330
1F
100
AcDbEntity
  8
XR$1$STANDARD
  6
AUSGEZOGEN
 62
   255
370
    25
100
AcDbHatch
 10
0.0
 20
0.0
 30
0.0
210
0.0
220
0.0
230
1.0
  2
SOLID
 70
     1
 71
     0
 91
        1
 92
        3
 72
     0
 73
     1
 93
        4
 10
72.23508188663571
 20
-25.78643226715
 10
72.34812406303395
 20
-26.50528490476071
 10
72.52992666976525
 20
-26.50528490476071
 10
72.61868733594785
 20
-25.78643226715
 97
        0
 75
     0
 76
     1
 98
        0
  0
HATCH
  5
120
330
1F
100
AcDbEntity
  8
XR$1$STANDARD
  6
AUSGEZOGEN
 62
   255
370
    25
100
AcDbHatch
 10
0.0
 20
0.0
 30
0.0
210
0.0
220
0.0
230
1.0
  2
SOLID
 70
     1
 71
     0
 91
        1
 92
        3
 72
     0
 73
     1
 93
        4
 10
72.52992666976525
 20
-26.50528490476071
 10
72.90356739459172
 20
-26.50528490476071
 10
73.08459113652552
 20
-25.78643226715
 10
72.61868733594785
 20
-25.78643226715
 97
        0
 75
     0
 76
     1
 98
        0
  0
DIMENSION
  5
12C
330
1F
100
AcDbEntity
  8
XR$1$STANDARD
  6
AUSGEZOGEN
 62
    94
370
    25
100
AcDbDimension
  2
*D8
 10
67.001715
 20
-25.786432
 30
0.0
 11
66.886019
 21
-26.153623
 31
0.0
 70
   160
  1
<>
 71
     5
 42
-1.0
  3
_DIMSTYLE_5
100
AcDbAlignedDimension
 13
68.038229
 23
-26.506285
 33
0.0
 14
67.992499
 24
-25.786432
 34
0.0
 50
90.0
100
AcDbRotatedDimension
1001
ACAD
1000
DSTYLE
1002
{
1070
     3
1000
<>
1070
   372
1070
    25
1070
   371
1070
     0
1070
   178
1070
    94
1070
   177
1070
    94
1070
   176
1070
    94
1002
}
1001
NEM_ODX
1000
MASSLINIE
1002
{
1000
UTF_TYPE
1070
     6
1000
ODXVALUES
1070
     3
1070
     2
1070
   499
1040
0.1
1002
}
  0
DIMENSION
  5
137
330
1F
100
AcDbEntity
  8
XR$1$STANDARD
  6
AUSGEZOGEN
 62
    94
370
    25
100
AcDbDimension
  2
*D9
 10
73.084591
 20
-25.395337
 30
0.0
 11
70.237644
 21
-25.278135
 31
0.0
 70
   160
  1
<>
 71
     5
 42
-1.0
  3
_DIMSTYLE_4
100
AcDbAlignedDimension
 13
67.384591
 23
-25.595336
 33
0.0
 14
73.084591
 24
-25.786431
 34
0.0
100
AcDbRotatedDimension
1001
ACAD
1000
DSTYLE
1002
{
1070
     3
1000
<>
1070
   372
1070
    25
1070
   371
1070
     0
1070
   178
1070
    94
1070
   177
1070
    94
1070
   176
1070
    94
1002
}
1001
NEM_ODX
1000
MASSLINIE
1002
{
1000
UTF_TYPE
1070
     6
1000
ODXVALUES
1070
     3
1070
     2
1070
   499
1040
0.1
1002
}
  0
MTEXT
  5
138
330
1F
100
AcDbEntity
  8
XR$1$STANDARD
  6
AUSGEZOGEN
 62
     7
370
    35
100
AcDbMText
 10
70.234591
 20
-24.853135
 30
0.0
 40
0.175
 41
1.598333
 71
     5
 72
     5
  1
{\L\fCalibri|i0|b0;\H0.175000;\W1.000000;\C7;Seitenansicht\l}\P
  7
CALIBRI
 73
     1
 44
1.0
  0
VIEWPORT
  5
43
330
3F
100
AcDbEntity
 67
     1
  8
0
100
AcDbViewport
 10
0.103021
 20
0.115846
 30
0.0
 40
0.14433
 41
0.124261
 68
     1
 69
     1
 12
0.103021
 22
0.115846
 13
0.0
 23
0.0
 14
0.5
 24
0.5
 15
0.5
 25
0.5
 16
0.0
 26
0.0
 36
1.0
 17
0.0
 27
0.0
 37
0.0
 42
50.0
 43
0.0
 44
0.0
 45
0.124261
 50
0.0
 51
0.0
 72
   100
 90
   557152
  1

281
     0
 71
     1
 74
     0
110
0.0
120
0.0
130
0.0
111
1.0
121
0.0
131
0.0
112
0.0
122
1.0
132
0.0
 79
     0
146
0.0
170
     0
  0
LWPOLYLINE
  5
4A
330
3F
100
AcDbEntity
 67
     1
  8
STANDARD
  6
AUSGEZOGEN
 62
     7
370
    25
100
AcDbPolyline
 90
        5
 70
     1
 43
0.0
 10
0.0
 20
0.0
 10
0.297
 20
0.0
 10
0.297
 20
0.21
 10
0.0
 20
0.21
 10
0.0
 20
0.0
  0
LINE
  5
4B
330
3F
100
AcDbEntity
 67
     1
  8
STANDARD
  6
PUNKT2_S9
 62
     7
370
    18
100
AcDbLine
 10
0.087
 20
0.0
 30
0.0
 11
0.087
 21
0.21
 31
0.0
  0
LINE
  5
4C
330
3F
100
AcDbEntity
 67
     1
  8
STANDARD
  6
PUNKT2_S9
 62
     7
370
    18
100
AcDbLine
 10
0.087
 20
0.21
 30
0.0
 11
0.297
 21
0.21
 31
0.0
  0
LINE
  5
4D
330
3F
100
AcDbEntity
 67
     1
  8
STANDARD
  6
AUSGEZOGEN
 62
     7
370
    13
100
AcDbLine
 10
0.292226
 20
0.011803
 30
0.0
 11
0.292226
 21
0.004774
 31
0.0
  0
LINE
  5
4E
330
3F
100
AcDbEntity
 67
     1
  8
STANDARD
  6
AUSGEZOGEN
 62
     7
370
    13
100
AcDbLine
 10
0.292226
 20
0.004774
 30
0.0
 11
0.297
 21
0.0
 31
0.0
  0
HATCH
  5
4F
330
3F
100
AcDbEntity
 67
     1
  8
STANDARD
  6
AUSGEZOGEN
 62
   254
370
    25
100
AcDbHatch
 10
0.0
 20
0.0
 30
0.0
210
0.0
220
0.0
230
1.0
  2
SOLID
 70
     1
 71
     0
 91
        1
 92
        3
 72
     0
 73
     1
 93
        4
 10
0.2122455484661762
 20
0.0047744640000001
 10
0.292225536
 20
0.0047744640000001
 10
0.292225536
 20
0.0625043798138881
 10
0.2122455484661762
 20
0.0625043798138881
 97
        0
 75
     0
 76
     1
 98
        0
  0
HATCH
  5
50
330
3F
100
AcDbEntity
 67
     1
  8
STANDARD
  6
AUSGEZOGEN
 62
   254
370
    25
100
AcDbHatch
 10
0.0
 20
0.0
 30
0.0
210
0.0
220
0.0
230
1.0
  2
SOLID
 70
     1
 71
     0
 91
        1
 92
        3
 72
     0
 73
     1
 93
        4
 10
0.2122455484661762
 20
0.0637070863933439
 10
0.292225536
 20
0.0637070863933439
 10
0.292225536
 20
0.0859571581132799
 10
0.2122455484661762
 20
0.0859571581132799
 97
        0
 75
     0
 76
     1
 98
        0
  0
HATCH
  5
51
330
3F
100
AcDbEntity
 67
     1
  8
STANDARD
  6
AUSGEZOGEN
 62
   254
370
    25
100
AcDbHatch
 10
0.0
 20
0.0
 30
0.0
210
0.0
220
0.0
230
1.0
  2
SOLID
 70
     1
 71
     0
 91
        1
 92
        3
 72
     0
 73
     1
 93
        4
 10
0.2122455484661762
 20
0.0877612179824641
 10
0.292225536
 20
0.0877612179824641
 10
0.292225536
 20
0.1100112897024001
 10
0.2122455484661762
 20
0.1100112897024001
 97
        0
 75
     0
 76
     1
 98
        0
  0
HATCH
  5
52
330
3F
100
AcDbEntity
 67
     1
  8
STANDARD
  6
AUSGEZOGEN
 62
   250
370
    35
100
AcDbHatch
 10
0.0
 20
0.0
 30
0.0
210
0.0
220
0.0
230
1.0
  2
SOLID
 70
     1
 71
     0
 91
        1
 92
        3
 72
     0
 73
     1
 93
       12
 10
0.2889434369644332
 20
0.0956859461021599
 10
0.2889434369644332
 20
0.0964289433620013
 10
0.2877395086507164
 20
0.0964289433620013
 10
0.2877395086507164
 20
0.097248823838968
 10
0.2892591583205174
 20
0.097248823838968
 10
0.2892633349153246
 20
0.0979840319359505
 10
0.2867796656339455
 20
0.0979840319359505
 10
0.2867796656339455
 20
0.0939441040747113
 10
0.2893692352113237
 20
0.0939441040747113
 10
0.2893692352113237
 20
0.0947172433593504
 10
0.2877469948239984
 20
0.0947172433593504
 10
0.2877469948239984
 20
0.0956859461021599
 97
        0
 75
     0
 76
     1
 98
        0
  0
HATCH
  5
53
330
3F
100
AcDbEntity
 67
     1
  8
STANDARD
  6
AUSGEZOGEN
 62
   250
370
    35
100
AcDbHatch
 10
0.0
 20
0.0
 30
0.0
210
0.0
220
0.0
230
1.0
  2
SOLID
 70
     1
 71
     0
 91
        1
 92
       18
 72
     0
 73
     1
 93
        8
 10
0.2863091225502788
 20
0.0971435187656345
 10
0.2852621148700155
 20
0.0971435187656345
 10
0.2852621148700155
 20
0.0940913361537726
 10
0.2842908141857931
 20
0.0940913361537726
 10
0.2842908141857931
 20
0.0971435187656345
 10
0.283312589801252
 20
0.0971435187656345
 10
0.283312589801252
 20
0.0978934412795883
 10
0.2863091225502788
 20
0.0978934412795883
 97
        0
 75
     0
 76
     1
 98
        0
  0
HATCH
  5
54
330
3F
100
AcDbEntity
 67
     1
  8
STANDARD
  6
AUSGEZOGEN
 62
   250
370
    35
100
AcDbHatch
 10
0.0
 20
0.0
 30
0.0
210
0.0
220
0.0
230
1.0
  2
SOLID
 70
     1
 71
     0
 91
        1
 92
       18
 72
     0
 73
     1
 93
       12
 10
0.2805601509443408
 20
0.0941756875741633
 10
0.2805601509443408
 20
0.0977378824440497
 10
0.2827838489521003
 20
0.0977378824440497
 10
0.2827810490176353
 20
0.0970490068919112
 10
0.2814438767637951
 20
0.0970490068919112
 10
0.2814438767637951
 20
0.0963856912298663
 10
0.28249063272964
 20
0.0963856912298663
 10
0.28249063272964
 20
0.0956900939704606
 10
0.2814505471959021
 20
0.0956900939704606
 10
0.2814505471959021
 20
0.0948975050855639
 10
0.2828612899808082
 20
0.0948975050855639
 10
0.2828612899808082
 20
0.0941756875741633
 97
        0
 75
     0
 76
     1
 98
        0
  0
HATCH
  5
55
330
3F
100
AcDbEntity
 67
     1
  8
STANDARD
  6
AUSGEZOGEN
 62
   250
370
    35
100
AcDbHatch
 10
0.0
 20
0.0
 30
0.0
210
0.0
220
0.0
230
1.0
  2
SOLID
 70
     1
 71
     0
 91
        2
 92
        3
 72
     0
 73
     1
 93
       19
 10
0.2782330818120461
 20
0.0970373266548949
 10
0.2779410355954963
 20
0.0970373266548949
 10
0.2779410355954963
 20
0.0962358275456974
 10
0.2782208627861683
 20
0.0962358275456974
 10
0.2783788552027672
 20
0.0962414392289148
 10
0.2785096860967421
 20
0.0962585634418166
 10
0.2786152343312335
 20
0.0962876339292811
 10
0.2786973787693794
 20
0.0963290844361848
 10
0.2787579982743235
 20
0.0963833487074044
 10
0.2787989717092045
 20
0.0964508604878163
 10
0.2788221779371627
 20
0.0965320535222991
 10
0.278829495821341
 20
0.0966273615557281
 10
0.2788227280829644
 20
0.0967234762715976
 10
0.2788009670218259
 20
0.096806764113025
 10
0.2787620258689067
 20
0.0968772286488785
 10
0.278703717855192
 20
0.0969348734480242
 10
0.2786238562116647
 20
0.0969797020793317
 10
0.2785202541693083
 20
0.0970117181116675
 10
0.278390724959108
 20
0.0970309251138991
 97
        0
 92
       18
 72
     0
 73
     1
 93
       54
 10
0.278947618250803
 20
0.0942598802318865
 10
0.2788951019933484
 20
0.0943405404808631
 10
0.2788483445408232
 20
0.0944121715220416
 10
0.2788055344744031
 20
0.0944779780073671
 10
0.2787648603752589
 20
0.0945411645887839
 10
0.2787245108245682
 20
0.094604935918238
 10
0.278682674403505
 20
0.0946724966476729
 10
0.2786375396932426
 20
0.0947470514290343
 10
0.2785872952749554
 20
0.0948318049142665
 10
0.2784484874034263
 20
0.0950639266082175
 10
0.2783369157094076
 20
0.0952469136985342
 10
0.2782483606624283
 20
0.0953863711646668
 10
0.2781786027320181
 20
0.095487903986066
 10
0.27812342238771
 20
0.0955571171421842
 10
0.2780786000990327
 20
0.0955996156124716
 10
0.2780399163355194
 20
0.0956210043763803
 10
0.2780031515666973
 20
0.0956268884133605
 10
0.2779471451084359
 20
0.0956268884133605
 10
0.2779471451084359
 20
0.0942598802318865
 10
0.2771211053971631
 20
0.0942598802318865
 10
0.2771211053971631
 20
0.0976649516983722
 10
0.2784381669119475
 20
0.0976649516983722
 10
0.2785759347923835
 20
0.0976618559545506
 10
0.278712850077626
 20
0.0976517847132728
 10
0.2788469670793069
 20
0.0976335619598195
 10
0.2789763401090626
 20
0.0976060116794723
 10
0.2790990234785262
 20
0.0975679578575118
 10
0.2792130714993307
 20
0.0975182244792192
 10
0.2793165384831106
 20
0.097455635529876
 10
0.2794074787415005
 20
0.097379014994762
 10
0.2794847285019669
 20
0.0972940090349057
 10
0.2795493243324035
 20
0.0972065817804457
 10
0.2796019917690324
 20
0.0971166652043949
 10
0.2796434563480785
 20
0.0970241912797654
 10
0.2796744436057636
 20
0.0969290919795715
 10
0.2796956790783099
 20
0.0968312992768258
 10
0.2797078883019405
 20
0.0967307451445402
 10
0.279711796812879
 20
0.0966273615557281
 10
0.2796966883880656
 20
0.0964527247052471
 10
0.2796538408303255
 20
0.0962893824103982
 10
0.2795869707147115
 20
0.0961398800385601
 10
0.2794997946162763
 20
0.0960067629571131
 10
0.2793960291100726
 20
0.095892576533437
 10
0.27927939077115
 20
0.0957998661349102
 10
0.2791535961745643
 20
0.0957311771289129
 10
0.2790223618953651
 20
0.0956890548828243
 10
0.2791251651304598
 20
0.095558885733081
 10
0.279253755327886
 20
0.0953767203942626
 10
0.2793973037420723
 20
0.0951616315778189
 10
0.2795449816274447
 20
0.0949326919951957
 10
0.279685960238433
 20
0.0947089743578435
 10
0.2798094108294641
 20
0.0945095513772095
 10
0.2799045046549669
 20
0.0943534957647406
 10
0.2799604129693686
 20
0.0942598802318865
 97
        0
 75
     0
 76
     1
 98
        0
  0
HATCH
  5
56
330
3F
100
AcDbEntity
 67
     1
  8
STANDARD
  6
AUSGEZOGEN
 62
   250
370
    35
100
AcDbHatch
 10
0.0
 20
0.0
 30
0.0
210
0.0
220
0.0
230
1.0
  2
SOLID
 70
     1
 71
     0
 91
        1
 92
       18
 72
     0
 73
     1
 93
       98
 10
0.2756104952301641
 20
0.0941961432817146
 10
0.2754307322293747
 20
0.094200436816114
 10
0.2752597969319265
 20
0.0942141384227438
 10
0.2750977626816901
 20
0.0942384796067528
 10
0.2749447028225384
 20
0.0942746918732888
 10
0.2748006906983408
 20
0.0943240067274995
 10
0.2746657996529693
 20
0.0943876556745344
 10
0.2745401030302962
 20
0.0944668702195401
 10
0.2744236741741939
 20
0.0945628818676656
 10
0.2742994967177194
 20
0.0946910901036956
 10
0.2741925926170025
 20
0.0948287511320524
 10
0.2741027410756746
 20
0.094976014726822
 10
0.274029721297361
 20
0.0951330306620887
 10
0.2739733124856908
 20
0.095299948711939
 10
0.2739332938442913
 20
0.0954769186504578
 10
0.2739094445767908
 20
0.0956640902517294
 10
0.2739015438868186
 20
0.0958616132898405
 10
0.2739053881884871
 20
0.0960270960327781
 10
0.2739171668840776
 20
0.0961839340041547
 10
0.2739372486594661
 20
0.0963327804979352
 10
0.2739660022005304
 20
0.0964742888080867
 10
0.274003796193147
 20
0.0966091122285752
 10
0.2740509993231905
 20
0.0967379040533665
 10
0.274107980276541
 20
0.0968613175764268
 10
0.2741751077390716
 20
0.0969800060917217
 10
0.2742961709852632
 20
0.0971496671456179
 10
0.2744387740045926
 20
0.0972992871869063
 10
0.2746005904598258
 20
0.0974280708679423
 10
0.2747792940137302
 20
0.0975352228410821
 10
0.2749725583290752
 20
0.0976199477586817
 10
0.2751780570686269
 20
0.0976814502730977
 10
0.2753934638951517
 20
0.0977189350366868
 10
0.2756164524714166
 20
0.0977316067018036
 10
0.2757548915326446
 20
0.0977259981899021
 10
0.2758934958725001
 20
0.0977099936394198
 10
0.2760294904596937
 20
0.0976848245281939
 10
0.276160100262925
 20
0.0976517223340581
 10
0.2762825502509025
 20
0.0976119185348491
 10
0.2763940653923288
 20
0.0975666446084012
 10
0.276491870655912
 20
0.0975171320325499
 10
0.2765731910103529
 20
0.0974646122851309
 10
0.2761943328412569
 20
0.0969178388453614
 10
0.27612596567368
 20
0.096955554298612
 10
0.2760562912990799
 20
0.096989447130457
 10
0.2759857398934691
 20
0.0970191455959912
 10
0.2759147416328545
 20
0.0970442779503089
 10
0.2758437266932458
 20
0.0970644724485034
 10
0.2757731252506539
 20
0.097079357345669
 10
0.2757033674810857
 20
0.0970885608968991
 10
0.2756348835605538
 20
0.097091711357289
 10
0.2755571234338067
 20
0.0970874819517385
 10
0.2754786431969718
 20
0.0970753271472693
 10
0.275401037696879
 20
0.0970560470621545
 10
0.2753259017803524
 20
0.097030441814667
 10
0.2752548302942217
 20
0.0969993115230805
 10
0.2751894180853135
 20
0.0969634563056666
 10
0.2751312600004573
 20
0.0969236762806994
 10
0.2750819508864782
 20
0.0968807715664524
 10
0.2750221026393219
 20
0.0968110312558096
 10
0.2749726248659994
 20
0.0967322561746697
 10
0.2749327807045963
 20
0.0966441659120038
 10
0.2749018332931983
 20
0.0965464800567847
 10
0.2748790457698885
 20
0.0964389181979831
 10
0.2748636812727515
 20
0.0963211999245718
 10
0.2748550029398748
 20
0.0961930448255214
 10
0.2748522739093414
 20
0.0960541724898045
 10
0.2748541158608007
 20
0.0958803659913068
 10
0.2748600311466164
 20
0.0957259973030577
 10
0.2748706039139431
 20
0.0955895306557357
 10
0.2748864183099379
 20
0.0954694302800168
 10
0.2749080584817555
 20
0.0953641604065797
 10
0.2749361085765519
 20
0.0952721852661021
 10
0.2749711527414836
 20
0.0951919690892618
 10
0.2750137751237055
 20
0.0951219761067356
 10
0.2750702226072119
 20
0.0950518418292197
 10
0.2751328865665066
 20
0.0949906097187393
 10
0.2752021315541311
 20
0.0949384181872699
 10
0.2752783221226334
 20
0.0948954056467882
 10
0.275361822824558
 20
0.0948617105092702
 10
0.2754529982124502
 20
0.0948374711866919
 10
0.2755522128388551
 20
0.094822826091029
 10
0.2756598312563187
 20
0.0948179136342575
 10
0.2757412878832368
 20
0.0948203252070348
 10
0.2758188179727931
 20
0.0948279557115744
 10
0.2758937311719498
 20
0.0948413988271856
 10
0.2759673371276673
 20
0.0948612482331785
 10
0.2760409454869092
 20
0.094888097608862
 10
0.2761158658966349
 20
0.0949225406335473
 10
0.2761934080038069
 20
0.0949651709865432
 10
0.2762748814553874
 20
0.0950165823471604
 10
0.2766540426140613
 20
0.0945316708334832
 10
0.2765431792097737
 20
0.0944513261652687
 10
0.2764288981230963
 20
0.0943823716382514
 10
0.2763101110496979
 20
0.0943245984281517
 10
0.276185729685242
 20
0.0942777977106935
 10
0.2760546657253948
 20
0.0942417606615987
 10
0.2759158308658225
 20
0.0942162784565889
 10
0.2757681368021904
 20
0.0942011422713868
 97
        0
 75
     0
 76
     1
 98
        0
  0
HATCH
  5
57
330
3F
100
AcDbEntity
 67
     1
  8
STANDARD
  6
AUSGEZOGEN
 62
   250
370
    35
100
AcDbHatch
 10
0.0
 20
0.0
 30
0.0
210
0.0
220
0.0
230
1.0
  2
SOLID
 70
     1
 71
     0
 91
        1
 92
       18
 72
     0
 73
     1
 93
       42
 10
0.2724603984264002
 20
0.0941885343638554
 10
0.2717973873077262
 20
0.0956444396876938
 10
0.2717370979017947
 20
0.0957815575714209
 10
0.2716712517507515
 20
0.095936738140639
 10
0.2716040391968263
 20
0.0960987791477495
 10
0.2715396505822484
 20
0.0962564783451533
 10
0.2714822762492515
 20
0.0963986334852504
 10
0.2714361065400615
 20
0.0965140423204421
 10
0.2714053317969125
 20
0.09659150260313
 10
0.2713941423620348
 20
0.0966198120857143
 10
0.2713955550782566
 20
0.0965835838032784
 10
0.2713993341904312
 20
0.0964860234198549
 10
0.2714047911438132
 20
0.0963438176312745
 10
0.271411237383663
 20
0.0961736531333658
 10
0.2714179843552354
 20
0.0959922166219587
 10
0.271424343503789
 20
0.0958161947928823
 10
0.2714296262745802
 20
0.0956622743419653
 10
0.2714331441128685
 20
0.0955471419650383
 10
0.2714525432148637
 20
0.0941885343638554
 10
0.2706206472588638
 20
0.0941885343638554
 10
0.2706206472588638
 20
0.0977507292337417
 10
0.271589350001674
 20
0.0977507292337417
 10
0.2722779707318074
 20
0.0963792911892493
 10
0.2723376827944946
 20
0.0962532503225871
 10
0.2723978248875244
 20
0.0961111814893025
 10
0.2724558105469111
 20
0.0959632045777366
 10
0.2725090533086739
 20
0.0958194394762326
 10
0.2725549667088311
 20
0.095690006073133
 10
0.2725909642833974
 20
0.0955850242567801
 10
0.2726144595683915
 20
0.0955146139155174
 10
0.2726228660998297
 20
0.0954888949376876
 10
0.2726203524152554
 20
0.0955195439268083
 10
0.2726137254286484
 20
0.0956025072167487
 10
0.2726043562406865
 20
0.0957243092913735
 10
0.2725936159520481
 20
0.0958714746345497
 10
0.2725828756634094
 20
0.0960305277301419
 10
0.2725735064754486
 20
0.0961879930620159
 10
0.2725668794888419
 20
0.0963303951140383
 10
0.2725643658042666
 20
0.0964442583700744
 10
0.272551281315849
 20
0.0977507292337417
 10
0.2733698876827933
 20
0.0977507292337417
 10
0.2733698876827933
 20
0.0941885343638554
 97
        0
 75
     0
 76
     1
 98
        0
  0
HATCH
  5
58
330
3F
100
AcDbEntity
 67
     1
  8
STANDARD
  6
AUSGEZOGEN
 62
   250
370
    35
100
AcDbHatch
 10
0.0
 20
0.0
 30
0.0
210
0.0
220
0.0
230
1.0
  2
SOLID
 70
     1
 71
     0
 91
        2
 92
        3
 72
     0
 73
     1
 93
       32
 10
0.2681490507928431
 20
0.0972424060795232
 10
0.2679540053030051
 20
0.0972207626665909
 10
0.2677894453536135
 20
0.0971563706106058
 10
0.2676539902845232
 20
0.0970500371857842
 10
0.2675462594355904
 20
0.096902569666343
 10
0.2674648721466716
 20
0.0967147753264991
 10
0.2674084477576228
 20
0.0964874614404697
 10
0.2673756056082991
 20
0.0962214352824712
 10
0.2673649650385563
 20
0.09591750412672
 10
0.2673767499720779
 20
0.0955895934792523
 10
0.2674123712905805
 20
0.0953206933661675
 10
0.2674722287709676
 20
0.0951060913890929
 10
0.2675567221901449
 20
0.0949410751496557
 10
0.2676662513250161
 20
0.0948209322494836
 10
0.2678012159524876
 20
0.0947409502902027
 10
0.2679620158494612
 20
0.0946964168734415
 10
0.2681490507928431
 20
0.0946826196008258
 10
0.2683233479878797
 20
0.0946983071791121
 10
0.2684762253492229
 20
0.0947482350652426
 10
0.2686071219819823
 20
0.0948367009861263
 10
0.2687154769912671
 20
0.0949680026686709
 10
0.2688007294821885
 20
0.095146437839785
 10
0.2688623185598519
 20
0.0953763042263772
 10
0.2688996833293713
 20
0.0956618995553559
 10
0.2689122628958528
 20
0.0960075215536292
 10
0.2689036510816911
 20
0.0962817399258884
 10
0.2688759222820943
 20
0.0965254375424465
 10
0.2688262364613899
 20
0.0967367522373656
 10
0.268751753583911
 20
0.0969138218447068
 10
0.2686496336139862
 20
0.0970547841985313
 10
0.2685170365159469
 20
0.0971577771329011
 10
0.2683511222541231
 20
0.097220938481878
 97
        0
 92
       18
 72
     0
 73
     1
 93
       32
 10
0.2681976744050393
 20
0.0940165537256826
 10
0.2677700560098616
 20
0.0940530565560078
 10
0.2673936343956178
 20
0.0941589254453645
 10
0.2670702030912723
 20
0.0943287009913267
 10
0.2668015556257922
 20
0.0945569237914665
 10
0.2665894855281447
 20
0.0948381344433575
 10
0.2664357863272953
 20
0.0951668735445722
 10
0.2663422515522113
 20
0.0955376816926836
 10
0.2663106747318573
 20
0.0959450994852644
 10
0.2663433152067771
 20
0.096388388546059
 10
0.2664391212884302
 20
0.0967799264769885
 10
0.2665949199621546
 20
0.097117446610102
 10
0.2668075382132893
 20
0.0973986822774482
 10
0.2670738030271725
 20
0.0976213668110768
 10
0.2673905413891413
 20
0.0977832335430361
 10
0.2677545802845349
 20
0.0978820158053764
 10
0.2681627466986926
 20
0.0979154469301454
 10
0.2685501409512465
 20
0.0978855436977954
 10
0.2689025285908825
 20
0.0977958865140851
 10
0.2692147790153133
 20
0.0976465541490196
 10
0.2694817616222515
 20
0.0974376253726078
 10
0.2696983458094075
 20
0.0971691789548555
 10
0.2698594009744936
 20
0.0968412936657707
 10
0.2699597965152243
 20
0.0964540482753591
 10
0.2699944018293099
 20
0.0960075215536292
 10
0.269966140077295
 20
0.0955814292438819
 10
0.2698814621846845
 20
0.0951960432471634
 10
0.2697405291966324
 20
0.0948563277399961
 10
0.269543502158288
 20
0.0945672468989008
 10
0.269290542114805
 20
0.0943337649004009
 10
0.2689818101113353
 20
0.0941608459210162
 10
0.268617467193029
 20
0.0940534541372697
 97
        0
 75
     0
 76
     1
 98
        0
  0
HATCH
  5
59
330
3F
100
AcDbEntity
 67
     1
  8
STANDARD
  6
AUSGEZOGEN
 62
   250
370
    35
100
AcDbHatch
 10
0.0
 20
0.0
 30
0.0
210
0.0
220
0.0
230
1.0
  2
SOLID
 70
     1
 71
     0
 91
        1
 92
        3
 72
     0
 73
     1
 93
       98
 10
0.2648816160187031
 20
0.0944584548883614
 10
0.2647375085668944
 20
0.094464938369162
 10
0.2646030245302411
 20
0.0944844516491256
 10
0.2644779735934122
 20
0.0945170889845954
 10
0.2643621654410805
 20
0.0945629446319159
 10
0.2642554097579163
 20
0.0946221128474288
 10
0.2641575162285893
 20
0.0946946878874785
 10
0.2640682945377723
 20
0.0947807640084078
 10
0.2639875543701361
 20
0.0948804354665607
 10
0.2639312065691071
 20
0.0949718432117103
 10
0.2638839882592361
 20
0.0950769782147264
 10
0.2638454012193188
 20
0.0951986465615141
 10
0.2638149472281472
 20
0.0953396543379801
 10
0.26379212806452
 20
0.0955028076300302
 10
0.26377644550723
 20
0.0956909125235702
 10
0.2637674013350731
 20
0.0959067751045066
 10
0.2637644973268436
 20
0.0961532014587451
 10
0.2637690287205053
 20
0.0963570685854552
 10
0.2637828774807127
 20
0.0965404775426318
 10
0.2638064254763024
 20
0.096704783953719
 10
0.2638400545761144
 20
0.0968513434421625
 10
0.2638841466489809
 20
0.0969815116314068
 10
0.2639390835637417
 20
0.0970966441448982
 10
0.2640052471892325
 20
0.0971980966060814
 10
0.2640830193942896
 20
0.0972872246384006
 10
0.2641533151934125
 20
0.0973486142631
 10
0.2642355542171739
 20
0.0974047222732473
 10
0.2643273886331954
 20
0.0974546537024506
 10
0.264426470609099
 20
0.0974975135843159
 10
0.2645304523125097
 20
0.0975324069524502
 10
0.2646369859110506
 20
0.097558438840462
 10
0.2647437235723448
 20
0.0975747142819565
 10
0.2648483174640138
 20
0.0975803383105425
 10
0.264934695210401
 20
0.0975766304482616
 10
0.2650240759403996
 20
0.0975656154205453
 10
0.265115920864247
 20
0.0975474560660833
 10
0.2652096911921823
 20
0.0975223152235665
 10
0.2653048481344445
 20
0.0974903557316836
 10
0.2654008529012708
 20
0.0974517404291257
 10
0.2654971667029006
 20
0.097406632154582
 10
0.2655932507495724
 20
0.0973551937467433
 10
0.2660731722579592
 20
0.0980468707871392
 10
0.2659696710603918
 20
0.098110404751996
 10
0.2658451896917732
 20
0.0981717861069978
 10
0.2657026762188549
 20
0.0982290673429275
 10
0.2655450787083835
 20
0.0982803009505688
 10
0.26537534522711
 20
0.0983235394207047
 10
0.2651964238417848
 20
0.0983568352441174
 10
0.2650112626191561
 20
0.0983782409115916
 10
0.2648228096259765
 20
0.0983858089139084
 10
0.2645210323258458
 20
0.0983685157078403
 10
0.2642315144775159
 20
0.0983175919513505
 10
0.2639569881857246
 20
0.0982344714370107
 10
0.2637001855552065
 20
0.0981205879573916
 10
0.2634638386906999
 20
0.0979773753050648
 10
0.2632506796969422
 20
0.0978062672726022
 10
0.2630634406786679
 20
0.0976086976525754
 10
0.2629048537406145
 20
0.0973861002375547
 10
0.2628168350267648
 20
0.0972309734213702
 10
0.2627416187970609
 20
0.097069455345928
 10
0.2626788762877798
 20
0.0969002524059621
 10
0.2626282787351996
 20
0.0967220709962074
 10
0.2625894973755979
 20
0.0965336175113965
 10
0.262562203445253
 20
0.0963335983462644
 10
0.2625460681804418
 20
0.096120719895546
 10
0.2625407628174423
 20
0.0958936885539754
 10
0.2625514384871201
 20
0.0956279297408826
 10
0.262583562159052
 20
0.0953771386038691
 10
0.2626372788275924
 20
0.0951409225583908
 10
0.2627127334870913
 20
0.0949188890199043
 10
0.2628100711319015
 20
0.0947106454038656
 10
0.2629294367563755
 20
0.0945157991257307
 10
0.2630709753548626
 20
0.0943339576009552
 10
0.2632348319217169
 20
0.0941647282449958
 10
0.2633756783450042
 20
0.0940471652476735
 10
0.2635299323120628
 20
0.093946674948349
 10
0.2636989822216558
 20
0.0938628265701316
 10
0.2638842164725407
 20
0.0937951893361315
 10
0.2640870234634795
 20
0.0937433324694583
 10
0.2643087915932313
 20
0.0937068251932223
 10
0.264550909260556
 20
0.093685236730534
 10
0.2648147648642156
 20
0.0936781363045018
 10
0.2650179075593531
 20
0.0936843926478173
 10
0.2652094769630123
 20
0.0937034138656039
 10
0.2653906347416093
 20
0.0937355782396219
 10
0.265562542561556
 20
0.0937812640516327
 10
0.26572636208927
 20
0.0938408495833961
 10
0.2658832549911638
 20
0.093914713116673
 10
0.2660343829336516
 20
0.094003232933224
 10
0.26618090758315
 20
0.0941067873148089
 10
0.2657042956532372
 20
0.094716541411423
 10
0.2655990235765706
 20
0.0946514378367311
 10
0.265497945438316
 20
0.0945968480004178
 10
0.2653993124296021
 20
0.0945522068560513
 10
0.2653013757415581
 20
0.0945169493572012
 10
0.2652023865653164
 20
0.0944905104574384
 10
0.2651005960920063
 20
0.094472325110331
 10
0.2649942555127582
 20
0.0944618282694488
 97
        0
 75
     0
 76
     1
 98
        0
  0
HATCH
  5
5A
330
3F
100
AcDbEntity
 67
     1
  8
STANDARD
  6
AUSGEZOGEN
 62
    53
370
    25
100
AcDbHatch
 10
0.0
 20
0.0
 30
0.0
210
0.0
220
0.0
230
1.0
  2
SOLID
 70
     1
 71
     0
 91
        1
 92
        3
 72
     0
 73
     1
 93
      101
 10
0.2629867499254281
 20
0.1000687201445359
 10
0.2636754988884832
 20
0.0998679773490617
 10
0.2641172773709195
 20
0.0997495897796271
 10
0.2645740499137575
 20
0.0996383903263935
 10
0.2650570550491427
 20
0.0995320102546613
 10
0.2655646324364245
 20
0.0994313543361307
 10
0.2660782150145433
 20
0.0993404713126554
 10
0.2665969862037906
 20
0.0992596312217906
 10
0.2671241767649068
 20
0.0991884502525586
 10
0.2676601142068637
 20
0.0991270494858042
 10
0.2682097704331412
 20
0.0990751427870442
 10
0.26879165709761
 20
0.0990314574747842
 10
0.2694151899087989
 20
0.0989960541272905
 10
0.2700842765469254
 20
0.0989694825704436
 10
0.2707391884167309
 20
0.0989543446163897
 10
0.2713691640552877
 20
0.0989506483567722
 10
0.2720025861828048
 20
0.0989581671691934
 10
0.2726750901989397
 20
0.0989776006308708
 10
0.2733977325629318
 20
0.0990101110571637
 10
0.2741476699469034
 20
0.0990551650080409
 10
0.274885797994912
 20
0.099110721704049
 10
0.2756124660293087
 20
0.0991766244861718
 10
0.2763291220065273
 20
0.0992528416105102
 10
0.2770371501148964
 20
0.0993393705141623
 10
0.2777365309695484
 20
0.0994360786477075
 10
0.2784322984174235
 20
0.099543629370015
 10
0.2791540131703339
 20
0.09966682757102
 10
0.2799117881013453
 20
0.0998079405332106
 10
0.2806697799953697
 20
0.0999603662415084
 10
0.2813619734641195
 20
0.1001105696617055
 10
0.2820165468577527
 20
0.1002638694263171
 10
0.2826668401105237
 20
0.1004276017201306
 10
0.2833136392526778
 20
0.1006019261401104
 10
0.2839571100367635
 20
0.1007868840265068
 10
0.2846017607475027
 20
0.1009838168679533
 10
0.2852486572199147
 20
0.1011931402864571
 10
0.2858778090847118
 20
0.1014081260981192
 10
0.2864500988253476
 20
0.1016148601882142
 10
0.2869779894792462
 20
0.1018167817777339
 10
0.2874748901603749
 20
0.1020182218241304
 10
0.2879709217311259
 20
0.1022310629106108
 10
0.288470722150395
 20
0.1024573844562743
 10
0.2889785083689476
 20
0.1026994525725258
 10
0.2895976687918762
 20
0.1030087419370394
 10
0.2902444032785785
 20
0.1033407731773614
 10
0.2904415650539716
 20
0.107558511416534
 10
0.290165131439799
 20
0.1072039007271073
 10
0.2899971528276841
 20
0.1070025806205345
 10
0.2898450739542721
 20
0.1068346177755323
 10
0.2896616847431214
 20
0.1066475385461766
 10
0.2894055797734166
 20
0.106403449245202
 10
0.2890153951326927
 20
0.1060478729424501
 10
0.2887461467317974
 20
0.1058146889518949
 10
0.2885173746235234
 20
0.1056291271602325
 10
0.2882579306115052
 20
0.1054329054191071
 10
0.2878960294717714
 20
0.1051752152274188
 10
0.2873927605403469
 20
0.1048311211877817
 10
0.2869998012267685
 20
0.1045745826422761
 10
0.286658194437877
 20
0.1043636674856621
 10
0.286321719765772
 20
0.104168707719088
 10
0.2859108623922048
 20
0.1039446002237492
 10
0.2852834081629032
 20
0.1036190733800093
 10
0.2847409052260724
 20
0.1033477574033656
 10
0.2843316245547228
 20
0.1031543443163765
 10
0.2838788113067312
 20
0.1029539609146372
 10
0.28313203794251
 20
0.1026407141193489
 10
0.2823949439237829
 20
0.1023420924101986
 10
0.2818186729954054
 20
0.1021200390139106
 10
0.2813167190999293
 20
0.101938062048547
 10
0.2808428428450965
 20
0.1017781236750103
 10
0.2801629328849243
 20
0.1015643664825921
 10
0.2793384345984948
 20
0.1013140493781938
 10
0.2789372841536664
 20
0.1012018281343417
 10
0.2784963865842947
 20
0.1010912999697475
 10
0.2775763133134558
 20
0.1008788485369799
 10
0.2765005278779236
 20
0.1006335794882542
 10
0.2758806946688772
 20
0.1005028403923351
 10
0.2753451949786844
 20
0.1004008312953224
 10
0.2748183900764347
 20
0.1003123150462342
 10
0.274149774253646
 20
0.1002133949532407
 10
0.273375766934525
 20
0.1001103723005544
 10
0.2727769149698037
 20
0.1000411891350504
 10
0.2722162365023976
 20
0.0999880315675513
 10
0.2715552713086138
 20
0.0999380756712031
 10
0.2708167238988723
 20
0.0998942311558354
 10
0.2700826545628037
 20
0.0998624172065925
 10
0.2694516713564656
 20
0.0998453720211292
 10
0.2689506927920906
 20
0.0998421546271029
 10
0.2684815686292757
 20
0.0998502859623004
 10
0.2679472490099931
 20
0.0998715680073342
 10
0.2672822559546592
 20
0.0999110805393665
 10
0.2666504948563607
 20
0.0999588277935826
 10
0.2661545277777863
 20
0.100006630435635
 10
0.2657247008423177
 20
0.1000584394258317
 10
0.2653257835860934
 20
0.1001170961603441
 10
0.2649462712079451
 20
0.100183427938143
 10
0.2645841737096692
 20
0.1002572130041312
 10
0.2642378833844616
 20
0.1003382556221153
 10
0.263886825517075
 20
0.1004315409806113
 10
0.2634435487296747
 20
0.1005622078219221
 10
0.262962903341608
 20
0.100712577907666
 97
        0
 75
     0
 76
     1
 98
        0
  0
HATCH
  5
5B
330
3F
100
AcDbEntity
 67
     1
  8
STANDARD
  6
AUSGEZOGEN
 62
   250
370
    25
100
AcDbHatch
 10
0.0
 20
0.0
 30
0.0
210
0.0
220
0.0
230
1.0
  2
SOLID
 70
     1
 71
     0
 91
        1
 92
        3
 72
     0
 73
     1
 93
      150
 10
0.262957256143548
 20
0.0924893300471174
 10
0.262957256143548
 20
0.0912555662346772
 10
0.2629578988583471
 20
0.0912261110324326
 10
0.262959825779301
 20
0.0911967118998394
 10
0.2629630332384062
 20
0.0911674247998176
 10
0.2629675151300813
 20
0.0911383054820266
 10
0.2629732629227913
 20
0.0911094093767433
 10
0.2629802656752861
 20
0.0910807914893458
 10
0.2629885100574277
 20
0.0910525062956097
 10
0.2629979803755668
 20
0.0910246076380086
 10
0.2630086586024145
 20
0.0909971486232233
 10
0.2630205244113589
 20
0.0909701815210487
 10
0.2630335552151586
 20
0.0909437576648971
 10
0.2630477262089373
 20
0.0909179273540797
 10
0.2630630104174034
 20
0.0908927397580617
 10
0.2630793787461974
 20
0.0908682428228638
 10
0.2630968000372746
 20
0.0908444831797943
 10
0.2631152411282176
 20
0.0908215060566841
 10
0.263134666915362
 20
0.0907993551917932
 10
0.2631550404206173
 20
0.0907780727505518
 10
0.2631763228618587
 20
0.0907576992452963
 10
0.2631984737267498
 20
0.0907382734581519
 10
0.2632214508498598
 20
0.0907198323672088
 10
0.2632452104929296
 20
0.0907024110761314
 10
0.2632697074281275
 20
0.0906860427473376
 10
0.2632948950241453
 20
0.0906707585388716
 10
0.2633207253349626
 20
0.0906565875450929
 10
0.2633471491911143
 20
0.0906435567412935
 10
0.2633741162932889
 20
0.0906316909323489
 10
0.2634015753080742
 20
0.0906210127055013
 10
0.2634294739656755
 20
0.0906115423873623
 10
0.2634577591594113
 20
0.0906032980052203
 10
0.2634863770468088
 20
0.0905962952527256
 10
0.2635152731520924
 20
0.0905905474600157
 10
0.263544392469883
 20
0.0905860655683404
 10
0.2635736795699053
 20
0.0905828581092354
 10
0.2636030787024981
 20
0.0905809311882816
 10
0.2636325339047431
 20
0.0905802884734823
 10
0.2636619891069875
 20
0.0905809311882816
 10
0.2636913882395809
 20
0.0905828581092354
 10
0.2637206753396028
 20
0.0905860655683404
 10
0.2637497946573933
 20
0.0905905474600157
 10
0.2637786907626769
 20
0.0905962952527256
 10
0.2638073086500745
 20
0.0906032980052203
 10
0.2638355938438108
 20
0.0906115423873623
 10
0.2638634925014116
 20
0.0906210127055013
 10
0.2638909515161968
 20
0.0906316909323489
 10
0.2639179186183713
 20
0.0906435567412935
 10
0.263944342474523
 20
0.0906565875450929
 10
0.2639701727853404
 20
0.0906707585388716
 10
0.2639953603813585
 20
0.0906860427473376
 10
0.2640198573165565
 20
0.0907024110761314
 10
0.2640436169596257
 20
0.0907198323672088
 10
0.264066594082736
 20
0.0907382734581519
 10
0.264088744947627
 20
0.0907576992452963
 10
0.2641100273888684
 20
0.0907780727505518
 10
0.2641304008941237
 20
0.0907993551917932
 10
0.2641498266812681
 20
0.0908215060566841
 10
0.2641682677722116
 20
0.0908444831797943
 10
0.2641856890632889
 20
0.0908682428228638
 10
0.2642020573920824
 20
0.0908927397580617
 10
0.2642173416005486
 20
0.0909179273540797
 10
0.2642315125943273
 20
0.0909437576648971
 10
0.2642445433981268
 20
0.0909701815210487
 10
0.2642564092070712
 20
0.0909971486232233
 10
0.2642670874339189
 20
0.0910246076380086
 10
0.264276557752058
 20
0.0910525062956097
 10
0.2642848021342001
 20
0.0910807914893458
 10
0.2642918048866947
 20
0.0911094093767433
 10
0.2642975526794044
 20
0.0911383054820266
 10
0.26430203457108
 20
0.0911674247998176
 10
0.2643052420301847
 20
0.0911967118998394
 10
0.2643071689511386
 20
0.0912261110324326
 10
0.2643078116659379
 20
0.0912555662346772
 10
0.2643078116659379
 20
0.0924893300471174
 10
0.2640978916659381
 20
0.0924893300471174
 10
0.2640978916659381
 20
0.0912555662346772
 10
0.2640974487484642
 20
0.0912352676142282
 10
0.2640961208391615
 20
0.091215007633357
 10
0.2640939104657802
 20
0.0911948248580885
 10
0.2640908218358924
 20
0.0911747577074826
 10
0.2640868608288798
 20
0.0911548443805011
 10
0.2640820349847452
 20
0.0911351227832936
 10
0.2640763534897569
 20
0.0911156304570416
 10
0.2640698271589632
 20
0.0910964045064957
 10
0.2640624684156064
 20
0.0910774815293454
 10
0.2640542912674717
 20
0.0910588975465535
 10
0.2640453112802265
 20
0.0910406879337873
 10
0.2640355455477862
 20
0.0910228873540798
 10
0.2640250126597773
 20
0.0910055296918461
 10
0.2640137326661518
 20
0.0909886479883826
 10
0.2640017270390175
 20
0.0909722743789717
 10
0.2639890186317687
 20
0.0909564400317096
 10
0.2639756316355809
 20
0.0909411750881758
 10
0.2639615915333619
 20
0.0909265086060585
 10
0.2639469250512442
 20
0.0909124685038393
 10
0.2639316601077107
 20
0.0908990815076515
 10
0.2639158257604483
 20
0.0908863731004027
 10
0.2638994521510374
 20
0.0908743674732686
 10
0.2638825704475743
 20
0.0908630874796427
 10
0.2638652127853405
 20
0.0908525545916339
 10
0.263847412205633
 20
0.0908427888591937
 10
0.2638292025928665
 20
0.0908338088719482
 10
0.2638106186100747
 20
0.0908256317238139
 10
0.2637916956329248
 20
0.0908182729804568
 10
0.2637724696823787
 20
0.0908117466496632
 10
0.2637529773561264
 20
0.0908060651546749
 10
0.2637332557589192
 20
0.0908012393105403
 10
0.2637133424319378
 20
0.0907972783035278
 10
0.263693275281332
 20
0.0907941896736399
 10
0.2636730925060631
 20
0.0907919793002589
 10
0.2636528325251923
 20
0.0907906513909559
 10
0.2636325339047431
 20
0.0907902084734821
 10
0.263612235284294
 20
0.0907906513909559
 10
0.2635919753034226
 20
0.0907919793002589
 10
0.2635717925281542
 20
0.0907941896736399
 10
0.2635517253775485
 20
0.0907972783035278
 10
0.263531812050567
 20
0.0908012393105403
 10
0.2635120904533593
 20
0.0908060651546749
 10
0.263492598127107
 20
0.0908117466496632
 10
0.2634733721765611
 20
0.0908182729804568
 10
0.2634544491994109
 20
0.0908256317238139
 10
0.263435865216619
 20
0.0908338088719482
 10
0.2634176556038526
 20
0.0908427888591937
 10
0.2633998550241451
 20
0.0908525545916339
 10
0.2633824973619114
 20
0.0908630874796427
 10
0.2633656156584482
 20
0.0908743674732686
 10
0.2633492420490377
 20
0.0908863731004027
 10
0.2633334077017755
 20
0.0908990815076515
 10
0.2633181427582415
 20
0.0909124685038393
 10
0.2633034762761242
 20
0.0909265086060585
 10
0.2632894361739049
 20
0.0909411750881758
 10
0.2632760491777171
 20
0.0909564400317096
 10
0.2632633407704685
 20
0.0909722743789717
 10
0.2632513351433345
 20
0.0909886479883826
 10
0.2632400551497083
 20
0.0910055296918461
 10
0.2632295222616997
 20
0.0910228873540798
 10
0.2632197565292593
 20
0.0910406879337873
 10
0.263210776542014
 20
0.0910588975465535
 10
0.2632025993938799
 20
0.0910774815293454
 10
0.2631952406505225
 20
0.0910964045064957
 10
0.2631887143197288
 20
0.0911156304570416
 10
0.2631830328247404
 20
0.0911351227832936
 10
0.2631782069806058
 20
0.0911548443805011
 10
0.2631742459735936
 20
0.0911747577074826
 10
0.2631711573437054
 20
0.0911948248580885
 10
0.2631689469703248
 20
0.091215007633357
 10
0.2631676190610215
 20
0.0912352676142282
 10
0.2631671761435476
 20
0.0912555662346772
 10
0.2631671761435476
 20
0.0924893300471174
 97
        0
 75
     0
 76
     1
 98
        0
  0
HATCH
  5
5C
330
3F
100
AcDbEntity
 67
     1
  8
STANDARD
  6
AUSGEZOGEN
 62
   250
370
    25
100
AcDbHatch
 10
0.0
 20
0.0
 30
0.0
210
0.0
220
0.0
230
1.0
  2
SOLID
 70
     1
 71
     0
 91
        2
 92
        3
 72
     0
 73
     1
 93
      122
 10
0.26552394604042
 20
0.0924893300471174
 10
0.26552394604042
 20
0.0905802884734823
 10
0.2657338660404199
 20
0.0905802884734823
 10
0.2657338660404199
 20
0.0914183604618157
 10
0.2660240747029238
 20
0.0914183604618157
 10
0.2660443496334695
 20
0.0914040421423496
 10
0.2660618900386595
 20
0.0913911853062787
 10
0.2660775836213515
 20
0.0913792075052148
 10
0.2660918619662382
 20
0.0913678309446304
 10
0.2661049778762932
 20
0.0913568971558739
 10
0.2661170971999352
 20
0.0913463055625404
 10
0.2661283376466569
 20
0.091335987429663
 10
0.2661388159387731
 20
0.09132586535955
 10
0.2661491143885025
 20
0.091315385293324
 10
0.2661594686663235
 20
0.0913042990208265
 10
0.2661699103617921
 20
0.0912925502012738
 10
0.2661804863160409
 20
0.0912800601757666
 10
0.2661912546693127
 20
0.0912667297325572
 10
0.2662022932630358
 20
0.0912524264010206
 10
0.2662137116791146
 20
0.0912369648735214
 10
0.2662256746248693
 20
0.0912200689379711
 10
0.2662384536894499
 20
0.0912012872051752
 10
0.2662525666815163
 20
0.091179766217891
 10
0.2662693180791108
 20
0.0911533709014395
 10
0.2662923668736897
 20
0.0911161034236884
 10
0.266319130432232
 20
0.0910719511275627
 10
0.26635137725042
 20
0.0910177928832764
 10
0.2664101360966545
 20
0.0909177878364148
 10
0.2664528112715341
 20
0.0908454376884816
 10
0.2664849529666735
 20
0.0907917676737329
 10
0.2665208066230507
 20
0.0907328404488392
 10
0.2665637715651949
 20
0.0906631707773677
 10
0.2666154277567279
 20
0.0905802884734823
 10
0.2668629080988774
 20
0.0905802884734823
 10
0.2668226075557572
 20
0.0906447941500888
 10
0.2667780307650244
 20
0.090716093379262
 10
0.2667290356990212
 20
0.090794946102375
 10
0.2666911804326571
 20
0.0908565651536135
 10
0.2666586173264037
 20
0.0909102900665167
 10
0.2666272960206586
 20
0.0909627597456188
 10
0.2665802811734811
 20
0.0910425815158108
 10
0.2665259737650546
 20
0.091134895532008
 10
0.2664943281709778
 20
0.091188003025313
 10
0.2664687339894381
 20
0.0912302682606467
 10
0.2664497046699559
 20
0.0912610438724374
 10
0.2664335480799755
 20
0.0912864996019679
 10
0.2664188804218733
 20
0.0913089412643608
 10
0.2664051267887977
 20
0.0913293286228342
 10
0.2663919733435668
 20
0.0913481848810745
 10
0.2663792060702175
 20
0.091365861316479
 10
0.2663667600779138
 20
0.0913824844290637
 10
0.2663546045508605
 20
0.0913981284438696
 10
0.2663427158249839
 20
0.0914128549980615
 10
0.2663310751495371
 20
0.0914267169008507
 10
0.2663539654785079
 20
0.0914313044312109
 10
0.2663766303884395
 20
0.0914369018796061
 10
0.2663990297806679
 20
0.0914434819098928
 10
0.2664211210794704
 20
0.0914510320150558
 10
0.2664428622947356
 20
0.091459537844207
 10
0.2664642121017738
 20
0.0914689832298627
 10
0.2664851299198669
 20
0.0914793502186731
 10
0.2665055759893994
 20
0.0914906191055492
 10
0.2665255114474349
 20
0.0915027684711156
 10
0.2665448984015836
 20
0.0915157752224238
 10
0.2665637000020257
 20
0.0915296146368468
 10
0.2665818805115548
 20
0.0915442604090705
 10
0.2665994053735051
 20
0.0915596847010928
 10
0.2666162412774349
 20
0.0915758581951377
 10
0.2666323562224422
 20
0.0915927501493813
 10
0.2666477195779904
 20
0.0916103284563833
 10
0.2666623021421286
 20
0.0916285597041169
 10
0.2666760761969978
 20
0.0916474092394749
 10
0.2666890155615159
 20
0.0916668412341388
 10
0.2667010956411423
 20
0.091686818752678
 10
0.2667122934746233
 20
0.0917073038227558
 10
0.2667225877776389
 20
0.0917282575073049
 10
0.2667319589832574
 20
0.0917496399785375
 10
0.2667403892791275
 20
0.0917714105936483
 10
0.2667478626413353
 20
0.0917935279720658
 10
0.2667543648648628
 20
0.0918159500741073
 10
0.2667598835905849
 20
0.0918386342808857
 10
0.266764408328766
 20
0.0918615374753168
 10
0.2667679304789941
 20
0.0918846161240757
 10
0.2667704433465302
 20
0.0919078263603412
 10
0.2667719421550324
 20
0.0919311240671774
 10
0.2667724240556351
 20
0.0919544649613886
 10
0.2667718881323648
 20
0.0919778046776893
 10
0.2667703354038789
 20
0.0920010988530344
 10
0.2667677688215323
 20
0.09202430321094
 10
0.2667641932637638
 20
0.0920473736456436
 10
0.2667596155268278
 20
0.092070266305937
 10
0.2667540443118742
 20
0.0920929376785176
 10
0.2667474902084074
 20
0.0921153446706965
 10
0.266739965674163
 20
0.0921374446923067
 10
0.2667314850114254
 20
0.092159195736656
 10
0.266722064339843
 20
0.0921805564603724
 10
0.2667117215657894
 20
0.0922014862619872
 10
0.2667004763483279
 20
0.0922219453591082
 10
0.2666883500618448
 20
0.0922418948640366
 10
0.26667536575542
 20
0.0922612968576822
 10
0.2666615481090182
 20
0.0922801144616393
 10
0.2666469233865791
 20
0.0922983119082824
 10
0.2666315193860934
 20
0.0923158546087528
 10
0.2666153653867679
 20
0.0923327092187023
 10
0.2665984920933722
 20
0.0923488437016733
 10
0.2665809315778767
 20
0.0923642273899919
 10
0.2665627172184911
 20
0.0923788310430599
 10
0.2665438836362215
 20
0.0923926269029337
 10
0.2665244666290639
 20
0.0924055887470852
 10
0.2665045031039615
 20
0.0924176919382448
 10
0.2664840310066529
 20
0.0924289134712304
 10
0.2664630892495476
 20
0.092439232016675
 10
0.2664417176377616
 20
0.0924486279615674
 10
0.2664199567934595
 20
0.0924570834465335
 10
0.2663978480786402
 20
0.0924645823997813
 10
0.2663754335165202
 20
0.0924711105676498
 10
0.2663527557116544
 20
0.0924766555417014
 10
0.2663298577689586
 20
0.0924812067823075
 10
0.2663067832117753
 20
0.0924847556386821
 10
0.266283575899149
 20
0.0924872953653243
 10
0.2662602799424583
 20
0.09248882113484
 10
0.2662369396215725
 20
0.0924893300471174
 97
        0
 92
       18
 72
     0
 73
     1
 93
       75
 10
0.2657338660404199
 20
0.0922794100471174
 10
0.2662369396215725
 20
0.0922794100471174
 10
0.2662511405583757
 20
0.0922791001815741
 10
0.2662653144628881
 20
0.0922781711747907
 10
0.2662794343542783
 20
0.0922766247951846
 10
0.2662934733545284
 20
0.092274463986377
 10
0.2663074047396056
 20
0.0922716928615905
 10
0.2663212019903254
 20
0.0922683166958184
 10
0.2663348388428369
 20
0.0922643419157845
 10
0.2663482893386166
 20
0.0922597760877083
 10
0.2663615278738811
 20
0.092254627902903
 10
0.2663745292483263
 20
0.0922489071612309
 10
0.266387268713097
 20
0.0922426247524493
 10
0.2663997220178979
 20
0.0922357926354799
 10
0.2664118654571552
 20
0.0922284238156463
 10
0.2664236759151427
 20
0.0922205323199151
 10
0.2664351309099813
 20
0.0922121331701974
 10
0.2664462086364383
 20
0.0922032423547519
 10
0.2664568880074319
 20
0.0921938767977513
 10
0.2664671486941713
 20
0.0921840543270658
 10
0.2664769711648569
 20
0.092173793640326
 10
0.2664863367218575
 20
0.0921631142693327
 10
0.2664952275373032
 20
0.0921520365428756
 10
0.2665036266870209
 20
0.0921405815480367
 10
0.2665115181827518
 20
0.0921287710900494
 10
0.2665188870025859
 20
0.0921166276507921
 10
0.2665257191195554
 20
0.0921041743459913
 10
0.2665320015283366
 20
0.0920914348812207
 10
0.266537722270009
 20
0.0920784335067755
 10
0.266542870454814
 20
0.0920651949715109
 10
0.2665474362828903
 20
0.0920517444757311
 10
0.2665514110629243
 20
0.0920381076232196
 10
0.2665547872286961
 20
0.0920243103724999
 10
0.2665575583534828
 20
0.0920103789874231
 10
0.2665597191622903
 20
0.0919963399871723
 10
0.2665612655418963
 20
0.0919822200957828
 10
0.2665621945486797
 20
0.0919680461912698
 10
0.2665625044142232
 20
0.0919538452544667
 10
0.2665621945486797
 20
0.0919396443176636
 10
0.2665612655418963
 20
0.0919254704131507
 10
0.2665597191622903
 20
0.0919113505217611
 10
0.2665575583534828
 20
0.0918973115215103
 10
0.2665547872286961
 20
0.0918833801364336
 10
0.2665514110629243
 20
0.0918695828857138
 10
0.2665474362828903
 20
0.0918559460332022
 10
0.266542870454814
 20
0.0918424955374224
 10
0.266537722270009
 20
0.0918292570021579
 10
0.2665320015283366
 20
0.0918162556277128
 10
0.2665257191195554
 20
0.0918035161629421
 10
0.2665188870025859
 20
0.0917910628581413
 10
0.2665115181827518
 20
0.091778919418884
 10
0.2665036266870209
 20
0.0917671089608967
 10
0.2664952275373032
 20
0.0917556539660578
 10
0.2664863367218575
 20
0.0917445762396007
 10
0.2664769711648569
 20
0.0917338968686074
 10
0.2664671486941713
 20
0.0917236361818677
 10
0.2664568880074319
 20
0.0917138137111821
 10
0.2664462086364383
 20
0.0917044481541815
 10
0.2664351309099813
 20
0.091695557338736
 10
0.2664236759151427
 20
0.0916871581890183
 10
0.2664118654571552
 20
0.0916792666932871
 10
0.2663997220178979
 20
0.0916718978734535
 10
0.266387268713097
 20
0.091665065756484
 10
0.2663745292483263
 20
0.0916587833477025
 10
0.2663615278738811
 20
0.0916530626060303
 10
0.2663482893386166
 20
0.0916479144212251
 10
0.2663348388428369
 20
0.0916433485931489
 10
0.2663212019903254
 20
0.091639373813115
 10
0.2663074047396056
 20
0.091635997647343
 10
0.2662934733545284
 20
0.0916332265225564
 10
0.2662794343542783
 20
0.0916310657137488
 10
0.2662653144628881
 20
0.0916295193341427
 10
0.2662511405583757
 20
0.0916285903273593
 10
0.2662369396215725
 20
0.091628280461816
 10
0.2657338660404199
 20
0.0916282804618157
 97
        0
 75
     0
 76
     1
 98
        0
  0
HATCH
  5
5D
330
3F
100
AcDbEntity
 67
     1
  8
STANDARD
  6
AUSGEZOGEN
 62
   250
370
    25
100
AcDbHatch
 10
0.0
 20
0.0
 30
0.0
210
0.0
220
0.0
230
1.0
  2
SOLID
 70
     1
 71
     0
 91
        3
 92
        3
 72
     0
 73
     1
 93
      119
 10
0.2679468244773509
 20
0.0924893300471174
 10
0.2679468244773509
 20
0.0905802884734823
 10
0.2687800884477026
 20
0.0905802884734823
 10
0.2688027413655509
 20
0.0905807783576409
 10
0.2688253519269465
 20
0.090582247094131
 10
0.268847877854636
 20
0.0905846919367073
 10
0.268870277029614
 20
0.0905881083140003
 10
0.2688925075698771
 20
0.0905924898380638
 10
0.2689145279087354
 20
0.0905978283163188
 10
0.2689362968725333
 20
0.0906041137668729
 10
0.2689577737576371
 20
0.0906113344371832
 10
0.268978918406543
 20
0.0906194768260318
 10
0.2689996912829614
 20
0.0906285257087707
 10
0.2690200535457432
 20
0.0906384641657888
 10
0.269039967121507
 20
0.090649273614147
 10
0.269059394775825
 20
0.0906609338423266
 10
0.2690783001828473
 20
0.0906734230480197
 10
0.269096647993221
 20
0.0906867178788943
 10
0.2691144039001898
 20
0.090700793476261
 10
0.2691315347037378
 20
0.090715623521551
 10
0.2691480083726689
 20
0.0907311802855285
 10
0.2691637941044979
 20
0.0907474346801383
 10
0.2691788623830449
 20
0.0907643563128946
 10
0.2691931850336254
 20
0.0907819135437085
 10
0.2692067352757304
 20
0.09080007354405
 10
0.2692194877731017
 20
0.0908188023583289
 10
0.2692314186811051
 20
0.0908380649673869
 10
0.2692425056913149
 20
0.090857825353975
 10
0.2692527280732268
 20
0.0908780465700996
 10
0.2692620667130184
 20
0.0908986908061074
 10
0.2692705041492912
 20
0.0909197194613819
 10
0.2692780246057166
 20
0.0909410932165189
 10
0.2692846140205366
 20
0.0909627721068466
 10
0.2692902600728551
 20
0.0909847155971506
 10
0.2692949522056781
 20
0.0910068826574672
 10
0.2692986816456487
 20
0.0910292318398015
 10
0.2693014414194574
 20
0.0910517213556262
 10
0.2693032263668747
 20
0.0910743091540187
 10
0.2693040331504044
 20
0.0910969530002874
 10
0.2693038602615218
 20
0.0911196105549423
 10
0.269302708023494
 20
0.0911422394528616
 10
0.2693005785907778
 20
0.0911647973825052
 10
0.2692974759449892
 20
0.0911872421650307
 10
0.2692934058874574
 20
0.0912095318331573
 10
0.2692883760283821
 20
0.0912316247096381
 10
0.2692823957725995
 20
0.0912534794851865
 10
0.2692754763019982
 20
0.0912750552957183
 10
0.2692676305546126
 20
0.0912963117987578
 10
0.2692588732004303
 20
0.0913172092488712
 10
0.2692492206139623
 20
0.0913377085719815
 10
0.2692386908436263
 20
0.0913577714384309
 10
0.2692273035779981
 20
0.0913773603346486
 10
0.2692150801090014
 20
0.0913964386332938
 10
0.2692020432920917
 20
0.0914149706617411
 10
0.269188217503525
 20
0.0914329217687825
 10
0.2691736285947769
 20
0.0914502583894173
 10
0.2691583038442047
 20
0.0914669481076123
 10
0.2691422719060465
 20
0.0914829597169126
 10
0.269125562756838
 20
0.0914982632787929
 10
0.2691082076393652
 20
0.0915128301786355
 10
0.269090239004248
 20
0.091526633179234
 10
0.2690716904492602
 20
0.0915396464717219
 10
0.2690525966565122
 20
0.0915518457238299
 10
0.2690696327589114
 20
0.0915675030617775
 10
0.2690859765614435
 20
0.0915838817410691
 10
0.2691015975485174
 20
0.0916009511809952
 10
0.2691164665541137
 20
0.0916186795111234
 10
0.2691305558162416
 20
0.0916370336308039
 10
0.2691438390287719
 20
0.0916559792709729
 10
0.2691562913905573
 20
0.0916754810581355
 10
0.2691678896517318
 20
0.091695502580412
 10
0.2691786121571282
 20
0.0917160064555233
 10
0.2691884388867053
 20
0.0917369544005867
 10
0.2691973514929296
 20
0.091758307303594
 10
0.2692053333350316
 20
0.0917800252964392
 10
0.269212369510076
 20
0.091802067829354
 10
0.2692184468807866
 20
0.0918243937466205
 10
0.2692235541000766
 20
0.0918469613634127
 10
0.2692276816322316
 20
0.091869728543626
 10
0.2692308217707166
 20
0.09189265277855
 10
0.2692329686525652
 20
0.0919156912662365
 10
0.2692341182693238
 20
0.0919388009914159
 10
0.2692342684745363
 20
0.0919619388058103
 10
0.2692334189877549
 20
0.0919850615086963
 10
0.2692315713950605
 20
0.092008125927566
 10
0.269228729146102
 20
0.0920310889987327
 10
0.2692248975476556
 20
0.0920539078477376
 10
0.2692200837537172
 20
0.0920765398693985
 10
0.2692142967521447
 20
0.0920989428073612
 10
0.2692075473478753
 20
0.092121074832993
 10
0.2691998481427548
 20
0.0921428946234838
 10
0.269191213512005
 20
0.0921643614389993
 10
0.2691816595773865
 20
0.0921854351987458
 10
0.2691712041770959
 20
0.0922060765558066
 10
0.2691598668324608
 20
0.0922262469706062
 10
0.269147668711491
 20
0.0922459087828664
 10
0.2691346325893561
 20
0.0922650252819246
 10
0.269120782805862
 20
0.0922835607752744
 10
0.2691061452200056
 20
0.0923014806552081
 10
0.269090747161692
 20
0.0923187514634328
 10
0.2690746173807098
 20
0.0923353409535403
 10
0.2690577859930497
 20
0.0923512181512146
 10
0.2690402844246761
 20
0.0923663534120649
 10
0.269022145352849
 20
0.0923807184769731
 10
0.2690034026451169
 20
0.0923942865248587
 10
0.2689840912960784
 20
0.0924070322227551
 10
0.2689642473620446
 20
0.0924189317731087
 10
0.2689439078937196
 20
0.0924299629582127
 10
0.2689231108670205
 20
0.0924401051816889
 10
0.2689018951121759
 20
0.0924493395069438
 10
0.2688803002412212
 20
0.092457648692525
 10
0.2688583665740438
 20
0.0924650172243121
 10
0.268836135063097
 20
0.0924714313444845
 10
0.2688136472169414
 20
0.0924768790772081
 10
0.2687909450227411
 20
0.0924813502509954
 10
0.2687680708678703
 20
0.0924848365176964
 10
0.2687450674607729
 20
0.0924873313680858
 10
0.2687219777512195
 20
0.0924888301440166
 10
0.2686988448501164
 20
0.0924893300471174
 97
        0
 92
       18
 72
     0
 73
     1
 93
       75
 10
0.2681567444773513
 20
0.0922794100471174
 10
0.2686988448501164
 20
0.0922794100471174
 10
0.2687130457869196
 20
0.0922791001815743
 10
0.2687272196914325
 20
0.0922781711747907
 10
0.2687413395828222
 20
0.0922766247951846
 10
0.2687553785830729
 20
0.092274463986377
 10
0.2687693099681494
 20
0.0922716928615905
 10
0.2687831072188694
 20
0.0922683166958187
 10
0.2687967440713807
 20
0.0922643419157847
 10
0.2688101945671606
 20
0.0922597760877083
 10
0.2688234331024254
 20
0.092254627902903
 10
0.2688364344768707
 20
0.0922489071612312
 10
0.268849173941641
 20
0.0922426247524493
 10
0.2688616272464418
 20
0.0922357926354802
 10
0.2688737706856991
 20
0.0922284238156463
 10
0.2688855811436867
 20
0.0922205323199151
 10
0.2688970361385257
 20
0.0922121331701974
 10
0.2689081138649829
 20
0.0922032423547521
 10
0.2689187932359758
 20
0.0921938767977516
 10
0.2689290539227153
 20
0.0921840543270658
 10
0.2689388763934014
 20
0.092173793640326
 10
0.268948241950402
 20
0.0921631142693329
 10
0.2689571327658472
 20
0.0921520365428758
 10
0.2689655319155648
 20
0.0921405815480367
 10
0.268973423411296
 20
0.0921287710900494
 10
0.2689807922311299
 20
0.0921166276507921
 10
0.2689876243480992
 20
0.0921041743459913
 10
0.268993906756881
 20
0.0920914348812207
 10
0.2689996274985528
 20
0.0920784335067755
 10
0.2690047756833583
 20
0.0920651949715109
 10
0.2690093415114343
 20
0.0920517444757311
 10
0.2690133162914683
 20
0.0920381076232196
 10
0.2690166924572401
 20
0.0920243103724999
 10
0.2690194635820268
 20
0.0920103789874231
 10
0.2690216243908342
 20
0.0919963399871723
 10
0.2690231707704409
 20
0.0919822200957828
 10
0.269024099777224
 20
0.0919680461912698
 10
0.2690244096427672
 20
0.0919538452544667
 10
0.269024099777224
 20
0.0919396443176636
 10
0.2690231707704409
 20
0.0919254704131507
 10
0.2690216243908342
 20
0.0919113505217611
 10
0.2690194635820268
 20
0.0918973115215103
 10
0.2690166924572401
 20
0.0918833801364336
 10
0.2690133162914683
 20
0.0918695828857138
 10
0.2690093415114343
 20
0.0918559460332022
 10
0.2690047756833583
 20
0.0918424955374224
 10
0.2689996274985528
 20
0.0918292570021579
 10
0.268993906756881
 20
0.0918162556277128
 10
0.2689876243480992
 20
0.0918035161629421
 10
0.2689807922311299
 20
0.0917910628581413
 10
0.268973423411296
 20
0.091778919418884
 10
0.2689655319155648
 20
0.0917671089608967
 10
0.2689571327658472
 20
0.0917556539660575
 10
0.268948241950402
 20
0.0917445762396005
 10
0.2689388763934014
 20
0.0917338968686074
 10
0.2689290539227153
 20
0.0917236361818677
 10
0.2689187932359758
 20
0.0917138137111818
 10
0.2689081138649829
 20
0.0917044481541813
 10
0.2688970361385257
 20
0.091695557338736
 10
0.2688855811436867
 20
0.0916871581890183
 10
0.2688737706856991
 20
0.0916792666932871
 10
0.2688616272464418
 20
0.0916718978734532
 10
0.268849173941641
 20
0.091665065756484
 10
0.2688364344768707
 20
0.0916587833477022
 10
0.2688234331024254
 20
0.0916530626060303
 10
0.2688101945671606
 20
0.0916479144212251
 10
0.2687967440713807
 20
0.0916433485931487
 10
0.2687831072188694
 20
0.0916393738131147
 10
0.2687693099681494
 20
0.091635997647343
 10
0.2687553785830729
 20
0.0916332265225564
 10
0.2687413395828222
 20
0.0916310657137488
 10
0.2687272196914325
 20
0.0916295193341427
 10
0.2687130457869196
 20
0.0916285903273591
 10
0.2686988448501164
 20
0.091628280461816
 10
0.2681567444773513
 20
0.091628280461816
 97
        0
 92
       18
 72
     0
 73
     1
 93
       75
 10
0.2687800884477032
 20
0.0914183604618157
 10
0.2687937882501547
 20
0.0914180615310627
 10
0.2688074619742538
 20
0.0914171653078358
 10
0.2688210835912893
 20
0.0914156734981464
 10
0.2688346271717388
 20
0.0914135889417392
 10
0.2688480669346278
 20
0.0914109156066862
 10
0.2688613772966028
 20
0.0914076585818319
 10
0.268874532920634
 20
0.0914038240671088
 10
0.2688875087642431
 20
0.0913994193617335
 10
0.2689002801271742
 20
0.0913944528503127
 10
0.2689128226984124
 20
0.0913889339868834
 10
0.2689251126024595
 20
0.0913828732769159
 10
0.2689371264447861
 20
0.0913762822573162
 10
0.26894884135636
 20
0.0913691734744642
 10
0.2689602350371806
 20
0.0913615604603326
 10
0.268971285798729
 20
0.0913534577067264
 10
0.2689819726052532
 20
0.0913448806376973
 10
0.2689922751138089
 20
0.0913358455801842
 10
0.2690021737129858
 20
0.0913263697329321
 10
0.2690116495602382
 20
0.091316471133755
 10
0.269020684617751
 20
0.0913061686251991
 10
0.2690292616867804
 20
0.0912954818186751
 10
0.2690373644403866
 20
0.0912844310571265
 10
0.2690449774545181
 20
0.0912730373763057
 10
0.26905208623737
 20
0.0912613224647323
 10
0.2690586772569699
 20
0.0912493086224058
 10
0.2690647379669374
 20
0.0912370187183582
 10
0.2690702568303665
 20
0.09122447614712
 10
0.2690752233417872
 20
0.091211704784189
 10
0.2690796280471628
 20
0.09119872894058
 10
0.269083462561886
 20
0.0911855733165488
 10
0.2690867195867402
 20
0.0911722629545735
 10
0.2690893929217931
 20
0.0911588231916848
 10
0.2690914774782002
 20
0.0911452796112352
 10
0.2690929692878896
 20
0.0911316579941998
 10
0.2690938655111167
 20
0.0911179842701005
 10
0.2690941644418696
 20
0.0911042844676489
 10
0.2690938655111167
 20
0.0910905846651972
 10
0.2690929692878896
 20
0.0910769109410981
 10
0.2690914774782002
 20
0.0910632893240626
 10
0.2690893929217931
 20
0.091049745743613
 10
0.2690867195867402
 20
0.0910363059807243
 10
0.269083462561886
 20
0.0910229956187491
 10
0.2690796280471628
 20
0.0910098399947178
 10
0.2690752233417872
 20
0.0909968641511088
 10
0.2690702568303665
 20
0.0909840927881778
 10
0.2690647379669374
 20
0.0909715502169396
 10
0.2690586772569699
 20
0.0909592603128921
 10
0.26905208623737
 20
0.0909472464705655
 10
0.2690449774545181
 20
0.0909355315589921
 10
0.2690373644403866
 20
0.0909241378781713
 10
0.2690292616867804
 20
0.0909130871166227
 10
0.269020684617751
 20
0.0909024003100987
 10
0.2690116495602382
 20
0.0908920978015427
 10
0.2690021737129858
 20
0.0908821992023657
 10
0.2689922751138089
 20
0.0908727233551136
 10
0.2689819726052532
 20
0.0908636882976005
 10
0.268971285798729
 20
0.0908551112285714
 10
0.2689602350371806
 20
0.0908470084749652
 10
0.26894884135636
 20
0.0908393954608335
 10
0.2689371264447861
 20
0.0908322866779816
 10
0.2689251126024595
 20
0.0908256956583819
 10
0.2689128226984124
 20
0.0908196349484144
 10
0.2689002801271742
 20
0.0908141160849851
 10
0.2688875087642431
 20
0.0908091495735644
 10
0.268874532920634
 20
0.0908047448681891
 10
0.2688613772966028
 20
0.0908009103534659
 10
0.2688480669346278
 20
0.0907976533286117
 10
0.2688346271717388
 20
0.0907949799935586
 10
0.2688210835912893
 20
0.0907928954371513
 10
0.2688074619742538
 20
0.090791403627462
 10
0.2687937882501547
 20
0.0907905074042351
 10
0.2687800884477026
 20
0.0907902084734821
 10
0.2681567444773513
 20
0.0907902084734823
 10
0.2681567444773513
 20
0.0914183604618157
 97
        0
 75
     0
 76
     1
 98
        0
  0
HATCH
  5
5E
330
3F
100
AcDbEntity
 67
     1
  8
STANDARD
  6
AUSGEZOGEN
 62
   250
370
    25
100
AcDbHatch
 10
0.0
 20
0.0
 30
0.0
210
0.0
220
0.0
230
1.0
  2
SOLID
 70
     1
 71
     0
 91
        2
 92
        3
 72
     0
 73
     1
 93
        8
 10
0.2702244621344962
 20
0.0905802884734823
 10
0.2704491874708823
 20
0.0905802884734823
 10
0.2706602253164023
 20
0.0911325407445333
 10
0.27146019671942
 20
0.0911325407445333
 10
0.27167123456494
 20
0.0905802884734823
 10
0.2718959599013264
 20
0.0905802884734823
 10
0.2711664381920876
 20
0.0924893300471174
 10
0.2709539838437346
 20
0.0924893300471174
 97
        0
 92
       18
 72
     0
 73
     1
 93
        3
 10
0.2710602110179112
 20
0.0921792393189147
 10
0.2713799778287903
 20
0.0913424607445334
 10
0.270740444207032
 20
0.0913424607445334
 97
        0
 75
     0
 76
     1
 98
        0
  0
HATCH
  5
5F
330
3F
100
AcDbEntity
 67
     1
  8
STANDARD
  6
AUSGEZOGEN
 62
   250
370
    25
100
AcDbHatch
 10
0.0
 20
0.0
 30
0.0
210
0.0
220
0.0
230
1.0
  2
SOLID
 70
     1
 71
     0
 91
        1
 92
        3
 72
     0
 73
     1
 93
       10
 10
0.2729273960728446
 20
0.0905802884734823
 10
0.2731373160728442
 20
0.0905802884734823
 10
0.2731373160728442
 20
0.0921118891322595
 10
0.2740215861254804
 20
0.0905802884734823
 10
0.2742315061254804
 20
0.0905802884734823
 10
0.2742315061254804
 20
0.0924893300471174
 10
0.2740215861254804
 20
0.0924893300471174
 10
0.2740215861254804
 20
0.0909577293883403
 10
0.2731373160728442
 20
0.0924893300471174
 10
0.2729273960728446
 20
0.0924893300471174
 97
        0
 75
     0
 76
     1
 98
        0
  0
HATCH
  5
60
330
3F
100
AcDbEntity
 67
     1
  8
STANDARD
  6
AUSGEZOGEN
 62
   250
370
    25
100
AcDbHatch
 10
0.0
 20
0.0
 30
0.0
210
0.0
220
0.0
230
1.0
  2
SOLID
 70
     1
 71
     0
 91
        2
 92
        3
 72
     0
 73
     1
 93
       76
 10
0.2772208708036478
 20
0.0924893300471174
 10
0.2772208708036478
 20
0.0905802884734823
 10
0.2779456910376757
 20
0.0905802884734823
 10
0.2779721182639062
 20
0.0905808651176101
 10
0.2779984951844087
 20
0.0905825939523182
 10
0.2780247715892171
 20
0.0905854716866718
 10
0.2780508974597009
 20
0.0905894928427397
 10
0.2780768230637808
 20
0.0905946497660229
 10
0.278102499050596
 20
0.0906009326400251
 10
0.278127876544446
 20
0.0906083295049381
 10
0.2781529072378295
 20
0.0906168262804094
 10
0.2781775434833986
 20
0.0906264067923437
 10
0.2782017383846594
 20
0.0906370528036924
 10
0.2782254458852424
 20
0.0906487440491678
 10
0.2782486208565733
 20
0.0906614582738191
 10
0.2782712191837758
 20
0.0906751712753976
 10
0.2782931978496511
 20
0.0906898569504254
 10
0.2783145150165583
 20
0.0907054873438849
 10
0.2783351301060595
 20
0.0907220327024343
 10
0.2783550038761592
 20
0.0907394615310429
 10
0.2783740984960077
 20
0.0907577406529452
 10
0.2783923776179097
 20
0.0907768352727932
 10
0.2784098064465185
 20
0.0907967090428932
 10
0.2784263518050675
 20
0.0908173241323943
 10
0.2784419821985275
 20
0.0908386412993016
 10
0.2784566678735548
 20
0.0908606199651765
 10
0.2784703808751335
 20
0.0908832182923796
 10
0.2784830950997851
 20
0.09090639326371
 10
0.2784947863452601
 20
0.0909301007642931
 10
0.2785054323566086
 20
0.0909542956655541
 10
0.2785150128685431
 20
0.0909789319111231
 10
0.2785235096440143
 20
0.0910039626045063
 10
0.2785309065089278
 20
0.0910293400983565
 10
0.2785371893829295
 20
0.0910550160851718
 10
0.2785423463062127
 20
0.0910809416892518
 10
0.278546367462281
 20
0.0911070675597354
 10
0.2785492451966342
 20
0.0911333439645439
 10
0.2785509740313424
 20
0.0911597208850467
 10
0.2785515506754704
 20
0.0911861481112766
 10
0.2785515506754704
 20
0.091891551095758
 10
0.2785509817223653
 20
0.0919176258473963
 10
0.278549275946086
 20
0.0919436509642626
 10
0.2785464365936736
 20
0.0919695769060682
 10
0.2785424690699971
 20
0.0919953543213091
 10
0.2785373809274636
 20
0.0920209341412106
 10
0.2785311818516409
 20
0.0920462676731311
 10
0.2785238836428229
 20
0.0920713066932534
 10
0.2785155001935642
 20
0.092096003538379
 10
0.2785060474622378
 20
0.0921203111966598
 10
0.2784955434426544
 20
0.0921441833970866
 10
0.2784840081298126
 20
0.0921675746975694
 10
0.2784714634818356
 20
0.0921904405714376
 10
0.2784579333781743
 20
0.0922127374922013
 10
0.2784434435741499
 20
0.0922344230164043
 10
0.2784280216519274
 20
0.0922554558644189
 10
0.2784116969680132
 20
0.0922757959990232
 10
0.2783945005973701
 20
0.0922954047016152
 10
0.2783764652742675
 20
0.0923142446459148
 10
0.2783576253299677
 20
0.0923322799690174
 10
0.2783380166273761
 20
0.0923494763396602
 10
0.2783176764927715
 20
0.0923658010235748
 10
0.2782966436447572
 20
0.0923812229457971
 10
0.2782749581205544
 20
0.0923957127498214
 10
0.2782526611997908
 20
0.0924092428534827
 10
0.278229795325922
 20
0.0924217875014597
 10
0.2782064040254396
 20
0.0924333228143017
 10
0.2781825318250127
 20
0.0924438268338849
 10
0.2781582241667316
 20
0.0924532795652116
 10
0.2781335273216064
 20
0.0924616630144699
 10
0.2781084883014843
 20
0.0924689612232879
 10
0.2780831547695634
 20
0.0924751602991106
 10
0.2780575749496623
 20
0.0924802484416442
 10
0.2780317975344211
 20
0.0924842159653206
 10
0.2780058715926155
 20
0.0924870553177332
 10
0.2779798464757489
 20
0.0924887610940127
 10
0.2779537717241107
 20
0.0924893300471174
 97
        0
 92
       18
 72
     0
 73
     1
 93
       76
 10
0.2774307908036477
 20
0.0922794100471174
 10
0.2779537717241107
 20
0.0922794100471174
 10
0.2779706898939532
 20
0.0922790408913381
 10
0.2779875758590981
 20
0.0922779341267096
 10
0.2780043974761504
 20
0.0922760918600212
 10
0.2780211227242064
 20
0.092273517598132
 10
0.2780377197658054
 20
0.0922702162412959
 10
0.2780541570075363
 20
0.0922661940738333
 10
0.2780704031601742
 20
0.0922614587521688
 10
0.2780864272982448
 20
0.0922560192902561
 10
0.2781021989188907
 20
0.0922498860424202
 10
0.2781176879999348
 20
0.0922430706836468
 10
0.2781328650570319
 20
0.092235586187359
 10
0.2781477011997904
 20
0.0922274468007204
 10
0.27816216818677
 20
0.0922186680175165
 10
0.2781762384792386
 20
0.0922092665486599
 10
0.2781898852935943
 20
0.0921992602903808
 10
0.2782030826523508
 20
0.0921886682901607
 10
0.2782158054335853
 20
0.0921775107104741
 10
0.278228029418761
 20
0.0921658087904081
 10
0.278239731338827
 20
0.0921535848052325
 10
0.2782508889185135
 20
0.0921408620239979
 10
0.2782614809187335
 20
0.0921276646652415
 10
0.2782714871770128
 20
0.0921140178508854
 10
0.2782808886458694
 20
0.0920999475584172
 10
0.2782896674290732
 20
0.0920854805714377
 10
0.278297806815712
 20
0.0920706444286791
 10
0.2783052913119997
 20
0.0920554673715822
 10
0.278312106670773
 20
0.0920399782905377
 10
0.2783182399186087
 20
0.0920242066698921
 10
0.2783236793805218
 20
0.0920081825318214
 10
0.2783284147021863
 20
0.0919919363791833
 10
0.2783324368696489
 20
0.0919754991374527
 10
0.2783357382264849
 20
0.0919589020958534
 10
0.2783383124883738
 20
0.0919421768477974
 10
0.2783401547550622
 20
0.0919253552307449
 10
0.278341261519691
 20
0.0919084692656005
 10
0.27834163067547
 20
0.091891551095758
 10
0.27834163067547
 20
0.0911861481112766
 10
0.2783412538286682
 20
0.0911688774668423
 10
0.278340124005611
 20
0.0911516396980613
 10
0.2783382433569814
 20
0.0911344676180064
 10
0.2783356154627005
 20
0.0911173939147075
 10
0.2783322453251149
 20
0.0911004510889297
 10
0.2783281393594731
 20
0.0910836713923044
 10
0.2783233053817137
 20
0.0910670867659383
 10
0.278317752593588
 20
0.09105072877961
 10
0.278311491565144
 20
0.0910346285716761
 10
0.2783045342146054
 20
0.0910188167897979
 10
0.2782968937856838
 20
0.0910033235326003
 10
0.2782885848223712
 20
0.0909881782923795
 10
0.2782796231412498
 20
0.0909734098989608
 10
0.2782700258013904
 20
0.0909590464648205
 10
0.2782598110718736
 20
0.0909451153315717
 10
0.2782489983970188
 20
0.0909316430179188
 10
0.2782376083593663
 20
0.0909186551691759
 10
0.2782256626405008
 20
0.0909061765084518
 10
0.2782131839797765
 20
0.0908942307895862
 10
0.2782001961310336
 20
0.0908828407519338
 10
0.2781867238173806
 20
0.0908720280770788
 10
0.2781727926841319
 20
0.0908618133475623
 10
0.2781584292499916
 20
0.0908522160077028
 10
0.278143660856573
 20
0.0908432543265816
 10
0.2781285156163524
 20
0.0908349453632684
 10
0.2781130223591548
 20
0.0908273049343473
 10
0.2780972105772765
 20
0.0908203475838086
 10
0.2780811103693426
 20
0.0908140865553647
 10
0.2780647523830146
 20
0.0908085337672392
 10
0.278048167756648
 20
0.0908036997894796
 10
0.2780313880600228
 20
0.0907995938238376
 10
0.278014445234245
 20
0.0907962236862519
 10
0.2779973715309463
 20
0.0907935957919713
 10
0.2779801994508913
 20
0.0907917151433415
 10
0.2779629616821103
 20
0.0907905853202845
 10
0.2779456910376757
 20
0.0907902084734823
 10
0.2774307908036477
 20
0.0907902084734823
 97
        0
 75
     0
 76
     1
 98
        0
  0
HATCH
  5
61
330
3F
100
AcDbEntity
 67
     1
  8
STANDARD
  6
AUSGEZOGEN
 62
   250
370
    25
100
AcDbHatch
 10
0.0
 20
0.0
 30
0.0
210
0.0
220
0.0
230
1.0
  2
SOLID
 70
     1
 71
     0
 91
        1
 92
        3
 72
     0
 73
     1
 93
       12
 10
0.2797324300906919
 20
0.0924893300471174
 10
0.2797324300906919
 20
0.0905802884734823
 10
0.2809382143853909
 20
0.0905802884734823
 10
0.2809382143853909
 20
0.0907902084734823
 10
0.2799423500906921
 20
0.0907902084734823
 10
0.2799423500906921
 20
0.0914577170802643
 10
0.2808031872445444
 20
0.0914577170802643
 10
0.2808031872445444
 20
0.0916676370802643
 10
0.2799423500906921
 20
0.0916676370802643
 10
0.2799423500906921
 20
0.0922794100471174
 10
0.2809382143853909
 20
0.0922794100471174
 10
0.2809382143853909
 20
0.0924893300471174
 97
        0
 75
     0
 76
     1
 98
        0
  0
HATCH
  5
62
330
3F
100
AcDbEntity
 67
     1
  8
STANDARD
  6
AUSGEZOGEN
 62
   250
370
    25
100
AcDbHatch
 10
0.0
 20
0.0
 30
0.0
210
0.0
220
0.0
230
1.0
  2
SOLID
 70
     1
 71
     0
 91
        1
 92
        3
 72
     0
 73
     1
 93
      400
 10
0.283096322328568
 20
0.0920096252577591
 10
0.2832834170349701
 20
0.0921048196758533
 10
0.2832693599215975
 20
0.0921310588222925
 10
0.2832542054715207
 20
0.0921566798660867
 10
0.2832379808127146
 20
0.0921816369430161
 10
0.283220714988934
 20
0.0922058853774277
 10
0.283202438907723
 20
0.0922293817622093
 10
0.283183185285087
 20
0.0922520840364923
 10
0.2831629885869273
 20
0.092273951560945
 10
0.2831418849673457
 20
0.092294945190521
 10
0.2831199122039218
 20
0.0923150273445331
 10
0.2830971096300909
 20
0.0923341620739253
 10
0.2830735180647305
 20
0.0923523151256269
 10
0.2830491797390918
 20
0.0923694540038676
 10
0.2830241382212016
 20
0.0923855480283488
 10
0.2829984383378708
 20
0.0924005683891635
 10
0.2829721260944494
 20
0.0924144881983706
 10
0.2829452485924733
 20
0.0924272825381253
 10
0.2829178539453472
 20
0.0924389285052853
 10
0.2828899911922184
 20
0.0924494052524097
 10
0.2828617102101889
 20
0.0924586940250779
 10
0.2828330616250329
 20
0.0924667781954618
 10
0.282804096720571
 20
0.0924736432920914
 10
0.2827748673468657
 20
0.0924792770257603
 10
0.2827454258274077
 20
0.0924836693115238
 10
0.282715824865448
 20
0.0924868122867534
 10
0.2826861174496562
 20
0.0924887003252102
 10
0.2826563567592654
 20
0.0924893300471174
 10
0.2824761905185599
 20
0.0924893300471174
 10
0.282456079991709
 20
0.0924888964150383
 10
0.282436006848144
 20
0.0924875963248758
 10
0.2824160084016601
 20
0.0924854321933563
 10
0.2823961218271976
 20
0.0924824080433654
 10
0.2823763840917405
 20
0.0924785294964696
 10
0.2823568318855953
 20
0.0924738037624666
 10
0.2823375015541911
 20
0.0924682396259828
 10
0.2823184290305153
 20
0.0924618474301441
 10
0.2822996497683187
 20
0.0924546390573484
 10
0.2822811986762114
 20
0.0924466279071779
 10
0.2822631100527702
 20
0.0924378288714915
 10
0.2822454175227824
 20
0.0924282583067412
 10
0.2822281539747406
 20
0.092417934003568
 10
0.2822113514997066
 20
0.0924068751537303
 10
0.2821950413316568
 20
0.0923951023144296
 10
0.2821792537894237
 20
0.092382637370096
 10
0.2821640182203339
 20
0.0923695034917077
 10
0.2821493629456563
 20
0.0923557250937193
 10
0.2821353152079555
 20
0.0923413277886762
 10
0.2821219011204514
 20
0.0923263383396057
 10
0.2821091456184755
 20
0.0923107846102666
 10
0.2820970724131219
 20
0.0922946955133529
 10
0.2820857039471687
 20
0.0922781009567491
 10
0.2820750613533597
 20
0.0922610317879347
 10
0.2820651644151213
 20
0.092243519736641
 10
0.2820560315297871
 20
0.0922255973558705
 10
0.2820476796743996
 20
0.0922072979613835
 10
0.2820401243741519
 20
0.0921886555697673
 10
0.2820333796735262
 20
0.0921697048352042
 10
0.2820274581101888
 20
0.0921504809850528
 10
0.2820223706916829
 20
0.092131019754363
 10
0.2820181268749682
 20
0.0921113573194502
 10
0.2820147345488383
 20
0.0920915302306465
 10
0.2820122000192598
 20
0.092071575344357
 10
0.2820105279976475
 20
0.0920515297545496
 10
0.2820097215921084
 20
0.092031430723799
 10
0.2820097823016625
 20
0.0920113156140214
 10
0.2820107100134577
 20
0.0919912218170227
 10
0.2820125030029783
 20
0.0919711866849895
 10
0.2820151579372516
 20
0.0919512474610575
 10
0.2820186698810428
 20
0.0919314412100791
 10
0.2820230323060302
 20
0.0919118047497249
 10
0.2820282371029383
 20
0.091892374582043
 10
0.2820342745966155
 20
0.0918731868256057
 10
0.2820411335640163
 20
0.0918542771483686
 10
0.2820488012550648
 20
0.0918356807013696
 10
0.2820572634163561
 20
0.0918174320533844
 10
0.2820665043176511
 20
0.0917995651266686
 10
0.2820765067811166
 20
0.091782113133899
 10
0.2820872522132593
 20
0.0917651085164362
 10
0.2820987206394881
 20
0.0917485828840172
 10
0.2821108907412432
 20
0.0917325669559991
 10
0.2821237398956267
 20
0.0917170905042533
 10
0.282137244217455
 20
0.0917021822978234
 10
0.2821513786036606
 20
0.0916878700494468
 10
0.2821661167799542
 20
0.0916741803640391
 10
0.2821814313496652
 20
0.0916611386892396
 10
0.2821972938446712
 20
0.091648769268106
 10
0.282213674778317
 20
0.0916370950940492
 10
0.282230543700224
 20
0.0916261378680913
 10
0.282247869252899
 20
0.0916159179585262
 10
0.2822656192300194
 20
0.0916064543630555
 10
0.2822837606363055
 20
0.0915977646734767
 10
0.2823022597488516
 20
0.0915898650429787
 10
0.2823210821798168
 20
0.0915827701561175
 10
0.2823401929403444
 20
0.0915764932015172
 10
0.2823595565056061
 20
0.0915710458473551
 10
0.2823791368808359
 20
0.0915664382196711
 10
0.28248281164947
 20
0.0915423760188166
 10
0.282585525328183
 20
0.0915144950689287
 10
0.2826871373086318
 20
0.0914828335372133
 10
0.2827875084906287
 20
0.0914474347662467
 10
0.2828865014725567
 20
0.091408347214643
 10
0.2829834967475239
 20
0.0913658365127726
 10
0.2829893508174542
 20
0.0913624757169469
 10
0.2829985401765896
 20
0.0913566631582655
 10
0.2830074721550143
 20
0.0913504623582224
 10
0.2830161303607465
 20
0.0913438846965366
 10
0.2830244989042324
 20
0.0913369422445437
 10
0.2830325624275074
 20
0.0913296477430429
 10
0.2830403061323798
 20
0.0913220145789155
 10
0.2830477158075901
 20
0.0913140567605571
 10
0.2830547778548902
 20
0.091305788892169
 10
0.2830614793139988
 20
0.0912972261469568
 10
0.2830678078863872
 20
0.0912883842392851
 10
0.2830737519578488
 20
0.0912792793958373
 10
0.2830793006198137
 20
0.0912699283258371
 10
0.2830844436893687
 20
0.0912603481903837
 10
0.2830891717279435
 20
0.0912505565709577
 10
0.2830934760586339
 20
0.0912405714371549
 10
0.2830973487821254
 20
0.0912304111137101
 10
0.2831007827911899
 20
0.0912200942468651
 10
0.2831037717837271
 20
0.0912096397701511
 10
0.2831063102743338
 20
0.0911990668696412
 10
0.2831083936043676
 20
0.0911883949487402
 10
0.2831100179504978
 20
0.0911776435925744
 10
0.283111180331721
 20
0.0911668325320509
 10
0.2831118786148348
 20
0.0911559816076461
 10
0.2831121115183474
 20
0.0911451107329938
 10
0.2831117737300362
 20
0.0911296301138596
 10
0.2831107610081017
 20
0.0911141789629634
 10
0.2831090752803184
 20
0.0910987866924496
 10
0.2831067197555642
 20
0.09108348260238
 10
0.2831036989177144
 20
0.0910682958249596
 10
0.283100018517106
 20
0.0910532552690825
 10
0.2830956855595905
 20
0.0910383895653017
 10
0.283090708293199
 20
0.0910237270113292
 10
0.2830850961924404
 20
0.0910092955181701
 10
0.2830788599402679
 20
0.0909951225569914
 10
0.2830720114077418
 20
0.0909812351068306
 10
0.2830645636314333
 20
0.0909676596032382
 10
0.2830565307886075
 20
0.090954421887957
 10
0.2830479281702374
 20
0.0909415471597304
 10
0.2830387721518961
 20
0.0909290599263353
 10
0.2830290801625849
 20
0.0909169839579301
 10
0.2830188706515565
 20
0.0909053422418073
 10
0.2830081630531947
 20
0.0908941569386349
 10
0.2829969777500222
 20
0.0908834493402733
 10
0.2829853360338996
 20
0.0908732398292448
 10
0.2829732600654945
 20
0.0908635478399336
 10
0.2829607728320992
 20
0.0908543918215923
 10
0.2829478981038726
 20
0.0908457892032222
 10
0.2829346603885915
 20
0.0908377563603963
 10
0.2829210848849991
 20
0.0908303085840876
 10
0.2829071974348381
 20
0.0908234600515617
 10
0.2828930244736596
 20
0.0908172237993891
 10
0.2828785929805002
 20
0.0908116116986305
 10
0.282863930426528
 20
0.0908066344322389
 10
0.2828490647227469
 20
0.0908023014747234
 10
0.2828340241668699
 20
0.0907986210741149
 10
0.2828188373894496
 20
0.0907956002362653
 10
0.2828035332993799
 20
0.0907932447115111
 10
0.2827881410288661
 20
0.0907915589837277
 10
0.2827726898779699
 20
0.0907905462617933
 10
0.2827572092588356
 20
0.0907902084734823
 10
0.2824731936452212
 20
0.0907902084734823
 10
0.282458793327042
 20
0.0907905226895428
 10
0.2824444204206869
 20
0.0907914647395961
 10
0.2824301022858002
 20
0.0907930328303963
 10
0.2824158661777652
 20
0.0907952239769933
 10
0.2824017391958229
 20
0.0907980340084153
 10
0.2823877482314862
 20
0.0908014575756079
 10
0.2823739199173508
 20
0.0908054881616159
 10
0.2823602805763988
 20
0.0908101180939903
 10
0.2823468561718913
 20
0.0908153385593911
 10
0.2823336722579443
 20
0.090821139620366
 10
0.2823207539308881
 20
0.090827510234266
 10
0.2823081257814922
 20
0.0908344382742649
 10
0.2822958118481565
 20
0.0908419105524449
 10
0.2822838355711536
 20
0.0908499128449003
 10
0.2822722197480068
 20
0.0908584299188119
 10
0.2822609864900963
 20
0.090867445561446
 10
0.2822501571805663
 20
0.0908769426110142
 10
0.2822397524336236
 20
0.0908869029893427
 10
0.282229792055295
 20
0.0908973077362855
 10
0.2822202950057269
 20
0.0909081370458155
 10
0.2822112793630928
 20
0.0909193703037261
 10
0.2822027622891812
 20
0.0909309861268728
 10
0.2821947599967259
 20
0.0909429624038756
 10
0.2821872877185455
 20
0.0909552763372113
 10
0.2821803596785469
 20
0.0909679044866071
 10
0.282173989064647
 20
0.0909808228136635
 10
0.2821681880036722
 20
0.0909940067276102
 10
0.2821629675382714
 20
0.0910074311321181
 10
0.282158337605897
 20
0.0910210704730699
 10
0.2821543070198886
 20
0.0910348987872053
 10
0.2821508834526965
 20
0.0910488897515419
 10
0.2821480734212744
 20
0.0910630167334844
 10
0.2821458822746769
 20
0.0910772528415194
 10
0.2821443141838766
 20
0.0910915709764061
 10
0.2821433721338235
 20
0.0911059438827609
 10
0.2821430579177635
 20
0.0911203442009401
 10
0.2819331379177633
 20
0.0911203442009401
 10
0.2819336519311492
 20
0.0910967873009654
 10
0.2819351929928535
 20
0.0910732752428884
 10
0.2819377581693776
 20
0.0910498527832484
 10
0.2819413425777618
 20
0.0910265645080284
 10
0.2819459393948817
 20
0.091003454747784
 10
0.2819515398704343
 20
0.0909805674932575
 10
0.2819581333435959
 20
0.0909579463116382
 10
0.2819657072633159
 20
0.0909356342636313
 10
0.281974247212207
 20
0.0909136738214881
 10
0.2819837369339923
 20
0.0908921067881587
 10
0.2819941583644461
 20
0.0908709742177168
 10
0.2820054916657831
 20
0.0908503163372113
 10
0.2820177152644212
 20
0.0908301724700915
 10
0.282030805892044
 20
0.090810580961354
 10
0.2820447386298989
 20
0.0907915791045486
 10
0.2820594869562274
 20
0.09077320307079
 10
0.2820750227967521
 20
0.0907554878399029
 10
0.2820913165781173
 20
0.0907384671338361
 10
0.2821083372841837
 20
0.0907221733524709
 10
0.282126052515071
 20
0.0907066375119464
 10
0.2821444285488297
 20
0.090691889185618
 10
0.2821634304056346
 20
0.0906779564477631
 10
0.2821830219143727
 20
0.0906648658201399
 10
0.2822031657814921
 20
0.0906526422215023
 10
0.2822238236619976
 20
0.090641308920165
 10
0.2822449562324397
 20
0.0906308874897114
 10
0.2822665232657691
 20
0.0906213977679265
 10
0.2822884837079118
 20
0.0906128578190348
 10
0.2823107957559189
 20
0.0906052838993148
 10
0.2823334169375382
 20
0.0905986904261534
 10
0.2823563041920652
 20
0.0905930899506009
 10
0.2823794139523094
 20
0.0905884931334811
 10
0.2824027022275295
 20
0.0905849087250966
 10
0.2824261246871696
 20
0.0905823435485725
 10
0.2824496367452463
 20
0.0905808024868683
 10
0.2824731936452212
 20
0.0905802884734823
 10
0.2827572092588356
 20
0.0905802884734823
 10
0.2827818464597658
 20
0.090580826059119
 10
0.2828064367623834
 20
0.0905824377927042
 10
0.2828309333576506
 20
0.0905851206062116
 10
0.2828552896149056
 20
0.0905888693927528
 10
0.2828794591706279
 20
0.0905936770163003
 10
0.2829033960166947
 20
0.0905995343252686
 10
0.2829270545879601
 20
0.0906064301699378
 10
0.2829503898489871
 20
0.0906143514236753
 10
0.2829733573797817
 20
0.0906232830079244
 10
0.2829959134603426
 20
0.0906332079209068
 10
0.2830180151538891
 20
0.0906441072699869
 10
0.2830396203885914
 20
0.090655960307634
 10
0.283060688037657
 20
0.0906687444709171
 10
0.2830811779976178
 20
0.0906824354244551
 10
0.2831010512646715
 20
0.0906970071067397
 10
0.2831202700089249
 20
0.0907124317797453
 10
0.2831387976464048
 20
0.0907286800817301
 10
0.2831565989087012
 20
0.0907457210831282
 10
0.2831736399100994
 20
0.0907635223454246
 10
0.2831898882120844
 20
0.0907820499829048
 10
0.28320531288509
 20
0.0908012687271576
 10
0.2832198845673745
 20
0.0908211419942115
 10
0.2832335755209124
 20
0.0908416319541728
 10
0.2832463596841957
 20
0.0908626996032381
 10
0.2832582127218426
 20
0.0908843048379401
 10
0.2832691120709224
 20
0.0909064065314867
 10
0.2832790369839052
 20
0.0909289626120478
 10
0.2832879685681544
 20
0.0909519301428423
 10
0.2832958898218916
 20
0.0909752654038697
 10
0.2833027856665609
 20
0.0909989239751347
 10
0.2833086429755292
 20
0.0910228608212017
 10
0.2833134505990763
 20
0.0910470303769241
 10
0.283317199385618
 20
0.0910713866341788
 10
0.2833198821991255
 20
0.091095883229446
 10
0.2833214939327105
 20
0.0911204735320638
 10
0.2833220315183471
 20
0.0911451107329941
 10
0.2833215912040394
 20
0.0911653143709293
 10
0.2833202710972637
 20
0.091185479642577
 10
0.2833180737048748
 20
0.0912055682545053
 10
0.283315003199676
 20
0.0912255420588586
 10
0.2833110654124921
 20
0.0912453631257981
 10
0.2833062678210994
 20
0.0912649938155299
 10
0.2833006195360242
 20
0.091284396849783
 10
0.283294131283242
 20
0.0913035353825992
 10
0.2832868153838099
 20
0.0913223730703027
 10
0.2832786857304684
 20
0.0913408741405169
 10
0.2832697577612604
 20
0.0913590034600941
 10
0.2832600484302132
 20
0.0913767266018343
 10
0.2832495761751452
 20
0.0913940099098599
 10
0.2832383608826498
 20
0.0914108205635286
 10
0.2832264238503349
 20
0.091427126639759
 10
0.2832137877463762
 20
0.0914428971736515
 10
0.2832004765664717
 20
0.0914581022172909
 10
0.2831865155882751
 20
0.0914727128966152
 10
0.2831719313233938
 20
0.0914867014662488
 10
0.2831567514670436
 20
0.0915000413621892
 10
0.2831410048454551
 20
0.0915127072522515
 10
0.283124721361135
 20
0.0915246750841737
 10
0.2831079319360817
 20
0.0915359221312927
 10
0.2830906684530634
 20
0.0915464270356995
 10
0.2830779161121815
 20
0.0915534445658962
 10
0.2829732545176816
 20
0.0915996075099905
 10
0.2828658975674587
 20
0.0916422353757085
 10
0.282757020750162
 20
0.0916808163082028
 10
0.282646776558248
 20
0.0917152962711661
 10
0.2825353193993117
 20
0.091745626972093
 10
0.2824228053798273
 20
0.0917717659299192
 10
0.282412035035999
 20
0.0917743003928092
 10
0.2824013839502483
 20
0.0917772967540431
 10
0.2823908719217865
 20
0.0917807494437105
 10
0.2823805184913338
 20
0.0917846520436363
 10
0.2823703429047935
 20
0.0917889972993109
 10
0.2823603640774761
 20
0.0917937771333758
 10
0.2823506005589381
 20
0.0917989826606382
 10
0.2823410704985014
 20
0.0918046042045882
 10
0.2823317916115122
 20
0.0918106313153858
 10
0.2823227811464158
 20
0.0918170527892867
 10
0.2823140558526873
 20
0.0918238566894675
 10
0.2823056319497009
 20
0.0918310303682167
 10
0.282297525096578
 20
0.0918385604904441
 10
0.2822897503630781
 20
0.0918464330584702
 10
0.2822823222015872
 20
0.0918546334380457
 10
0.2822752544202507
 20
0.0918631463855551
 10
0.2822685601573069
 20
0.0918719560763532
 10
0.2822622518566638
 20
0.0918810461341809
 10
0.2822563412447675
 20
0.0918903996616082
 10
0.282250839308804
 20
0.0918999992714424
 10
0.282245756276275
 20
0.0919098271190514
 10
0.2822411015959857
 20
0.0919198649355333
 10
0.2822368839204817
 20
0.091930094061677
 10
0.2822331110899643
 20
0.0919404954826472
 10
0.2822297901177153
 20
0.0919510498633321
 10
0.2822269271770614
 20
0.0919617375842834
 10
0.2822245275898992
 20
0.0919725387781882
 10
0.2822225958168001
 20
0.0919834333667996
 10
0.2822211354487211
 20
0.0919944010982601
 10
0.2822201492003275
 20
0.0920054215847477
 10
0.2822196389049475
 20
0.0920164743403744
 10
0.282219605511166
 20
0.0920275388192674
 10
0.282220049081058
 20
0.0920385944537616
 10
0.282220968790075
 20
0.0920496206926328
 10
0.2822223629285776
 20
0.0920605970392997
 10
0.282224228905014
 20
0.0920715030899257
 10
0.2822265632507366
 20
0.0920823185713464
 10
0.28222936162645
 20
0.0920930233787566
 10
0.2822326188302775
 20
0.0921035976130809
 10
0.2822363288074312
 20
0.0921140216179655
 10
0.2822404846614658
 20
0.0921242760163177
 10
0.2822450786670997
 20
0.0921343417463235
 10
0.282250102284576
 20
0.0921442000968839
 10
0.2822555461755344
 20
0.0921538327423953
 10
0.2822614002203729
 20
0.0921632217768157
 10
0.2822676535370577
 20
0.0921723497469494
 10
0.2822742945013517
 20
0.0921811996848903
 10
0.2822813107684235
 20
0.0921897551395653
 10
0.2822886892957946
 20
0.0921980002073125
 10
0.2822964163675828
 20
0.0922059195614461
 10
0.2823044776200015
 20
0.0922134984807468
 10
0.2823128580680568
 20
0.0922207228768258
 10
0.2823215421334062
 20
0.0922275793203157
 10
0.2823305136733141
 20
0.0922340550658322
 10
0.2823397560106626
 20
0.0922401380756672
 10
0.2823492519649499
 20
0.092245817042166
 10
0.2823589838842274
 20
0.0922510814087465
 10
0.282368933677914
 20
0.0922559213895226
 10
0.2823790828504234
 20
0.0922603279874953
 10
0.2823894125355455
 20
0.0922642930112777
 10
0.2823999035315171
 20
0.0922678090903209
 10
0.282410536336716
 20
0.0922708696886154
 10
0.2824212911859116
 20
0.0922734691168417
 10
0.282432148087006
 20
0.0922756025429449
 10
0.2824430868582001
 20
0.092277266001117
 10
0.2824540871655047
 20
0.0922784563991701
 10
0.2824651285605427
 20
0.0922791715242838
 10
0.2824761905185599
 20
0.0922794100471174
 10
0.2826563567592654
 20
0.0922794100471174
 10
0.2826772378126473
 20
0.0922789682140622
 10
0.2826980814868645
 20
0.0922776435058217
 10
0.2827188504696642
 20
0.0922754382937556
 10
0.2827395075824992
 20
0.0922723565254131
 10
0.2827600158470802
 20
0.0922684037174664
 10
0.2827803385515718
 20
0.0922635869458352
 10
0.2828004393163088
 20
0.0922579148330206
 10
0.2828202821589209
 20
0.0922513975326694
 10
0.2828398315587432
 20
0.0922440467113981
 10
0.2828590525204047
 20
0.0922358755279088
 10
0.2828779106364684
 20
0.0922268986094339
 10
0.28289637214903
 20
0.0922171320255507
 10
0.2829144040101426
 20
0.0922065932594176
 10
0.2829319739409791
 20
0.0921953011764753
 10
0.2829490504896146
 20
0.0921832759906766
 10
0.2829656030873263
 20
0.0921705392283014
 10
0.282981602103315
 20
0.092157113689423
 10
0.2829970188977502
 20
0.0921430234070929
 10
0.2830118258730336
 20
0.0921282936043196
 10
0.2830259965232059
 20
0.0921129506489166
 10
0.2830395054813913
 20
0.0920970220063021
 10
0.2830523285652096
 20
0.0920805361903328
 10
0.2830644428200643
 20
0.0920635227122607
 10
0.2830758265602323
 20
0.0920460120279058
 10
0.2830864594076857
 20
0.0920280354831369
 97
        0
 75
     0
 76
     1
 98
        0
  0
HATCH
  5
63
330
3F
100
AcDbEntity
 67
     1
  8
STANDARD
  6
AUSGEZOGEN
 62
   250
370
    25
100
AcDbHatch
 10
0.0
 20
0.0
 30
0.0
210
0.0
220
0.0
230
1.0
  2
SOLID
 70
     1
 71
     0
 91
        1
 92
        3
 72
     0
 73
     1
 93
        4
 10
0.2844268013828439
 20
0.0924893300471174
 10
0.2844268013828439
 20
0.0905802884734823
 10
0.2846367213828438
 20
0.0905802884734823
 10
0.2846367213828438
 20
0.0924893300471174
 97
        0
 75
     0
 76
     1
 98
        0
  0
HATCH
  5
64
330
3F
100
AcDbEntity
 67
     1
  8
STANDARD
  6
AUSGEZOGEN
 62
   250
370
    25
100
AcDbHatch
 10
0.0
 20
0.0
 30
0.0
210
0.0
220
0.0
230
1.0
  2
SOLID
 70
     1
 71
     0
 91
        1
 92
        3
 72
     0
 73
     1
 93
      237
 10
0.2869549842471712
 20
0.092054520625635
 10
0.2871252610771842
 20
0.0921772895449947
 10
0.2871056180028476
 20
0.0922033240297531
 10
0.2870848640071769
 20
0.0922284818601395
 10
0.2870630381665518
 20
0.0922527156680749
 10
0.2870401815754598
 20
0.0922759798252634
 10
0.2870163372691222
 20
0.0922982305291022
 10
0.2869915501424679
 20
0.0923194258851564
 10
0.2869658668656012
 20
0.0923395259860374
 10
0.2869393357959309
 20
0.0923584929865435
 10
0.2869120068871218
 20
0.0923762911749155
 10
0.2868839315950374
 20
0.0923928870400765
 10
0.2868551627808613
 20
0.0924082493347267
 10
0.2868257546115632
 20
0.0924223491341786
 10
0.2867957624579158
 20
0.0924351598908164
 10
0.2867652427902382
 20
0.0924466574840811
 10
0.2867342530720714
 20
0.0924568202658852
 10
0.2867028516519861
 20
0.0924656291013733
 10
0.2866710976537186
 20
0.0924730674049488
 10
0.2866390508648538
 20
0.0924791211715033
 10
0.2866067716242527
 20
0.0924837790027844
 10
0.2865743207084445
 20
0.0924870321288582
 10
0.2865417592171955
 20
0.0924888744246199
 10
0.2865091484584666
 20
0.0924893024213281
 10
0.2864765498329823
 20
0.092488315313135
 10
0.2864440247186218
 20
0.0924859149586042
 10
0.2864116343548549
 20
0.0924821058772102
 10
0.2863794397274371
 20
0.0924768952408304
 10
0.2863475014535859
 20
0.0924702928602407
 10
0.2863158796678463
 20
0.0924623111666435
 10
0.286284633908868
 20
0.0924529651882621
 10
0.2862538230073036
 20
0.0924422725220453
 10
0.2862235049750403
 20
0.0924302533005343
 10
0.286193736895974
 20
0.0924169301539568
 10
0.2861645748185269
 20
0.0924023281676186
 10
0.2861360736501213
 20
0.0923864748346711
 10
0.2861082870537943
 20
0.0923694000043468
 10
0.2860812673471615
 20
0.0923511358257582
 10
0.2860550654039103
 20
0.0923317166873657
 10
0.286029730558014
 20
0.0923111791522302
 10
0.2860053105108424
 20
0.0922895618891707
 10
0.2859818512413497
 20
0.0922669055999575
 10
0.285959396919503
 20
0.0922432529426766
 10
0.2859379898231171
 20
0.0922186484514124
 10
0.2859176702582527
 20
0.0921931384523972
 10
0.2858984764833261
 20
0.0921667709767863
 10
0.2858804446370757
 20
0.0921395956702223
 10
0.285863608670518
 20
0.0921116636993623
 10
0.2858480002830247
 20
0.0920830276555383
 10
0.2858336488626355
 20
0.092053741455736
 10
0.2858205814307273
 20
0.0920238602410792
 10
0.2858088225911373
 20
0.0919934402730067
 10
0.2857983944838363
 20
0.0919625388273422
 10
0.2857893167432442
 20
0.0919312140864527
 10
0.2857816064612623
 20
0.0918995250297012
 10
0.2857752781550901
 20
0.0918675313223977
 10
0.2857703437398926
 20
0.0918352932034591
 10
0.2857668125063665
 20
0.0918028713719898
 10
0.2857646911032471
 20
0.0917703268729945
 10
0.2857639835247886
 20
0.0917377209824415
 10
0.2857639835247886
 20
0.0913168244550428
 10
0.2857646839682924
 20
0.0912847103916719
 10
0.2857667839665646
 20
0.0912526574090567
 10
0.2857702795254212
 20
0.0912207264717767
 10
0.2857751639963305
 20
0.0911889783122834
 10
0.2857814280890576
 20
0.0911574733153847
 10
0.2857890598893358
 20
0.0911262714033951
 10
0.2857980448815275
 20
0.091095431922164
 10
0.2858083659762305
 20
0.0910650135281992
 10
0.2858200035427865
 20
0.0910350740771028
 10
0.285832935446612
 20
0.0910056705135311
 10
0.2858471370913052
 20
0.0909768587628847
 10
0.2858625814654224
 20
0.0909486936249407
 10
0.2858792391938571
 20
0.0909212286696217
 10
0.2858970785937102
 20
0.0908945161351076
 10
0.2859160657345504
 20
0.0908686068284782
 10
0.2859361645029497
 20
0.0908435500290793
 10
0.2859573366711715
 20
0.0908193933947928
 10
0.2859795419698796
 20
0.0907961828713912
 10
0.2860027381647291
 20
0.090773962605151
 10
0.2860268811366966
 20
0.0907527748588846
 10
0.2860519249659954
 20
0.0907326599315581
 10
0.2860778220194121
 20
0.0907136560816426
 10
0.286104523040907
 20
0.0906957994543459
 10
0.2861319772452978
 20
0.0906791240128659
 10
0.2861601324148529
 20
0.0906636614737924
 10
0.2861889349986092
 20
0.0906494412467811
 10
0.2862183302142252
 20
0.0906364903786187
 10
0.2862482621521783
 20
0.0906248335017782
 10
0.2862786738821017
 20
0.0906144927875697
 10
0.2863095075610687
 20
0.0906054879039692
 10
0.2863407045436064
 20
0.090597835978211
 10
0.2863722054932427
 20
0.0905915515642123
 10
0.28640395049536
 20
0.0905866466148901
 10
0.2864358791711554
 20
0.0905831304594293
 10
0.2864679307924801
 20
0.0905810097855359
 10
0.2865000443973422
 20
0.0905802886267189
 10
0.2865321589058588
 20
0.0905809683546183
 10
0.2865642132364279
 20
0.0905830476763956
 10
0.2865961464219056
 20
0.0905865226371932
 10
0.2866278977255646
 20
0.0905913866276567
 10
0.2866594067566168
 20
0.0905976303965052
 10
0.2866906135850744
 20
0.0906052420681284
 10
0.2867214588557372
 20
0.0906142071651722
 10
0.2867518839010866
 20
0.0906245086360761
 10
0.2867818308528686
 20
0.0906361268875043
 10
0.2868112427521612
 20
0.0906490398216127
 10
0.2868400636577087
 20
0.0906632228780782
 10
0.2868682387523225
 20
0.0906786490808124
 10
0.2868957144471417
 20
0.0906952890892707
 10
0.2869224384835595
 20
0.0907131112542572
 10
0.2869483600326203
 20
0.090732081678121
 10
0.2869483600326203
 20
0.0905802884734823
 10
0.2871582800326205
 20
0.0905802884734823
 10
0.2871582800326205
 20
0.0916067373401985
 10
0.2864863362929916
 20
0.0916067373401985
 10
0.2864863362929916
 20
0.0913968173401984
 10
0.2869483600326203
 20
0.0913968173401984
 10
0.2869483600326203
 20
0.0910397626296971
 10
0.286935998753371
 20
0.0910207126223712
 10
0.2869228276701604
 20
0.0910022132556023
 10
0.2869088712755334
 20
0.09098429893025
 10
0.2868941555223785
 20
0.0909670029592489
 10
0.2868787077756615
 20
0.0909503575056604
 10
0.2868625567615422
 20
0.090934393522864
 10
0.2868457325139558
 20
0.0909191406969961
 10
0.2868282663187613
 20
0.0909046273917482
 10
0.2868101906555637
 20
0.090890880595621
 10
0.2867915391373163
 20
0.0908779258717384
 10
0.2867723464478159
 20
0.0908657873103109
 10
0.2867526482772028
 20
0.0908544874838381
 10
0.2867324812555969
 20
0.0908440474051338
 10
0.2867118828849783
 20
0.0908344864882505
 10
0.2866908914694495
 20
0.0908258225123785
 10
0.2866695460440093
 20
0.0908180715887839
 10
0.2866478863019613
 20
0.0908112481308484
 10
0.286625952521102
 20
0.0908053648272667
 10
0.2866037854888242
 20
0.0908004326184513
 10
0.2865814264262668
 20
0.0907964606761877
 10
0.2865589169116617
 20
0.0907934563865788
 10
0.2865362988030186
 20
0.0907914253363105
 10
0.2865136141602834
 20
0.0907903713022616
 10
0.2864909051671277
 20
0.0907902962444821
 10
0.2864682140525052
 20
0.0907912003025471
 10
0.286445583012122
 20
0.0907930817952976
 10
0.2864230541299725
 20
0.0907959372239671
 10
0.2864006693000804
 20
0.0907997612786872
 10
0.2863784701485944
 20
0.090804546848362
 10
0.2863564979563822
 20
0.0908102850338918
 10
0.286334793582263
 20
0.0908169651647215
 10
0.286313397387031
 20
0.0908245748186826
 10
0.286292349158401
 20
0.0908330998450942
 10
0.2862716880370169
 20
0.0908425243910766
 10
0.2862514524436736
 20
0.0908528309310309
 10
0.2862316800078634
 20
0.0908640002992286
 10
0.2862124074978071
 20
0.0908760117254527
 10
0.2861936707520781
 20
0.0908888428736198
 10
0.2861755046129595
 20
0.0909024698833175
 10
0.2861579428616493
 20
0.0909168674141732
 10
0.2861410181554478
 20
0.0909320086929761
 10
0.2861247619670232
 20
0.0909478655634647
 10
0.2861092045258887
 20
0.0909644085386854
 10
0.286094374762189
 20
0.0909816068558243
 10
0.2860803002529013
 20
0.090999428533414
 10
0.2860670071705552
 20
0.0910178404308051
 10
0.2860545202345623
 20
0.0910368083097933
 10
0.2860428626652485
 20
0.0910562968982877
 10
0.2860320561406759
 20
0.0910762699559017
 10
0.2860221207563282
 20
0.0910966903413453
 10
0.2860130749877442
 20
0.0911175200814908
 10
0.2860049356561601
 20
0.0911387204419868
 10
0.2859977178972291
 20
0.091160251999288
 10
0.2859914351328762
 20
0.0911820747139652
 10
0.2859860990463391
 20
0.0912041480051622
 10
0.2859817195604417
 20
0.0912264308260581
 10
0.2859783048191428
 20
0.0912488817401968
 10
0.2859758611723915
 20
0.0912714589985413
 10
0.2859743931643194
 20
0.0912941206171088
 10
0.2859739035247891
 20
0.0913168244550428
 10
0.2859739035247891
 20
0.0917377209824415
 10
0.2859744134807368
 20
0.0917612202391518
 10
0.2859759423884174
 20
0.091784675250606
 10
0.2859784873691467
 20
0.0918080418548542
 10
0.2859820436311435
 20
0.0918312760564034
 10
0.2859866044785478
 20
0.0918543341090522
 10
0.2859921613240294
 20
0.0918771725982602
 10
0.2859987037049581
 20
0.0918997485228879
 10
0.2860062193031005
 20
0.0919220193761624
 10
0.286014693967815
 20
0.0919439432257103
 10
0.2860241117426934
 20
0.0919654787925088
 10
0.2860344548956075
 20
0.0919865855286093
 10
0.2860457039520916
 20
0.0920072236934799
 10
0.2860578377320123
 20
0.0920273544288326
 10
0.2860708333894479
 20
0.0920469398317858
 10
0.2860846664557005
 20
0.0920659430262294
 10
0.2860993108853693
 20
0.0920843282322572
 10
0.2861147391053891
 20
0.0921020608335337
 10
0.2861309220669451
 20
0.0921191074424713
 10
0.2861478293001686
 20
0.0921354359630943
 10
0.2861654289715052
 20
0.0921510156514694
 10
0.286183687943652
 20
0.0921658171735918
 10
0.2862025718379522
 20
0.092179812660617
 10
0.286222045099122
 20
0.0921929757613323
 10
0.2862420710621952
 20
0.0922052816917721
 10
0.2862626120215602
 20
0.0922167072818825
 10
0.2862836293019503
 20
0.0922272310191466
 10
0.2863050833312653
 20
0.0922368330890888
 10
0.2863269337150766
 20
0.0922454954125816
 10
0.2863491393126872
 20
0.0922532016798875
 10
0.2863716583145877
 20
0.0922599373813654
 10
0.2863944483211824
 20
0.0922656898347915
 10
0.2864174664226168
 20
0.0922704482092371
 10
0.2864406692795717
 20
0.0922742035454611
 10
0.2864640132048623
 20
0.0922769487727801
 10
0.2864874542456968
 20
0.0922786787223802
 10
0.2865109482664288
 20
0.0922793901370489
 10
0.286534451031662
 20
0.0922790816773091
 10
0.2865579182895333
 20
0.0922777539239398
 10
0.2865813058550353
 20
0.0922754093768834
 10
0.2866045696932081
 20
0.0922720524505388
 10
0.2866276660020496
 20
0.0922676894654488
 10
0.2866505512949892
 20
0.0922623286364008
 10
0.2866731824827636
 20
0.0922559800569588
 10
0.2866955169545487
 20
0.0922486556804596
 10
0.286717512658187
 20
0.0922403692975056
 10
0.2867391281793674
 20
0.0922311365100006
 10
0.2867603228195991
 20
0.0922209747017731
 10
0.2867810566728421
 20
0.0922099030058457
 10
0.2868012907006423
 20
0.0921979422684105
 10
0.2868209868056353
 20
0.0921851150095797
 10
0.2868401079032777
 20
0.0921714453809832
 10
0.2868586179916699
 20
0.0921569591202956
 10
0.2868764822193443
 20
0.0921416835027758
 10
0.2868936669508824
 20
0.0921256472899127
 10
0.2869101398302452
 20
0.0921088806752721
 10
0.2869258698416959
 20
0.0920914152276466
 10
0.2869408273681963
 20
0.0920732838316165
 97
        0
 75
     0
 76
     1
 98
        0
  0
HATCH
  5
65
330
3F
100
AcDbEntity
 67
     1
  8
STANDARD
  6
AUSGEZOGEN
 62
   250
370
    25
100
AcDbHatch
 10
0.0
 20
0.0
 30
0.0
210
0.0
220
0.0
230
1.0
  2
SOLID
 70
     1
 71
     0
 91
        1
 92
        3
 72
     0
 73
     1
 93
       10
 10
0.2883402697120275
 20
0.0924893300471174
 10
0.2883402697120275
 20
0.0905802884734823
 10
0.2885501897120278
 20
0.0905802884734823
 10
0.2885501897120278
 20
0.0921118891322595
 10
0.2894344597646634
 20
0.0905802884734823
 10
0.2896443797646637
 20
0.0905802884734823
 10
0.2896443797646637
 20
0.0924893300471174
 10
0.2894344597646634
 20
0.0924893300471174
 10
0.2894344597646634
 20
0.0909577293883403
 10
0.2885501897120278
 20
0.0924893300471174
 97
        0
 75
     0
 76
     1
 98
        0
  0
MTEXT
  5
88
330
3F
100
AcDbEntity
 67
     1
  8
STANDARD
  6
AUSGEZOGEN
 62
     7
370
    25
100
AcDbMText
 10
0.290246
 20
0.009074
 30
0.0
 40
0.000962
 41
0.05564
 71
     3
 72
     5
  3
{\fCalibri|i0|b0;\H0.000962;\W0.987654;\C7;Diese Zeichnung ist urheberrechtlich geschützt und darf ohne unsere Genehmigung weder}\P{\fCalibri|i0|b0;\H0.000962;\W0.987654;\C7;vervielfältigt noch auf irgendwelche Art kopiert oder Dritten zugänglich ge
  1
macht werden!}\P
  7
ARIAL
 73
     1
 44
1.084337
  0
MTEXT
  5
89
330
3F
100
AcDbEntity
 67
     1
  8
STANDARD
  6
AUSGEZOGEN
 62
    94
370
    25
100
AcDbMText
 10
0.213361
 20
0.141398
 30
0.0
 40
0.0025
 41
0.022292
 71
     7
 72
     5
  1
{\L\fCalibri|i0|b0;\H0.002500;\W1.000000;\C94;Farblegende:\l}\P
  7
CALIBRI
 73
     1
 44
1.0
  0
MTEXT
  5
8A
330
3F
100
AcDbEntity
 67
     1
  8
STANDARD
  6
AUSGEZOGEN
 62
     7
370
    25
100
AcDbMText
 10
0.213361
 20
0.134232
 30
0.0
 40
0.002
 41
0.035033
 71
     7
 72
     5
  1
{\fCalibri|i0|b0;\H0.002000;\W1.000000;\C7;Nature Look       betongrau}\P
  7
CALIBRI
 73
     1
 44
1.0
  0
MTEXT
  5
8B
330
3F
100
AcDbEntity
 67
     1
  8
STANDARD
  6
AUSGEZOGEN
 62
     7
370
    25
100
AcDbMText
 10
0.213361
 20
0.129482
 30
0.0
 40
0.002
 41
0.036133
 71
     7
 72
     5
  1
{\fCalibri|i0|b0;\H0.002000;\W1.000000;\C7;Nature Look       dunkelgrau}\P
  7
CALIBRI
 73
     1
 44
1.0
  0
MTEXT
  5
8C
330
3F
100
AcDbEntity
 67
     1
  8
STANDARD
  6
AUSGEZOGEN
 62
     7
370
    25
100
AcDbMText
 10
0.213361
 20
0.124732
 30
0.0
 40
0.002
 41
0.036667
 71
     7
 72
     5
  1
{\fCalibri|i0|b0;\H0.002000;\W1.000000;\C7;Nature Look       creme weiß}\P
  7
CALIBRI
 73
     1
 44
1.0
  0
MTEXT
  5
8D
330
3F
100
AcDbEntity
 67
     1
  8
STANDARD
  6
AUSGEZOGEN
 62
     7
370
    25
100
AcDbMText
 10
0.213361
 20
0.115232
 30
0.0
 40
0.002
 41
0.020667
 71
     7
 72
     5
  1
{\fCalibri|i0|b0;\H0.002000;\W1.000000;\C7;Smooth Look    }\P
  7
CALIBRI
 73
     1
 44
1.0
  0
MTEXT
  5
8E
330
3F
100
AcDbEntity
 67
     1
  8
STANDARD
  6
AUSGEZOGEN
 62
     7
370
    25
100
AcDbMText
 10
0.234085
 20
0.11525
 30
0.0
 40
0.002
 41
0.018333
 71
     7
 72
     5
  1
{\fCalibri|i0|b0;\H0.002000;\W1.000000;\C7;nach RAL Ton}\P
  7
CALIBRI
 73
     1
 44
1.0
  0
MTEXT
  5
8F
330
3F
100
AcDbEntity
 67
     1
  8
STANDARD
  6
AUSGEZOGEN
 62
     7
370
    25
100
AcDbMText
 10
0.213361
 20
0.119982
 30
0.0
 40
0.002
 41
0.0332
 71
     7
 72
     5
  1
{\fCalibri|i0|b0;\H0.002000;\W1.000000;\C7;Nature Look       anthrazit}\P
  7
CALIBRI
 73
     1
 44
1.0
  0
MTEXT
  5
90
330
3F
100
AcDbEntity
 67
     1
  8
STANDARD
  6
AUSGEZOGEN
 62
     7
370
    25
100
AcDbMText
 10
0.289959
 20
0.071141
 30
0.0
 40
0.003257
 41
0.04734
 71
     9
 72
     5
  1
{\fCalibri|i0|b0;\H0.003257;\W1.000000;\C7;Projekt: Urban Design}\P
  7
CALIBRI
 73
     1
 44
1.0
  0
MTEXT
  5
91
330
3F
100
AcDbEntity
 67
     1
  8
STANDARD
  6
AUSGEZOGEN
 62
     7
370
    25
100
AcDbMText
 10
0.290313
 20
0.082368
 30
0.0
 40
0.0015
 41
0.005481
 71
     9
 72
     5
  1
{\fCalibri|i0|b0;\H0.001500;\W0.987654;\C7;2015}\P
  7
CALIBRI
 73
     1
 44
1.0
  0
MTEXT
  5
92
330
3F
100
AcDbEntity
 67
     1
  8
STANDARD
  6
AUSGEZOGEN
 62
     7
370
    25
100
AcDbMText
 10
0.282976
 20
0.082368
 30
0.0
 40
0.001503
 41
0.00683
 71
     9
 72
     5
  1
{\fCalibri|i0|b0;\H0.001500;\W0.987654;\C7;Stand:}\P
  7
CALIBRI
 73
     1
 44
1.0
  0
MTEXT
  5
93
330
3F
100
AcDbEntity
 67
     1
  8
STANDARD
  6
AUSGEZOGEN
 62
     7
370
    25
100
AcDbMText
 10
0.289959
 20
0.040507
 30
0.0
 40
0.001503
 41
0.036551
 71
     9
 72
     5
  1
{\fCalibri|i0|b0;\H0.001503;\W0.987654;\C7;Ihre Ansprechpartner bei Rückfragen:}\P
  7
CALIBRI
 73
     1
 44
1.0
  0
MTEXT
  5
94
330
3F
100
AcDbEntity
 67
     1
  8
STANDARD
  6
AUSGEZOGEN
 62
     7
370
    25
100
AcDbMText
 10
0.282976
 20
0.053118
 30
0.0
 40
0.001503
 41
0.009775
 71
     9
 72
     5
  1
{\fCalibri|i0|b0;\H0.001503;\W0.987654;\C7;Maßstab:}\P
  7
CALIBRI
 73
     1
 44
1.0
  0
MTEXT
  5
95
330
3F
100
AcDbEntity
 67
     1
  8
STANDARD
  6
AUSGEZOGEN
 62
     7
370
    25
100
AcDbMText
 10
0.28295
 20
0.050205
 30
0.0
 40
0.001503
 41
0.014922
 71
     9
 72
     5
  1
{\fCalibri|i0|b0;\H0.001503;\W0.987654;\C7;Plannnummer:}\P
  7
CALIBRI
 73
     1
 44
1.0
  0
MTEXT
  5
96
330
3F
100
AcDbEntity
 67
     1
  8
STANDARD
  6
AUSGEZOGEN
 62
     7
370
    25
100
AcDbMText
 10
0.290313
 20
0.050205
 30
0.0
 40
0.001503
 41
0.00193
 71
     9
 72
     5
  1
{\fCalibri|i0|b0;\H0.001503;\W0.987654;\C7;1}\P
  7
CALIBRI
 73
     1
 44
1.0
  0
CIRCLE
  5
97
330
3F
100
AcDbEntity
 67
     1
  8
STANDARD
  6
AUSGEZOGEN
 62
     7
370
    25
100
AcDbCircle
 10
0.246147
 20
0.038529
 30
0.0
 40
0.0005264453673353
  0
MTEXT
  5
98
330
3F
100
AcDbEntity
 67
     1
  8
STANDARD
  6
AUSGEZOGEN
 62
     7
370
    25
100
AcDbMText
 10
0.246147
 20
0.037656
 30
0.0
 40
0.0015
 41
0.001043
 71
     5
 72
     5
  1
\A1;{\fCalibri|i0|b1;\H0.000500;\W0.869565;\C7;\H1.0x;\SR^ ;}\P
  7
CALIBRI
 73
     1
 44
1.0
  0
MTEXT
  5
99
330
3F
100
AcDbEntity
 67
     1
  8
STANDARD
  6
AUSGEZOGEN
 62
     7
370
    25
100
AcDbMText
 10
0.23791
 20
0.037467
 30
0.0
 40
0.001503
 41
0.022856
 71
     7
 72
     5
  1
{\fCalibri|i0|b1;\H0.001503;\W0.869565;\C7;Concrete   Rudolph GmbH}\P
  7
CALIBRI
 73
     1
 44
1.0
  0
MTEXT
  5
9A
330
3F
100
AcDbEntity
 67
     1
  8
STANDARD
  6
AUSGEZOGEN
 62
     7
370
    25
100
AcDbMText
 10
0.260593
 20
0.037483
 30
0.0
 40
0.001082
 41
0.030255
 71
     7
 72
     5
  1
{\fCalibri|i0|b0;\H0.001082;\W0.987654;\C7;I Steinbißstr.15 I 88171 Weiler-Simmerberg}\P
  7
CALIBRI
 73
     1
 44
1.0
  0
MTEXT
  5
9B
330
3F
100
AcDbEntity
 67
     1
  8
STANDARD
  6
AUSGEZOGEN
 62
     7
370
    25
100
AcDbMText
 10
0.289972
 20
0.022836
 30
0.0
 40
0.001495
 41
0.019291
 71
     9
 72
     5
  1
{\fCalibri|i0|b0;\H0.001495;\W0.987654;\C7;C:         I                     I}\P
  7
CALIBRI
 73
     1
 44
1.0
  0
MTEXT
  5
9C
330
3F
100
AcDbEntity
 67
     1
  8
STANDARD
  6
AUSGEZOGEN
 62
     7
370
    25
100
AcDbMText
 10
0.289972
 20
0.019697
 30
0.0
 40
0.001495
 41
0.019463
 71
     9
 72
     5
  1
{\fCalibri|i0|b0;\H0.001495;\W0.987654;\C7;D:         I                     I}\P
  7
CALIBRI
 73
     1
 44
1.0
  0
MTEXT
  5
9D
330
3F
100
AcDbEntity
 67
     1
  8
STANDARD
  6
AUSGEZOGEN
 62
     7
370
    25
100
AcDbMText
 10
0.289972
 20
0.025975
 30
0.0
 40
0.001495
 41
0.019316
 71
     9
 72
     5
  1
{\fCalibri|i0|b0;\H0.001495;\W0.987654;\C7;B:         I                     I}\P
  7
CALIBRI
 73
     1
 44
1.0
  0
MTEXT
  5
9E
330
3F
100
AcDbEntity
 67
     1
  8
STANDARD
  6
AUSGEZOGEN
 62
     7
370
    25
100
AcDbMText
 10
0.289972
 20
0.029114
 30
0.0
 40
0.001495
 41
0.019389
 71
     9
 72
     5
  1
{\fCalibri|i0|b0;\H0.001495;\W0.987654;\C7;A:         I                     I}\P
  7
CALIBRI
 73
     1
 44
1.0
  0
MTEXT
  5
9F
330
3F
100
AcDbEntity
 67
     1
  8
STANDARD
  6
AUSGEZOGEN
 62
     7
370
    25
100
AcDbMText
 10
0.290313
 20
0.053118
 30
0.0
 40
0.001503
 41
0.004925
 71
     9
 72
     5
  1
{\fCalibri|i0|b0;\H0.001500;\W0.987654;\C7;1:50}\P
  7
CALIBRI
 73
     1
 44
1.0
  0
MTEXT
  5
A0
330
3F
100
AcDbEntity
 67
     1
  8
STANDARD
  6
AUSGEZOGEN
 62
     7
370
    25
100
AcDbMText
 10
0.289959
 20
0.065562
 30
0.0
 40
0.0025
 41
0.007292
 71
     9
 72
     5
  1
{\fCalibri|i0|b0;\H0.002500;\W1.000000;\C7;Osa}\P
  7
CALIBRI
 73
     1
 44
1.0
  0
MTEXT
  5
A1
330
3F
100
AcDbEntity
 67
     1
  8
STANDARD
  6
AUSGEZOGEN
 62
     7
370
    25
100
AcDbMText
 10
0.23791
 20
0.035427
 30
0.0
 40
0.00105
 41
0.049949
 71
     7
 72
     5
  1
{\fCalibri|i0|b0;\H0.001050;\W0.987654;\C7;Tel. +49 8384 8210-90 I Fax +49 8384 8210-91 I info@concrete-rudolph.de}\P
  7
CALIBRI
 73
     1
 44
1.0
  0
VIEWPORT
  5
139
330
3F
100
AcDbEntity
 67
     1
  8
STANDARD
  6
AUSGEZOGEN
 62
     7
370
    25
100
AcDbViewport
 10
0.103021
 20
0.115846
 30
0.0
 40
0.14433
 41
0.124261
 68
     2
 69
     2
 12
0.0
 22
0.0
 13
0.0
 23
0.0
 14
1.0
 24
1.0
 15
0.0
 25
0.0
 16
0.0
 26
0.0
 36
1.0
 17
70.41207
 27
-23.088667
 37
0.0
 42
50.0
 43
0.0
 44
0.0
 45
6.213045
 50
0.0
 51
0.0
 72
   100
331
10
331
47
331
D8
 90
   557280
  1

281
     0
 71
     1
 74
     0
110
0.0
120
0.0
130
0.0
111
1.0
121
0.0
131
0.0
112
0.0
122
1.0
132
0.0
 79
     0
146
0.0
170
     0
  0
ENDSEC
  0
SECTION
  2
OBJECTS
  0
DICTIONARY
  5
C
330
0
100
AcDbDictionary
281
     1
  3
ACAD_GROUP
350
D
  3
ACAD_LAYOUT
350
1A
  3
ACAD_MATERIAL
350
3B
  3
ACAD_MLEADERSTYLE
350
163
  3
ACAD_MLINESTYLE
350
17
  3
ACAD_PLOTSETTINGS
350
19
  3
ACAD_PLOTSTYLENAME
350
E
  3
ACAD_SCALELIST
350
66
  3
ACAD_TABLESTYLE
350
162
  3
ACAD_VISUALSTYLE
350
2A
  3
AcDbVariableDictionary
350
13A
  0
DICTIONARY
  5
A2
330
3F
100
AcDbDictionary
280
     1
281
     1
  3
ACAD_SORTENTS
360
A3
  0
DICTIONARY
  5
D
102
{ACAD_REACTORS
330
C
102
}
330
C
100
AcDbDictionary
281
     1
  0
DICTIONARY
  5
1A
102
{ACAD_REACTORS
330
C
102
}
330
C
100
AcDbDictionary
281
     1
  3
Model
350
22
  3
Pos. Osa
350
40
  0
DICTIONARY
  5
3B
102
{ACAD_REACTORS
330
C
102
}
330
C
100
AcDbDictionary
281
     1
  3
ByBlock
350
3D
  3
ByLayer
350
3C
  3
Global
350
3E
  0
DICTIONARY
  5
163
102
{ACAD_REACTORS
330
C
102
}
330
C
100
AcDbDictionary
281
     1
  0
DICTIONARY
  5
17
102
{ACAD_REACTORS
330
C
102
}
330
C
100
AcDbDictionary
281
     1
  3
Standard
350
18
  0
DICTIONARY
  5
19
102
{ACAD_REACTORS
330
C
102
}
330
C
100
AcDbDictionary
281
     1
  0
ACDBDICTIONARYWDFLT
  5
E
102
{ACAD_REACTORS
330
C
102
}
330
C
100
AcDbDictionary
281
     1
  3
Normal
350
F
100
AcDbDictionaryWithDefault
340
F
  0
DICTIONARY
  5
66
102
{ACAD_REACTORS
330
C
102
}
330
C
100
AcDbDictionary
281
     1
  3
A0
350
67
  3
A1
350
68
  3
A2
350
69
  3
A3
350
6A
  3
A4
350
6B
  3
A5
350
6C
  3
A6
350
6D
  3
A7
350
6E
  3
A8
350
6F
  3
A9
350
70
  3
B0
350
71
  3
B1
350
72
  3
B2
350
73
  3
B3
350
74
  3
B4
350
75
  3
B5
350
76
  3
B6
350
77
  3
B7
350
78
  3
B8
350
79
  3
B9
350
7A
  3
C0
350
7B
  3
C1
350
7C
  3
C2
350
7D
  3
C3
350
7E
  3
C4
350
7F
  3
C5
350
80
  3
C6
350
81
  3
C7
350
82
  3
C8
350
83
  3
C9
350
84
  3
D0
350
85
  3
D1
350
86
  3
D2
350
87
  0
DICTIONARY
  5
162
102
{ACAD_REACTORS
330
C
102
}
330
C
100
AcDbDictionary
281
     1
  0
DICTIONARY
  5
2A
102
{ACAD_REACTORS
330
C
102
}
330
C
100
AcDbDictionary
281
     1
  3
2dWireframe
350
2F
  3
3D Hidden
350
31
  3
3dWireframe
350
30
  3
Basic
350
32
  3
Brighten
350
36
  3
ColorChange
350
3A
  3
Conceptual
350
34
  3
Dim
350
35
  3
Facepattern
350
39
  3
Flat
350
2B
  3
FlatWithEdges
350
2C
  3
Gouraud
350
2D
  3
GouraudWithEdges
350
2E
  3
Linepattern
350
38
  3
Realistic
350
33
  3
Thicken
350
37
  0
DICTIONARY
  5
13A
102
{ACAD_REACTORS
330
C
102
}
330
C
100
AcDbDictionary
281
     1
  3
CANNOSCALE
350
13B
  0
SORTENTSTABLE
  5
A3
102
{ACAD_REACTORS
330
A2
102
}
330
A2
100
AcDbSortentsTable
330
3F
331
43
  5
60
331
4A
  5
61
331
4B
  5
62
331
4C
  5
63
331
4D
  5
64
331
4E
  5
65
331
4F
  5
43
331
50
  5
4A
331
51
  5
4B
331
52
  5
4C
331
53
  5
4D
331
54
  5
4E
331
55
  5
4F
331
56
  5
50
331
57
  5
51
331
58
  5
52
331
59
  5
53
331
5A
  5
54
331
5B
  5
55
331
5C
  5
56
331
5D
  5
57
331
5E
  5
58
331
5F
  5
59
331
60
  5
5A
331
61
  5
5B
331
62
  5
5C
331
63
  5
5D
331
64
  5
5E
331
65
  5
5F
  0
LAYOUT
  5
22
102
{ACAD_REACTORS
330
1A
102
}
330
1A
100
AcDbPlotSettings
  1

  2
none_device
  4

  6

 40
0.0
 41
0.0
 42
0.0
 43
0.0
 44
0.0
 45
0.0
 46
0.0
 47
0.0
 48
0.0
 49
0.0
140
0.0
141
0.0
142
1.0
143
1.0
 70
  1712
 72
     0
 73
     0
 74
     0
  7

 75
     0
 76
     0
 77
     2
 78
   300
147
1.0
148
0.0
149
0.0
100
AcDbLayout
  1
Model
 70
     1
 71
     0
 10
66.808817
 20
-26.581285
 11
74.015323
 21
-19.987145
 12
0.0
 22
0.0
 32
0.0
 14
66.808817
 24
-26.581285
 34
66.808817
 15
74.015323
 25
-19.987145
 35
74.015323
146
0.0
 13
0.0
 23
0.0
 33
0.0
 16
1.0
 26
0.0
 36
0.0
 17
0.0
 27
1.0
 37
0.0
 76
     0
330
1F
331
29
  0
LAYOUT
  5
40
102
{ACAD_REACTORS
330
1A
102
}
330
1A
100
AcDbPlotSettings
  1

  2
none_device
  4
none_user_media
  6

 40
7.5
 41
20.0
 42
7.5
 43
20.0
 44
856.0
 45
1204.0
 46
7.5
 47
7.5
 48
0.0
 49
0.0
140
0.0
141
0.0
142
1.0
143
1000.0
 70
   688
 72
     1
 73
     1
 74
     5
  7

 75
    32
 76
     0
 77
     2
 78
   300
147
1000.0
148
0.0
149
0.0
100
AcDbLayout
  1
Pos. Osa
 70
     0
 71
     1
 10
0.030856
 20
0.053716
 11
0.175186
 21
0.177977
 12
0.0
 22
0.0
 32
0.0
 14
0.030856
 24
0.053716
 34
0.0
 15
0.175186
 25
0.177977
 35
0.0
146
0.0
 13
0.0
 23
0.0
 33
0.0
 16
1.0
 26
0.0
 36
0.0
 17
0.0
 27
1.0
 37
0.0
 76
     0
330
3F
331
43
  0
MATERIAL
  5
3D
102
{ACAD_REACTORS
330
3B
102
}
102
{ACAD_XDICTIONARY
360
15E
102
}
330
3B
100
AcDbMaterial
  1
ByBlock
  0
MATERIAL
  5
3C
102
{ACAD_REACTORS
330
3B
102
}
102
{ACAD_XDICTIONARY
360
15C
102
}
330
3B
100
AcDbMaterial
  1
ByLayer
  0
MATERIAL
  5
3E
102
{ACAD_REACTORS
330
3B
102
}
102
{ACAD_XDICTIONARY
360
160
102
}
330
3B
100
AcDbMaterial
  1
Global
  0
MLINESTYLE
  5
18
102
{ACAD_REACTORS
330
17
102
}
330
17
100
AcDbMlineStyle
  2
Standard
 70
     0
  3

 62
   256
 51
90.0
 52
90.0
 71
     2
 49
0.5
 62
   256
  6
BYLAYER
 49
-0.5
 62
   256
  6
BYLAYER
  0
ACDBPLACEHOLDER
  5
F
102
{ACAD_REACTORS
330
E
102
}
330
E
  0
SCALE
  5
67
102
{ACAD_REACTORS
330
66
102
}
330
66
100
AcDbScale
 70
     0
300
1:1
140
1.0
141
1.0
290
     1
  0
SCALE
  5
68
102
{ACAD_REACTORS
330
66
102
}
330
66
100
AcDbScale
 70
     0
300
1:2
140
1.0
141
2.0
290
     0
  0
SCALE
  5
69
102
{ACAD_REACTORS
330
66
102
}
330
66
100
AcDbScale
 70
     0
300
1:4
140
1.0
141
4.0
290
     0
  0
SCALE
  5
6A
102
{ACAD_REACTORS
330
66
102
}
330
66
100
AcDbScale
 70
     0
300
1:5
140
1.0
141
5.0
290
     0
  0
SCALE
  5
6B
102
{ACAD_REACTORS
330
66
102
}
330
66
100
AcDbScale
 70
     0
300
1:8
140
1.0
141
8.0
290
     0
  0
SCALE
  5
6C
102
{ACAD_REACTORS
330
66
102
}
330
66
100
AcDbScale
 70
     0
300
1:10
140
1.0
141
10.0
290
     0
  0
SCALE
  5
6D
102
{ACAD_REACTORS
330
66
102
}
330
66
100
AcDbScale
 70
     0
300
1:16
140
1.0
141
16.0
290
     0
  0
SCALE
  5
6E
102
{ACAD_REACTORS
330
66
102
}
330
66
100
AcDbScale
 70
     0
300
1:20
140
1.0
141
20.0
290
     0
  0
SCALE
  5
6F
102
{ACAD_REACTORS
330
66
102
}
330
66
100
AcDbScale
 70
     0
300
1:30
140
1.0
141
30.0
290
     0
  0
SCALE
  5
70
102
{ACAD_REACTORS
330
66
102
}
330
66
100
AcDbScale
 70
     0
300
1:40
140
1.0
141
40.0
290
     0
  0
SCALE
  5
71
102
{ACAD_REACTORS
330
66
102
}
330
66
100
AcDbScale
 70
     0
300
1:50
140
1.0
141
50.0
290
     0
  0
SCALE
  5
72
102
{ACAD_REACTORS
330
66
102
}
330
66
100
AcDbScale
 70
     0
300
1:100
140
1.0
141
100.0
290
     0
  0
SCALE
  5
73
102
{ACAD_REACTORS
330
66
102
}
330
66
100
AcDbScale
 70
     0
300
2:1
140
2.0
141
1.0
290
     0
  0
SCALE
  5
74
102
{ACAD_REACTORS
330
66
102
}
330
66
100
AcDbScale
 70
     0
300
4:1
140
4.0
141
1.0
290
     0
  0
SCALE
  5
75
102
{ACAD_REACTORS
330
66
102
}
330
66
100
AcDbScale
 70
     0
300
8:1
140
8.0
141
1.0
290
     0
  0
SCALE
  5
76
102
{ACAD_REACTORS
330
66
102
}
330
66
100
AcDbScale
 70
     0
300
10:1
140
10.0
141
1.0
290
     0
  0
SCALE
  5
77
102
{ACAD_REACTORS
330
66
102
}
330
66
100
AcDbScale
 70
     0
300
100:1
140
100.0
141
1.0
290
     0
  0
SCALE
  5
78
102
{ACAD_REACTORS
330
66
102
}
330
66
100
AcDbScale
 70
     0
300
1/128" = 1'-0"
140
0.007812
141
12.0
290
     0
  0
SCALE
  5
79
102
{ACAD_REACTORS
330
66
102
}
330
66
100
AcDbScale
 70
     0
300
1/64" = 1'-0"
140
0.015625
141
12.0
290
     0
  0
SCALE
  5
7A
102
{ACAD_REACTORS
330
66
102
}
330
66
100
AcDbScale
 70
     0
300
1/32" = 1'-0"
140
0.03125
141
12.0
290
     0
  0
SCALE
  5
7B
102
{ACAD_REACTORS
330
66
102
}
330
66
100
AcDbScale
 70
     0
300
1/16" = 1'-0"
140
0.0625
141
12.0
290
     0
  0
SCALE
  5
7C
102
{ACAD_REACTORS
330
66
102
}
330
66
100
AcDbScale
 70
     0
300
3/32" = 1'-0"
140
0.09375
141
12.0
290
     0
  0
SCALE
  5
7D
102
{ACAD_REACTORS
330
66
102
}
330
66
100
AcDbScale
 70
     0
300
1/8" = 1'-0"
140
0.125
141
12.0
290
     0
  0
SCALE
  5
7E
102
{ACAD_REACTORS
330
66
102
}
330
66
100
AcDbScale
 70
     0
300
3/16" = 1'-0"
140
0.1875
141
12.0
290
     0
  0
SCALE
  5
7F
102
{ACAD_REACTORS
330
66
102
}
330
66
100
AcDbScale
 70
     0
300
1/4" = 1'-0"
140
0.25
141
12.0
290
     0
  0
SCALE
  5
80
102
{ACAD_REACTORS
330
66
102
}
330
66
100
AcDbScale
 70
     0
300
3/8" = 1'-0"
140
0.375
141
12.0
290
     0
  0
SCALE
  5
81
102
{ACAD_REACTORS
330
66
102
}
330
66
100
AcDbScale
 70
     0
300
1/2" = 1'-0"
140
0.5
141
12.0
290
     0
  0
SCALE
  5
82
102
{ACAD_REACTORS
330
66
102
}
330
66
100
AcDbScale
 70
     0
300
3/4" = 1'-0"
140
0.75
141
12.0
290
     0
  0
SCALE
  5
83
102
{ACAD_REACTORS
330
66
102
}
330
66
100
AcDbScale
 70
     0
300
1" = 1'-0"
140
1.0
141
12.0
290
     0
  0
SCALE
  5
84
102
{ACAD_REACTORS
330
66
102
}
330
66
100
AcDbScale
 70
     0
300
1-1/2" = 1'-0"
140
1.5
141
12.0
290
     0
  0
SCALE
  5
85
102
{ACAD_REACTORS
330
66
102
}
330
66
100
AcDbScale
 70
     0
300
3" = 1'-0"
140
3.0
141
12.0
290
     0
  0
SCALE
  5
86
102
{ACAD_REACTORS
330
66
102
}
330
66
100
AcDbScale
 70
     0
300
6" = 1'-0"
140
6.0
141
12.0
290
     0
  0
SCALE
  5
87
102
{ACAD_REACTORS
330
66
102
}
330
66
100
AcDbScale
 70
     0
300
1'-0" = 1'-0"
140
12.0
141
12.0
290
     0
  0
VISUALSTYLE
  5
2F
102
{ACAD_REACTORS
330
2A
102
}
102
{ACAD_XDICTIONARY
360
144
102
}
330
2A
100
AcDbVisualStyle
  2
2dWireframe
 70
     4
 71
     0
 72
     2
 73
     0
 90
        0
 40
-0.6
 41
-30.0
 62
     5
 63
     7
421
 16777215
 74
     1
 91
        4
 64
     7
 65
   257
 75
     1
175
     1
 42
1.0
 92
        0
 66
   257
 43
1.0
 76
     1
 77
     6
 78
     2
 67
     7
 79
     5
170
     0
171
     0
290
     0
174
     0
 93
        1
 44
0.0
173
     0
291
     0
 45
0.0
1001
ACAD
1000
AcDbSavedByObjectVersion
1070
     0
  0
VISUALSTYLE
  5
31
102
{ACAD_REACTORS
330
2A
102
}
102
{ACAD_XDICTIONARY
360
148
102
}
330
2A
100
AcDbVisualStyle
  2
3D Hidden
 70
     6
 71
     1
 72
     2
 73
     2
 90
        0
 40
-0.6
 41
-30.0
 62
     5
 63
     7
421
 16777215
 74
     2
 91
        2
 64
     7
 65
   257
 75
     2
175
     1
 42
40.0
 92
        0
 66
   257
 43
1.0
 76
     1
 77
     6
 78
     2
 67
     7
 79
     3
170
     0
171
     0
290
     0
174
     0
 93
        1
 44
0.0
173
     0
291
     0
 45
0.0
1001
ACAD
1000
AcDbSavedByObjectVersion
1070
     0
  0
VISUALSTYLE
  5
30
102
{ACAD_REACTORS
330
2A
102
}
102
{ACAD_XDICTIONARY
360
146
102
}
330
2A
100
AcDbVisualStyle
  2
3dWireframe
 70
     5
 71
     0
 72
     2
 73
     0
 90
        0
 40
-0.6
 41
-30.0
 62
     5
 63
     7
421
 16777215
 74
     1
 91
        4
 64
     7
 65
   257
 75
     1
175
     1
 42
1.0
 92
        0
 66
   257
 43
1.0
 76
     1
 77
     6
 78
     2
 67
     7
 79
     5
170
     0
171
     0
290
     0
174
     0
 93
        1
 44
0.0
173
     0
291
     0
 45
0.0
1001
ACAD
1000
AcDbSavedByObjectVersion
1070
     0
  0
VISUALSTYLE
  5
32
102
{ACAD_REACTORS
330
2A
102
}
102
{ACAD_XDICTIONARY
360
14A
102
}
330
2A
100
AcDbVisualStyle
  2
Basic
 70
     7
 71
     1
 72
     0
 73
     1
 90
        0
 40
-0.6
 41
-30.0
 62
     5
 63
     7
421
 16777215
 74
     0
 91
        4
 64
     7
 65
   257
 75
     1
175
     1
 42
1.0
 92
        8
 66
     7
 43
1.0
 76
     1
 77
     6
 78
     2
 67
     7
 79
     5
170
     0
171
     0
290
     0
174
     0
 93
        1
 44
0.0
173
     0
291
     1
 45
0.0
1001
ACAD
1000
AcDbSavedByObjectVersion
1070
     0
  0
VISUALSTYLE
  5
36
102
{ACAD_REACTORS
330
2A
102
}
102
{ACAD_XDICTIONARY
360
152
102
}
330
2A
100
AcDbVisualStyle
  2
Brighten
 70
    12
 71
     2
 72
     2
 73
     0
 90
        0
 40
-0.6
 41
-30.0
 62
     5
 63
     7
421
 16777215
 74
     1
 91
        4
 64
     7
 65
   257
 75
     1
175
     1
 42
1.0
 92
        8
 66
     7
 43
1.0
 76
     1
 77
     6
 78
     2
 67
     7
 79
     5
170
     0
171
     0
290
     0
174
     0
 93
        1
 44
50.0
173
     0
291
     1
 45
0.0
1001
ACAD
1000
AcDbSavedByObjectVersion
1070
     0
  0
VISUALSTYLE
  5
3A
102
{ACAD_REACTORS
330
2A
102
}
102
{ACAD_XDICTIONARY
360
15A
102
}
330
2A
100
AcDbVisualStyle
  2
ColorChange
 70
    16
 71
     2
 72
     2
 73
     3
 90
        0
 40
-0.6
 41
-30.0
 62
     5
 63
     8
421
  8421504
 74
     1
 91
        4
 64
     7
 65
   257
 75
     1
175
     1
 42
1.0
 92
        8
 66
     8
424
  8421504
 43
1.0
 76
     1
 77
     6
 78
     2
 67
     7
 79
     5
170
     0
171
     0
290
     0
174
     0
 93
        1
 44
0.0
173
     0
291
     1
 45
0.0
1001
ACAD
1000
AcDbSavedByObjectVersion
1070
     0
  0
VISUALSTYLE
  5
34
102
{ACAD_REACTORS
330
2A
102
}
102
{ACAD_XDICTIONARY
360
14E
102
}
330
2A
100
AcDbVisualStyle
  2
Conceptual
 70
     9
 71
     3
 72
     2
 73
     0
 90
        0
 40
-0.6
 41
-30.0
 62
     5
 63
     7
421
 16777215
 74
     2
 91
        2
 64
     7
 65
   257
 75
     1
175
     1
 42
40.0
 92
        8
 66
     7
 43
1.0
 76
     1
 77
     6
 78
     2
 67
     7
 79
     3
170
     0
171
     0
290
     0
174
     0
 93
        1
 44
0.0
173
     0
291
     0
 45
0.0
1001
ACAD
1000
AcDbSavedByObjectVersion
1070
     0
  0
VISUALSTYLE
  5
35
102
{ACAD_REACTORS
330
2A
102
}
102
{ACAD_XDICTIONARY
360
150
102
}
330
2A
100
AcDbVisualStyle
  2
Dim
 70
    11
 71
     2
 72
     2
 73
     0
 90
        0
 40
-0.6
 41
-30.0
 62
     5
 63
     7
421
 16777215
 74
     1
 91
        4
 64
     7
 65
   257
 75
     1
175
     1
 42
1.0
 92
        8
 66
     7
 43
1.0
 76
     1
 77
     6
 78
     2
 67
     7
 79
     5
170
     0
171
     0
290
     0
174
     0
 93
        1
 44
-50.0
173
     0
291
     1
 45
0.0
1001
ACAD
1000
AcDbSavedByObjectVersion
1070
     0
  0
VISUALSTYLE
  5
39
102
{ACAD_REACTORS
330
2A
102
}
102
{ACAD_XDICTIONARY
360
158
102
}
330
2A
100
AcDbVisualStyle
  2
Facepattern
 70
    15
 71
     2
 72
     2
 73
     0
 90
        0
 40
-0.6
 41
-30.0
 62
     5
 63
     7
421
 16777215
 74
     1
 91
        4
 64
     7
 65
   257
 75
     1
175
     1
 42
1.0
 92
        8
 66
     7
 43
1.0
 76
     1
 77
     6
 78
     2
 67
     7
 79
     5
170
     0
171
     0
290
     0
174
     0
 93
        1
 44
0.0
173
     0
291
     1
 45
0.0
1001
ACAD
1000
AcDbSavedByObjectVersion
1070
     0
  0
VISUALSTYLE
  5
2B
102
{ACAD_REACTORS
330
2A
102
}
102
{ACAD_XDICTIONARY
360
13C
102
}
330
2A
100
AcDbVisualStyle
  2
Flat
 70
     0
 71
     2
 72
     1
 73
     1
 90
        2
 40
-0.6
 41
30.0
 62
     5
 63
     7
421
 16777215
 74
     0
 91
        4
 64
     7
 65
   257
 75
     1
175
     1
 42
1.0
 92
        8
 66
     7
 43
1.0
 76
     1
 77
     6
 78
     2
 67
     7
 79
     5
170
     0
171
     0
290
     0
174
     0
 93
       13
 44
0.0
173
     0
291
     1
 45
0.0
1001
ACAD
1000
AcDbSavedByObjectVersion
1070
     0
  0
VISUALSTYLE
  5
2C
102
{ACAD_REACTORS
330
2A
102
}
102
{ACAD_XDICTIONARY
360
13E
102
}
330
2A
100
AcDbVisualStyle
  2
FlatWithEdges
 70
     1
 71
     2
 72
     1
 73
     1
 90
        2
 40
-0.6
 41
30.0
 62
     5
 63
     7
421
 16777215
 74
     1
 91
        4
 64
     7
 65
   257
 75
     1
175
     1
 42
1.0
 92
        0
 66
   257
 43
1.0
 76
     1
 77
     6
 78
     2
 67
     7
 79
     5
170
     0
171
     0
290
     0
174
     0
 93
       13
 44
0.0
173
     0
291
     1
 45
0.0
1001
ACAD
1000
AcDbSavedByObjectVersion
1070
     0
  0
VISUALSTYLE
  5
2D
102
{ACAD_REACTORS
330
2A
102
}
102
{ACAD_XDICTIONARY
360
140
102
}
330
2A
100
AcDbVisualStyle
  2
Gouraud
 70
     2
 71
     2
 72
     2
 73
     1
 90
        2
 40
-0.6
 41
30.0
 62
     5
 63
     7
421
 16777215
 74
     0
 91
        4
 64
     7
 65
   257
 75
     1
175
     1
 42
1.0
 92
        0
 66
     7
 43
1.0
 76
     1
 77
     6
 78
     2
 67
     7
 79
     5
170
     0
171
     0
290
     0
174
     0
 93
       13
 44
0.0
173
     0
291
     1
 45
0.0
1001
ACAD
1000
AcDbSavedByObjectVersion
1070
     0
  0
VISUALSTYLE
  5
2E
102
{ACAD_REACTORS
330
2A
102
}
102
{ACAD_XDICTIONARY
360
142
102
}
330
2A
100
AcDbVisualStyle
  2
GouraudWithEdges
 70
     3
 71
     2
 72
     2
 73
     1
 90
        2
 40
-0.6
 41
30.0
 62
     5
 63
     7
421
 16777215
 74
     1
 91
        4
 64
     7
 65
   257
 75
     1
175
     1
 42
1.0
 92
        0
 66
   257
 43
1.0
 76
     1
 77
     6
 78
     2
 67
     7
 79
     5
170
     0
171
     0
290
     0
174
     0
 93
       13
 44
0.0
173
     0
291
     1
 45
0.0
1001
ACAD
1000
AcDbSavedByObjectVersion
1070
     0
  0
VISUALSTYLE
  5
38
102
{ACAD_REACTORS
330
2A
102
}
102
{ACAD_XDICTIONARY
360
156
102
}
330
2A
100
AcDbVisualStyle
  2
Linepattern
 70
    14
 71
     2
 72
     2
 73
     0
 90
        0
 40
-0.6
 41
-30.0
 62
     5
 63
     7
421
 16777215
 74
     1
 91
        4
 64
     7
 65
   257
 75
     7
175
     7
 42
1.0
 92
        8
 66
     7
 43
1.0
 76
     1
 77
     6
 78
     2
 67
     7
 79
     5
170
     0
171
     0
290
     0
174
     0
 93
        1
 44
0.0
173
     0
291
     1
 45
0.0
1001
ACAD
1000
AcDbSavedByObjectVersion
1070
     0
  0
VISUALSTYLE
  5
33
102
{ACAD_REACTORS
330
2A
102
}
102
{ACAD_XDICTIONARY
360
14C
102
}
330
2A
100
AcDbVisualStyle
  2
Realistic
 70
     8
 71
     2
 72
     2
 73
     0
 90
        0
 40
-0.6
 41
-30.0
 62
     5
 63
     7
421
 16777215
 74
     1
 91
        0
 64
     7
 65
   257
 75
     1
175
     1
 42
1.0
 92
        8
 66
     8
424
  7895160
 43
1.0
 76
     1
 77
     6
 78
     2
 67
     7
 79
     5
170
     0
171
     0
290
     0
174
     0
 93
       13
 44
0.0
173
     0
291
     0
 45
0.0
1001
ACAD
1000
AcDbSavedByObjectVersion
1070
     0
  0
VISUALSTYLE
  5
37
102
{ACAD_REACTORS
330
2A
102
}
102
{ACAD_XDICTIONARY
360
154
102
}
330
2A
100
AcDbVisualStyle
  2
Thicken
 70
    13
 71
     2
 72
     2
 73
     0
 90
        0
 40
-0.6
 41
-30.0
 62
     5
 63
     7
421
 16777215
 74
     1
 91
        4
 64
     7
 65
   257
 75
     1
175
     1
 42
1.0
 92
       12
 66
     7
 43
1.0
 76
     1
 77
     6
 78
     2
 67
     7
 79
     5
170
     0
171
     0
290
     0
174
     0
 93
        1
 44
0.0
173
     0
291
     1
 45
0.0
1001
ACAD
1000
AcDbSavedByObjectVersion
1070
     0
  0
DICTIONARYVAR
  5
13B
102
{ACAD_REACTORS
330
13A
102
}
330
13A
100
DictionaryVariables
280
     0
  1
1:1
  0
DICTIONARY
  5
15E
330
3D
100
AcDbDictionary
280
     1
281
     1
  3
ACAD_XREC_ROUNDTRIP
360
15F
  0
DICTIONARY
  5
15C
330
3C
100
AcDbDictionary
280
     1
281
     1
  3
ACAD_XREC_ROUNDTRIP
360
15D
  0
DICTIONARY
  5
160
330
3E
100
AcDbDictionary
280
     1
281
     1
  3
ACAD_XREC_ROUNDTRIP
360
161
  0
DICTIONARY
  5
144
330
2F
100
AcDbDictionary
280
     1
281
     1
  3
ACAD_XREC_ROUNDTRIP
360
145
  0
DICTIONARY
  5
148
330
31
100
AcDbDictionary
280
     1
281
     1
  3
ACAD_XREC_ROUNDTRIP
360
149
  0
DICTIONARY
  5
146
330
30
100
AcDbDictionary
280
     1
281
     1
  3
ACAD_XREC_ROUNDTRIP
360
147
  0
DICTIONARY
  5
14A
330
32
100
AcDbDictionary
280
     1
281
     1
  3
ACAD_XREC_ROUNDTRIP
360
14B
  0
DICTIONARY
  5
152
330
36
100
AcDbDictionary
280
     1
281
     1
  3
ACAD_XREC_ROUNDTRIP
360
153
  0
DICTIONARY
  5
15A
330
3A
100
AcDbDictionary
280
     1
281
     1
  3
ACAD_XREC_ROUNDTRIP
360
15B
  0
DICTIONARY
  5
14E
330
34
100
AcDbDictionary
280
     1
281
     1
  3
ACAD_XREC_ROUNDTRIP
360
14F
  0
DICTIONARY
  5
150
330
35
100
AcDbDictionary
280
     1
281
     1
  3
ACAD_XREC_ROUNDTRIP
360
151
  0
DICTIONARY
  5
158
330
39
100
AcDbDictionary
280
     1
281
     1
  3
ACAD_XREC_ROUNDTRIP
360
159
  0
DICTIONARY
  5
13C
330
2B
100
AcDbDictionary
280
     1
281
     1
  3
ACAD_XREC_ROUNDTRIP
360
13D
  0
DICTIONARY
  5
13E
330
2C
100
AcDbDictionary
280
     1
281
     1
  3
ACAD_XREC_ROUNDTRIP
360
13F
  0
DICTIONARY
  5
140
330
2D
100
AcDbDictionary
280
     1
281
     1
  3
ACAD_XREC_ROUNDTRIP
360
141
  0
DICTIONARY
  5
142
330
2E
100
AcDbDictionary
280
     1
281
     1
  3
ACAD_XREC_ROUNDTRIP
360
143
  0
DICTIONARY
  5
156
330
38
100
AcDbDictionary
280
     1
281
     1
  3
ACAD_XREC_ROUNDTRIP
360
157
  0
DICTIONARY
  5
14C
330
33
100
AcDbDictionary
280
     1
281
     1
  3
ACAD_XREC_ROUNDTRIP
360
14D
  0
DICTIONARY
  5
154
330
37
100
AcDbDictionary
280
     1
281
     1
  3
ACAD_XREC_ROUNDTRIP
360
155
  0
XRECORD
  5
15F
102
{ACAD_REACTORS
330
15E
102
}
330
15E
100
AcDbXrecord
280
     1
102
MATERIAL
148
0.0
149
0.0
149
0.0
 93
        0
 94
      127
282
     0
 72
     1
 77
     1
171
     1
175
     1
179
     1
273
     0
  0
XRECORD
  5
15D
102
{ACAD_REACTORS
330
15C
102
}
330
15C
100
AcDbXrecord
280
     1
102
MATERIAL
148
0.0
149
0.0
149
0.0
 93
        0
 94
      127
282
     0
 72
     1
 77
     1
171
     1
175
     1
179
     1
273
     0
  0
XRECORD
  5
161
102
{ACAD_REACTORS
330
160
102
}
330
160
100
AcDbXrecord
280
     1
102
MATERIAL
148
0.0
149
0.0
149
0.0
 93
        0
 94
      127
282
     0
 72
     1
 77
     1
171
     1
175
     1
179
     1
273
     0
  0
XRECORD
  5
145
102
{ACAD_REACTORS
330
144
102
}
330
144
100
AcDbXrecord
280
     1
102
RTVSPropertyOp0
 70
     1
102
RTVSPropertyOp1
 70
     1
102
RTVSPropertyOp2
 70
     1
102
RTVSPropertyOp3
 70
     1
102
RTVSPropertyOp4
 70
     1
102
RTVSPropertyOp5
 70
     1
102
RTVSPropertyOp6
 70
     1
102
RTVSPropertyOp7
 70
     1
102
RTVSPropertyOp8
 70
     1
102
RTVSPropertyOp9
 70
     1
102
RTVSPropertyOp10
 70
     1
102
RTVSPropertyOp11
 70
     1
102
RTVSPropertyOp12
 70
     1
102
RTVSPropertyOp13
 70
     1
102
RTVSPropertyOp14
 70
     1
102
RTVSPropertyOp15
 70
     1
102
RTVSPropertyOp16
 70
     1
102
RTVSPropertyOp17
 70
     1
102
RTVSPropertyOp18
 70
     1
102
RTVSPropertyOp19
 70
     1
102
RTVSPropertyOp20
 70
     1
102
RTVSPropertyOp21
 70
     1
102
RTVSPropertyOp22
 70
     1
102
RTVSPropertyOp23
 70
     1
102
RTVSPropertyOp24
 70
     1
102
RTVSPropertyOp25
 70
     1
102
RTVSPropertyOp26
 70
     1
102
RTVSPropertyOp27
 70
     1
  0
XRECORD
  5
149
102
{ACAD_REACTORS
330
148
102
}
330
148
100
AcDbXrecord
280
     1
102
RTVSPropertyOp0
 70
     1
102
RTVSPropertyOp1
 70
     1
102
RTVSPropertyOp2
 70
     1
102
RTVSPropertyOp3
 70
     1
102
RTVSPropertyOp4
 70
     1
102
RTVSPropertyOp5
 70
     1
102
RTVSPropertyOp6
 70
     1
102
RTVSPropertyOp7
 70
     1
102
RTVSPropertyOp8
 70
     1
102
RTVSPropertyOp9
 70
     1
102
RTVSPropertyOp10
 70
     1
102
RTVSPropertyOp11
 70
     1
102
RTVSPropertyOp12
 70
     1
102
RTVSPropertyOp13
 70
     1
102
RTVSPropertyOp14
 70
     1
102
RTVSPropertyOp15
 70
     1
102
RTVSPropertyOp16
 70
     1
102
RTVSPropertyOp17
 70
     1
102
RTVSPropertyOp18
 70
     1
102
RTVSPropertyOp19
 70
     1
102
RTVSPropertyOp20
 70
     1
102
RTVSPropertyOp21
 70
     1
102
RTVSPropertyOp22
 70
     1
102
RTVSPropertyOp23
 70
     1
102
RTVSPropertyOp24
 70
     1
102
RTVSPropertyOp25
 70
     1
102
RTVSPropertyOp26
 70
     1
102
RTVSPropertyOp27
 70
     1
  0
XRECORD
  5
147
102
{ACAD_REACTORS
330
146
102
}
330
146
100
AcDbXrecord
280
     1
102
RTVSPropertyOp0
 70
     1
102
RTVSPropertyOp1
 70
     1
102
RTVSPropertyOp2
 70
     1
102
RTVSPropertyOp3
 70
     1
102
RTVSPropertyOp4
 70
     1
102
RTVSPropertyOp5
 70
     1
102
RTVSPropertyOp6
 70
     1
102
RTVSPropertyOp7
 70
     1
102
RTVSPropertyOp8
 70
     1
102
RTVSPropertyOp9
 70
     1
102
RTVSPropertyOp10
 70
     1
102
RTVSPropertyOp11
 70
     1
102
RTVSPropertyOp12
 70
     1
102
RTVSPropertyOp13
 70
     1
102
RTVSPropertyOp14
 70
     1
102
RTVSPropertyOp15
 70
     1
102
RTVSPropertyOp16
 70
     1
102
RTVSPropertyOp17
 70
     1
102
RTVSPropertyOp18
 70
     1
102
RTVSPropertyOp19
 70
     1
102
RTVSPropertyOp20
 70
     1
102
RTVSPropertyOp21
 70
     1
102
RTVSPropertyOp22
 70
     1
102
RTVSPropertyOp23
 70
     1
102
RTVSPropertyOp24
 70
     1
102
RTVSPropertyOp25
 70
     1
102
RTVSPropertyOp26
 70
     1
102
RTVSPropertyOp27
 70
     1
  0
XRECORD
  5
14B
102
{ACAD_REACTORS
330
14A
102
}
330
14A
100
AcDbXrecord
280
     1
102
RTVSPropertyOp0
 70
     1
102
RTVSPropertyOp1
 70
     1
102
RTVSPropertyOp2
 70
     1
102
RTVSPropertyOp3
 70
     1
102
RTVSPropertyOp4
 70
     1
102
RTVSPropertyOp5
 70
     1
102
RTVSPropertyOp6
 70
     1
102
RTVSPropertyOp7
 70
     1
102
RTVSPropertyOp8
 70
     1
102
RTVSPropertyOp9
 70
     1
102
RTVSPropertyOp10
 70
     1
102
RTVSPropertyOp11
 70
     1
102
RTVSPropertyOp12
 70
     1
102
RTVSPropertyOp13
 70
     1
102
RTVSPropertyOp14
 70
     1
102
RTVSPropertyOp15
 70
     1
102
RTVSPropertyOp16
 70
     1
102
RTVSPropertyOp17
 70
     1
102
RTVSPropertyOp18
 70
     1
102
RTVSPropertyOp19
 70
     1
102
RTVSPropertyOp20
 70
     1
102
RTVSPropertyOp21
 70
     1
102
RTVSPropertyOp22
 70
     1
102
RTVSPropertyOp23
 70
     1
102
RTVSPropertyOp24
 70
     1
102
RTVSPropertyOp25
 70
     1
102
RTVSPropertyOp26
 70
     1
102
RTVSPropertyOp27
 70
     1
  0
XRECORD
  5
153
102
{ACAD_REACTORS
330
152
102
}
330
152
100
AcDbXrecord
280
     1
102
RTVSPropertyOp0
 70
     1
102
RTVSPropertyOp1
 70
     1
102
RTVSPropertyOp2
 70
     1
102
RTVSPropertyOp3
 70
     1
102
RTVSPropertyOp4
 70
     1
102
RTVSPropertyOp5
 70
     1
102
RTVSPropertyOp6
 70
     1
102
RTVSPropertyOp7
 70
     1
102
RTVSPropertyOp8
 70
     1
102
RTVSPropertyOp9
 70
     1
102
RTVSPropertyOp10
 70
     1
102
RTVSPropertyOp11
 70
     1
102
RTVSPropertyOp12
 70
     1
102
RTVSPropertyOp13
 70
     1
102
RTVSPropertyOp14
 70
     1
102
RTVSPropertyOp15
 70
     1
102
RTVSPropertyOp16
 70
     1
102
RTVSPropertyOp17
 70
     1
102
RTVSPropertyOp18
 70
     1
102
RTVSPropertyOp19
 70
     1
102
RTVSPropertyOp20
 70
     1
102
RTVSPropertyOp21
 70
     1
102
RTVSPropertyOp22
 70
     1
102
RTVSPropertyOp23
 70
     1
102
RTVSPropertyOp24
 70
     1
102
RTVSPropertyOp25
 70
     1
102
RTVSPropertyOp26
 70
     1
102
RTVSPropertyOp27
 70
     1
  0
XRECORD
  5
15B
102
{ACAD_REACTORS
330
15A
102
}
330
15A
100
AcDbXrecord
280
     1
102
RTVSPropertyOp0
 70
     1
102
RTVSPropertyOp1
 70
     1
102
RTVSPropertyOp2
 70
     1
102
RTVSPropertyOp3
 70
     1
102
RTVSPropertyOp4
 70
     1
102
RTVSPropertyOp5
 70
     1
102
RTVSPropertyOp6
 70
     1
102
RTVSPropertyOp7
 70
     1
102
RTVSPropertyOp8
 70
     1
102
RTVSPropertyOp9
 70
     1
102
RTVSPropertyOp10
 70
     1
102
RTVSPropertyOp11
 70
     1
102
RTVSPropertyOp12
 70
     1
102
RTVSPropertyOp13
 70
     1
102
RTVSPropertyOp14
 70
     1
102
RTVSPropertyOp15
 70
     1
102
RTVSPropertyOp16
 70
     1
102
RTVSPropertyOp17
 70
     1
102
RTVSPropertyOp18
 70
     1
102
RTVSPropertyOp19
 70
     1
102
RTVSPropertyOp20
 70
     1
102
RTVSPropertyOp21
 70
     1
102
RTVSPropertyOp22
 70
     1
102
RTVSPropertyOp23
 70
     1
102
RTVSPropertyOp24
 70
     1
102
RTVSPropertyOp25
 70
     1
102
RTVSPropertyOp26
 70
     1
102
RTVSPropertyOp27
 70
     1
  0
XRECORD
  5
14F
102
{ACAD_REACTORS
330
14E
102
}
330
14E
100
AcDbXrecord
280
     1
102
RTVSPropertyOp0
 70
     1
102
RTVSPropertyOp1
 70
     1
102
RTVSPropertyOp2
 70
     1
102
RTVSPropertyOp3
 70
     1
102
RTVSPropertyOp4
 70
     1
102
RTVSPropertyOp5
 70
     1
102
RTVSPropertyOp6
 70
     1
102
RTVSPropertyOp7
 70
     1
102
RTVSPropertyOp8
 70
     1
102
RTVSPropertyOp9
 70
     1
102
RTVSPropertyOp10
 70
     1
102
RTVSPropertyOp11
 70
     1
102
RTVSPropertyOp12
 70
     1
102
RTVSPropertyOp13
 70
     1
102
RTVSPropertyOp14
 70
     1
102
RTVSPropertyOp15
 70
     1
102
RTVSPropertyOp16
 70
     1
102
RTVSPropertyOp17
 70
     1
102
RTVSPropertyOp18
 70
     1
102
RTVSPropertyOp19
 70
     1
102
RTVSPropertyOp20
 70
     1
102
RTVSPropertyOp21
 70
     1
102
RTVSPropertyOp22
 70
     1
102
RTVSPropertyOp23
 70
     1
102
RTVSPropertyOp24
 70
     1
102
RTVSPropertyOp25
 70
     1
102
RTVSPropertyOp26
 70
     1
102
RTVSPropertyOp27
 70
     1
  0
XRECORD
  5
151
102
{ACAD_REACTORS
330
150
102
}
330
150
100
AcDbXrecord
280
     1
102
RTVSPropertyOp0
 70
     1
102
RTVSPropertyOp1
 70
     1
102
RTVSPropertyOp2
 70
     1
102
RTVSPropertyOp3
 70
     1
102
RTVSPropertyOp4
 70
     1
102
RTVSPropertyOp5
 70
     1
102
RTVSPropertyOp6
 70
     1
102
RTVSPropertyOp7
 70
     1
102
RTVSPropertyOp8
 70
     1
102
RTVSPropertyOp9
 70
     1
102
RTVSPropertyOp10
 70
     1
102
RTVSPropertyOp11
 70
     1
102
RTVSPropertyOp12
 70
     1
102
RTVSPropertyOp13
 70
     1
102
RTVSPropertyOp14
 70
     1
102
RTVSPropertyOp15
 70
     1
102
RTVSPropertyOp16
 70
     1
102
RTVSPropertyOp17
 70
     1
102
RTVSPropertyOp18
 70
     1
102
RTVSPropertyOp19
 70
     1
102
RTVSPropertyOp20
 70
     1
102
RTVSPropertyOp21
 70
     1
102
RTVSPropertyOp22
 70
     1
102
RTVSPropertyOp23
 70
     1
102
RTVSPropertyOp24
 70
     1
102
RTVSPropertyOp25
 70
     1
102
RTVSPropertyOp26
 70
     1
102
RTVSPropertyOp27
 70
     1
  0
XRECORD
  5
159
102
{ACAD_REACTORS
330
158
102
}
330
158
100
AcDbXrecord
280
     1
102
RTVSPropertyOp0
 70
     1
102
RTVSPropertyOp1
 70
     1
102
RTVSPropertyOp2
 70
     1
102
RTVSPropertyOp3
 70
     1
102
RTVSPropertyOp4
 70
     1
102
RTVSPropertyOp5
 70
     1
102
RTVSPropertyOp6
 70
     1
102
RTVSPropertyOp7
 70
     1
102
RTVSPropertyOp8
 70
     1
102
RTVSPropertyOp9
 70
     1
102
RTVSPropertyOp10
 70
     1
102
RTVSPropertyOp11
 70
     1
102
RTVSPropertyOp12
 70
     1
102
RTVSPropertyOp13
 70
     1
102
RTVSPropertyOp14
 70
     1
102
RTVSPropertyOp15
 70
     1
102
RTVSPropertyOp16
 70
     1
102
RTVSPropertyOp17
 70
     1
102
RTVSPropertyOp18
 70
     1
102
RTVSPropertyOp19
 70
     1
102
RTVSPropertyOp20
 70
     1
102
RTVSPropertyOp21
 70
     1
102
RTVSPropertyOp22
 70
     1
102
RTVSPropertyOp23
 70
     1
102
RTVSPropertyOp24
 70
     1
102
RTVSPropertyOp25
 70
     1
102
RTVSPropertyOp26
 70
     1
102
RTVSPropertyOp27
 70
     1
  0
XRECORD
  5
13D
102
{ACAD_REACTORS
330
13C
102
}
330
13C
100
AcDbXrecord
280
     1
102
RTVSPropertyOp0
 70
     1
102
RTVSPropertyOp1
 70
     1
102
RTVSPropertyOp2
 70
     1
102
RTVSPropertyOp3
 70
     1
102
RTVSPropertyOp4
 70
     1
102
RTVSPropertyOp5
 70
     1
102
RTVSPropertyOp6
 70
     1
102
RTVSPropertyOp7
 70
     1
102
RTVSPropertyOp8
 70
     1
102
RTVSPropertyOp9
 70
     1
102
RTVSPropertyOp10
 70
     1
102
RTVSPropertyOp11
 70
     1
102
RTVSPropertyOp12
 70
     1
102
RTVSPropertyOp13
 70
     1
102
RTVSPropertyOp14
 70
     1
102
RTVSPropertyOp15
 70
     1
102
RTVSPropertyOp16
 70
     1
102
RTVSPropertyOp17
 70
     1
102
RTVSPropertyOp18
 70
     1
102
RTVSPropertyOp19
 70
     1
102
RTVSPropertyOp20
 70
     1
102
RTVSPropertyOp21
 70
     1
102
RTVSPropertyOp22
 70
     1
102
RTVSPropertyOp23
 70
     1
102
RTVSPropertyOp24
 70
     1
102
RTVSPropertyOp25
 70
     1
102
RTVSPropertyOp26
 70
     1
102
RTVSPropertyOp27
 70
     1
  0
XRECORD
  5
13F
102
{ACAD_REACTORS
330
13E
102
}
330
13E
100
AcDbXrecord
280
     1
102
RTVSPropertyOp0
 70
     1
102
RTVSPropertyOp1
 70
     1
102
RTVSPropertyOp2
 70
     1
102
RTVSPropertyOp3
 70
     1
102
RTVSPropertyOp4
 70
     1
102
RTVSPropertyOp5
 70
     1
102
RTVSPropertyOp6
 70
     1
102
RTVSPropertyOp7
 70
     1
102
RTVSPropertyOp8
 70
     1
102
RTVSPropertyOp9
 70
     1
102
RTVSPropertyOp10
 70
     1
102
RTVSPropertyOp11
 70
     1
102
RTVSPropertyOp12
 70
     1
102
RTVSPropertyOp13
 70
     1
102
RTVSPropertyOp14
 70
     1
102
RTVSPropertyOp15
 70
     1
102
RTVSPropertyOp16
 70
     1
102
RTVSPropertyOp17
 70
     1
102
RTVSPropertyOp18
 70
     1
102
RTVSPropertyOp19
 70
     1
102
RTVSPropertyOp20
 70
     1
102
RTVSPropertyOp21
 70
     1
102
RTVSPropertyOp22
 70
     1
102
RTVSPropertyOp23
 70
     1
102
RTVSPropertyOp24
 70
     1
102
RTVSPropertyOp25
 70
     1
102
RTVSPropertyOp26
 70
     1
102
RTVSPropertyOp27
 70
     1
  0
XRECORD
  5
141
102
{ACAD_REACTORS
330
140
102
}
330
140
100
AcDbXrecord
280
     1
102
RTVSPropertyOp0
 70
     1
102
RTVSPropertyOp1
 70
     1
102
RTVSPropertyOp2
 70
     1
102
RTVSPropertyOp3
 70
     1
102
RTVSPropertyOp4
 70
     1
102
RTVSPropertyOp5
 70
     1
102
RTVSPropertyOp6
 70
     1
102
RTVSPropertyOp7
 70
     1
102
RTVSPropertyOp8
 70
     1
102
RTVSPropertyOp9
 70
     1
102
RTVSPropertyOp10
 70
     1
102
RTVSPropertyOp11
 70
     1
102
RTVSPropertyOp12
 70
     1
102
RTVSPropertyOp13
 70
     1
102
RTVSPropertyOp14
 70
     1
102
RTVSPropertyOp15
 70
     1
102
RTVSPropertyOp16
 70
     1
102
RTVSPropertyOp17
 70
     1
102
RTVSPropertyOp18
 70
     1
102
RTVSPropertyOp19
 70
     1
102
RTVSPropertyOp20
 70
     1
102
RTVSPropertyOp21
 70
     1
102
RTVSPropertyOp22
 70
     1
102
RTVSPropertyOp23
 70
     1
102
RTVSPropertyOp24
 70
     1
102
RTVSPropertyOp25
 70
     1
102
RTVSPropertyOp26
 70
     1
102
RTVSPropertyOp27
 70
     1
  0
XRECORD
  5
143
102
{ACAD_REACTORS
330
142
102
}
330
142
100
AcDbXrecord
280
     1
102
RTVSPropertyOp0
 70
     1
102
RTVSPropertyOp1
 70
     1
102
RTVSPropertyOp2
 70
     1
102
RTVSPropertyOp3
 70
     1
102
RTVSPropertyOp4
 70
     1
102
RTVSPropertyOp5
 70
     1
102
RTVSPropertyOp6
 70
     1
102
RTVSPropertyOp7
 70
     1
102
RTVSPropertyOp8
 70
     1
102
RTVSPropertyOp9
 70
     1
102
RTVSPropertyOp10
 70
     1
102
RTVSPropertyOp11
 70
     1
102
RTVSPropertyOp12
 70
     1
102
RTVSPropertyOp13
 70
     1
102
RTVSPropertyOp14
 70
     1
102
RTVSPropertyOp15
 70
     1
102
RTVSPropertyOp16
 70
     1
102
RTVSPropertyOp17
 70
     1
102
RTVSPropertyOp18
 70
     1
102
RTVSPropertyOp19
 70
     1
102
RTVSPropertyOp20
 70
     1
102
RTVSPropertyOp21
 70
     1
102
RTVSPropertyOp22
 70
     1
102
RTVSPropertyOp23
 70
     1
102
RTVSPropertyOp24
 70
     1
102
RTVSPropertyOp25
 70
     1
102
RTVSPropertyOp26
 70
     1
102
RTVSPropertyOp27
 70
     1
  0
XRECORD
  5
157
102
{ACAD_REACTORS
330
156
102
}
330
156
100
AcDbXrecord
280
     1
102
RTVSPropertyOp0
 70
     1
102
RTVSPropertyOp1
 70
     1
102
RTVSPropertyOp2
 70
     1
102
RTVSPropertyOp3
 70
     1
102
RTVSPropertyOp4
 70
     1
102
RTVSPropertyOp5
 70
     1
102
RTVSPropertyOp6
 70
     1
102
RTVSPropertyOp7
 70
     1
102
RTVSPropertyOp8
 70
     1
102
RTVSPropertyOp9
 70
     1
102
RTVSPropertyOp10
 70
     1
102
RTVSPropertyOp11
 70
     1
102
RTVSPropertyOp12
 70
     1
102
RTVSPropertyOp13
 70
     1
102
RTVSPropertyOp14
 70
     1
102
RTVSPropertyOp15
 70
     1
102
RTVSPropertyOp16
 70
     1
102
RTVSPropertyOp17
 70
     1
102
RTVSPropertyOp18
 70
     1
102
RTVSPropertyOp19
 70
     1
102
RTVSPropertyOp20
 70
     1
102
RTVSPropertyOp21
 70
     1
102
RTVSPropertyOp22
 70
     1
102
RTVSPropertyOp23
 70
     1
102
RTVSPropertyOp24
 70
     1
102
RTVSPropertyOp25
 70
     1
102
RTVSPropertyOp26
 70
     1
102
RTVSPropertyOp27
 70
     1
  0
XRECORD
  5
14D
102
{ACAD_REACTORS
330
14C
102
}
330
14C
100
AcDbXrecord
280
     1
102
RTVSPropertyOp0
 70
     1
102
RTVSPropertyOp1
 70
     1
102
RTVSPropertyOp2
 70
     1
102
RTVSPropertyOp3
 70
     1
102
RTVSPropertyOp4
 70
     1
102
RTVSPropertyOp5
 70
     1
102
RTVSPropertyOp6
 70
     1
102
RTVSPropertyOp7
 70
     1
102
RTVSPropertyOp8
 70
     1
102
RTVSPropertyOp9
 70
     1
102
RTVSPropertyOp10
 70
     1
102
RTVSPropertyOp11
 70
     1
102
RTVSPropertyOp12
 70
     1
102
RTVSPropertyOp13
 70
     1
102
RTVSPropertyOp14
 70
     1
102
RTVSPropertyOp15
 70
     1
102
RTVSPropertyOp16
 70
     1
102
RTVSPropertyOp17
 70
     1
102
RTVSPropertyOp18
 70
     1
102
RTVSPropertyOp19
 70
     1
102
RTVSPropertyOp20
 70
     1
102
RTVSPropertyOp21
 70
     1
102
RTVSPropertyOp22
 70
     1
102
RTVSPropertyOp23
 70
     1
102
RTVSPropertyOp24
 70
     1
102
RTVSPropertyOp25
 70
     1
102
RTVSPropertyOp26
 70
     1
102
RTVSPropertyOp27
 70
     1
  0
XRECORD
  5
155
102
{ACAD_REACTORS
330
154
102
}
330
154
100
AcDbXrecord
280
     1
102
RTVSPropertyOp0
 70
     1
102
RTVSPropertyOp1
 70
     1
102
RTVSPropertyOp2
 70
     1
102
RTVSPropertyOp3
 70
     1
102
RTVSPropertyOp4
 70
     1
102
RTVSPropertyOp5
 70
     1
102
RTVSPropertyOp6
 70
     1
102
RTVSPropertyOp7
 70
     1
102
RTVSPropertyOp8
 70
     1
102
RTVSPropertyOp9
 70
     1
102
RTVSPropertyOp10
 70
     1
102
RTVSPropertyOp11
 70
     1
102
RTVSPropertyOp12
 70
     1
102
RTVSPropertyOp13
 70
     1
102
RTVSPropertyOp14
 70
     1
102
RTVSPropertyOp15
 70
     1
102
RTVSPropertyOp16
 70
     1
102
RTVSPropertyOp17
 70
     1
102
RTVSPropertyOp18
 70
     1
102
RTVSPropertyOp19
 70
     1
102
RTVSPropertyOp20
 70
     1
102
RTVSPropertyOp21
 70
     1
102
RTVSPropertyOp22
 70
     1
102
RTVSPropertyOp23
 70
     1
102
RTVSPropertyOp24
 70
     1
102
RTVSPropertyOp25
 70
     1
102
RTVSPropertyOp26
 70
     1
102
RTVSPropertyOp27
 70
     1
  0
ENDSEC
  0
EOF
