  0
SECTION
  2
HEADER
  9
$ACADVER
  1
AC1024
  9
$ACADMAINTVER
 70
     6
  9
$DWGCODEPAGE
  3
ANSI_1252
  9
$INSBASE
 10
0.0
 20
0.0
 30
0.0
  9
$EXTMIN
 10
-13.982744
 20
-3.419809
 30
-13.982744
  9
$EXTMAX
 10
-4.043559
 20
7.30668
 30
-4.043559
  9
$LIMMIN
 10
-13.982744
 20
-3.419809
  9
$LIMMAX
 10
-4.043559
 20
7.30668
  9
$ORTHOMODE
 70
     0
  9
$REGENMODE
 70
     1
  9
$FILLMODE
 70
     1
  9
$QTEXTMODE
 70
     0
  9
$MIRRTEXT
 70
     1
  9
$LTSCALE
 40
1.0
  9
$ATTMODE
 70
     1
  9
$TEXTSIZE
 40
0.2
  9
$TRACEWID
 40
0.05
  9
$TEXTSTYLE
  7
Standard
  9
$CLAYER
  8
0
  9
$CELTYPE
  6
ByLayer
  9
$CECOLOR
 62
   256
  9
$CELTSCALE
 40
1.0
  9
$DISPSILH
 70
     0
  9
$DIMSCALE
 40
1.0
  9
$DIMASZ
 40
0.18
  9
$DIMEXO
 40
0.0625
  9
$DIMDLI
 40
0.38
  9
$DIMRND
 40
0.0
  9
$DIMDLE
 40
0.0
  9
$DIMEXE
 40
0.18
  9
$DIMTP
 40
0.0
  9
$DIMTM
 40
0.0
  9
$DIMTXT
 40
0.18
  9
$DIMCEN
 40
0.09
  9
$DIMTSZ
 40
0.0
  9
$DIMTOL
 70
     0
  9
$DIMLIM
 70
     0
  9
$DIMTIH
 70
     1
  9
$DIMTOH
 70
     1
  9
$DIMSE1
 70
     0
  9
$DIMSE2
 70
     0
  9
$DIMTAD
 70
     0
  9
$DIMZIN
 70
     0
  9
$DIMBLK
  1

  9
$DIMASO
 70
     1
  9
$DIMSHO
 70
     1
  9
$DIMPOST
  1

  9
$DIMAPOST
  1

  9
$DIMALT
 70
     0
  9
$DIMALTD
 70
     2
  9
$DIMALTF
 40
25.4
  9
$DIMLFAC
 40
1.0
  9
$DIMTOFL
 70
     0
  9
$DIMTVP
 40
0.0
  9
$DIMTIX
 70
     0
  9
$DIMSOXD
 70
     0
  9
$DIMSAH
 70
     0
  9
$DIMBLK1
  1

  9
$DIMBLK2
  1

  9
$DIMSTYLE
  2
Standard
  9
$DIMCLRD
 70
     0
  9
$DIMCLRE
 70
     0
  9
$DIMCLRT
 70
     0
  9
$DIMTFAC
 40
1.0
  9
$DIMGAP
 40
0.09
  9
$DIMJUST
 70
     0
  9
$DIMSD1
 70
     0
  9
$DIMSD2
 70
     0
  9
$DIMTOLJ
 70
     1
  9
$DIMTZIN
 70
     0
  9
$DIMALTZ
 70
     0
  9
$DIMALTTZ
 70
     0
  9
$DIMUPT
 70
     0
  9
$DIMDEC
 70
     4
  9
$DIMTDEC
 70
     4
  9
$DIMALTU
 70
     2
  9
$DIMALTTD
 70
     2
  9
$DIMTXSTY
  7
Standard
  9
$DIMAUNIT
 70
     0
  9
$DIMADEC
 70
     0
  9
$DIMALTRND
 40
0.0
  9
$DIMAZIN
 70
     0
  9
$DIMDSEP
 70
    46
  9
$DIMATFIT
 70
     3
  9
$DIMFRAC
 70
     0
  9
$DIMLDRBLK
  1

  9
$DIMLUNIT
 70
     2
  9
$DIMLWD
 70
    -2
  9
$DIMLWE
 70
    -2
  9
$DIMTMOVE
 70
     0
  9
$DIMFXL
 40
1.0
  9
$DIMFXLON
 70
     0
  9
$DIMJOGANG
 40
0.785398
  9
$DIMTFILL
 70
     0
  9
$DIMTFILLCLR
 70
     0
  9
$DIMARCSYM
 70
     0
  9
$DIMLTYPE
  6

  9
$DIMLTEX1
  6

  9
$DIMLTEX2
  6

  9
$DIMTXTDIRECTION
 70
     0
  9
$LUNITS
 70
     2
  9
$LUPREC
 70
     4
  9
$SKETCHINC
 40
0.1
  9
$FILLETRAD
 40
0.5
  9
$AUNITS
 70
     0
  9
$AUPREC
 70
     0
  9
$MENU
  1
.
  9
$ELEVATION
 40
0.0
  9
$PELEVATION
 40
0.0
  9
$THICKNESS
 40
0.0
  9
$LIMCHECK
 70
     0
  9
$CHAMFERA
 40
0.0
  9
$CHAMFERB
 40
0.0
  9
$CHAMFERC
 40
0.0
  9
$CHAMFERD
 40
0.0
  9
$SKPOLY
 70
     0
  9
$TDCREATE
 40
2458169.419794607
  9
$TDUCREATE
 40
2458169.37812794
  9
$TDUPDATE
 40
2458169.419813229
  9
$TDUUPDATE
 40
2458169.378146563
  9
$TDINDWG
 40
0.0000000116
  9
$TDUSRTIMER
 40
0.0000000116
  9
$USRTIMER
 70
     1
  9
$ANGBASE
 50
0.0
  9
$ANGDIR
 70
     0
  9
$PDMODE
 70
    65
  9
$PDSIZE
 40
0.0
  9
$PLINEWID
 40
0.0
  9
$SPLFRAME
 70
     0
  9
$SPLINETYPE
 70
     6
  9
$SPLINESEGS
 70
     8
  9
$HANDSEED
  5
32A
  9
$SURFTAB1
 70
     6
  9
$SURFTAB2
 70
     6
  9
$SURFTYPE
 70
     6
  9
$SURFU
 70
     6
  9
$SURFV
 70
     6
  9
$UCSBASE
  2

  9
$UCSNAME
  2

  9
$UCSORG
 10
0.0
 20
0.0
 30
0.0
  9
$UCSXDIR
 10
1.0
 20
0.0
 30
0.0
  9
$UCSYDIR
 10
0.0
 20
1.0
 30
0.0
  9
$UCSORTHOREF
  2

  9
$UCSORTHOVIEW
 70
     0
  9
$UCSORGTOP
 10
0.0
 20
0.0
 30
0.0
  9
$UCSORGBOTTOM
 10
0.0
 20
0.0
 30
0.0
  9
$UCSORGLEFT
 10
0.0
 20
0.0
 30
0.0
  9
$UCSORGRIGHT
 10
0.0
 20
0.0
 30
0.0
  9
$UCSORGFRONT
 10
0.0
 20
0.0
 30
0.0
  9
$UCSORGBACK
 10
0.0
 20
0.0
 30
0.0
  9
$PUCSBASE
  2

  9
$PUCSNAME
  2

  9
$PUCSORG
 10
0.0
 20
0.0
 30
0.0
  9
$PUCSXDIR
 10
1.0
 20
0.0
 30
0.0
  9
$PUCSYDIR
 10
0.0
 20
1.0
 30
0.0
  9
$PUCSORTHOREF
  2

  9
$PUCSORTHOVIEW
 70
     0
  9
$PUCSORGTOP
 10
0.0
 20
0.0
 30
0.0
  9
$PUCSORGBOTTOM
 10
0.0
 20
0.0
 30
0.0
  9
$PUCSORGLEFT
 10
0.0
 20
0.0
 30
0.0
  9
$PUCSORGRIGHT
 10
0.0
 20
0.0
 30
0.0
  9
$PUCSORGFRONT
 10
0.0
 20
0.0
 30
0.0
  9
$PUCSORGBACK
 10
0.0
 20
0.0
 30
0.0
  9
$USERI1
 70
     0
  9
$USERI2
 70
     0
  9
$USERI3
 70
     0
  9
$USERI4
 70
     0
  9
$USERI5
 70
     0
  9
$USERR1
 40
0.0
  9
$USERR2
 40
0.0
  9
$USERR3
 40
0.0
  9
$USERR4
 40
0.0
  9
$USERR5
 40
0.0
  9
$WORLDVIEW
 70
     1
  9
$SHADEDGE
 70
     3
  9
$SHADEDIF
 70
    70
  9
$TILEMODE
 70
     0
  9
$MAXACTVP
 70
    64
  9
$PINSBASE
 10
0.0
 20
0.0
 30
0.0
  9
$PLIMCHECK
 70
     0
  9
$PEXTMIN
 10
-0.007634
 20
-0.393917
 30
0.0
  9
$PEXTMAX
 10
0.412366
 20
-0.096917
 30
0.0
  9
$PLIMMIN
 10
-0.007634
 20
-0.393917
  9
$PLIMMAX
 10
0.412366
 20
-0.096917
  9
$UNITMODE
 70
     0
  9
$VISRETAIN
 70
     1
  9
$PLINEGEN
 70
     0
  9
$PSLTSCALE
 70
     0
  9
$TREEDEPTH
 70
  3020
  9
$CMLSTYLE
  2
Standard
  9
$CMLJUST
 70
     0
  9
$CMLSCALE
 40
1.0
  9
$PROXYGRAPHICS
 70
     1
  9
$MEASUREMENT
 70
     1
  9
$CELWEIGHT
370
    -1
  9
$ENDCAPS
280
     0
  9
$JOINSTYLE
280
     0
  9
$LWDISPLAY
290
     0
  9
$INSUNITS
 70
     6
  9
$HYPERLINKBASE
  1

  9
$STYLESHEET
  1

  9
$XEDIT
290
     1
  9
$CEPSNTYPE
380
     0
  9
$PSTYLEMODE
290
     1
  9
$FINGERPRINTGUID
  2
{0219F74E-84DC-4ADF-B7A0-571C2A0FE12D}
  9
$VERSIONGUID
  2
{FAEB1C32-E019-11D5-929B-00C0DF256EC4}
  9
$EXTNAMES
290
     1
  9
$PSVPSCALE
 40
0.0
  9
$OLESTARTUP
290
     0
  9
$SORTENTS
280
   127
  9
$INDEXCTL
280
     0
  9
$HIDETEXT
280
     1
  9
$XCLIPFRAME
280
     2
  9
$HALOGAP
280
     0
  9
$OBSCOLOR
 70
   257
  9
$OBSLTYPE
280
     0
  9
$INTERSECTIONDISPLAY
280
     0
  9
$INTERSECTIONCOLOR
 70
   257
  9
$DIMASSOC
280
     2
  9
$PROJECTNAME
  1

  9
$CAMERADISPLAY
290
     0
  9
$LENSLENGTH
 40
50.0
  9
$CAMERAHEIGHT
 40
0.0
  9
$STEPSPERSEC
 40
2.0
  9
$STEPSIZE
 40
6.0
  9
$3DDWFPREC
 40
2.0
  9
$PSOLWIDTH
 40
0.25
  9
$PSOLHEIGHT
 40
4.0
  9
$LOFTANG1
 40
1.570796
  9
$LOFTANG2
 40
1.570796
  9
$LOFTMAG1
 40
0.0
  9
$LOFTMAG2
 40
0.0
  9
$LOFTPARAM
 70
     7
  9
$LOFTNORMALS
280
     1
  9
$LATITUDE
 40
37.795
  9
$LONGITUDE
 40
-122.394
  9
$NORTHDIRECTION
 40
0.0
  9
$TIMEZONE
 70
 -8000
  9
$LIGHTGLYPHDISPLAY
280
     1
  9
$TILEMODELIGHTSYNCH
280
     1
  9
$CMATERIAL
347
44
  9
$SOLIDHIST
280
     0
  9
$SHOWHIST
280
     1
  9
$DWFFRAME
280
     2
  9
$DGNFRAME
280
     2
  9
$REALWORLDSCALE
290
     1
  9
$INTERFERECOLOR
 62
   256
  9
$CSHADOW
280
     0
  9
$SHADOWPLANELOCATION
 40
0.0
  0
ENDSEC
  0
SECTION
  2
CLASSES
  0
CLASS
  1
ACDBDICTIONARYWDFLT
  2
AcDbDictionaryWithDefault
  3
ObjectDBX Classes
 90
        0
 91
       10
280
     0
281
     0
  0
CLASS
  1
VISUALSTYLE
  2
AcDbVisualStyle
  3
ObjectDBX Classes
 90
     4095
 91
       10
280
     0
281
     0
  0
CLASS
  1
MATERIAL
  2
AcDbMaterial
  3
ObjectDBX Classes
 90
     1153
 91
       10
280
     0
281
     0
  0
CLASS
  1
SCALE
  2
AcDbScale
  3
ObjectDBX Classes
 90
     1153
 91
       10
280
     0
281
     0
  0
CLASS
  1
TABLESTYLE
  2
AcDbTableStyle
  3
ObjectDBX Classes
 90
     4095
 91
       10
280
     0
281
     0
  0
CLASS
  1
MLEADERSTYLE
  2
AcDbMLeaderStyle
  3
ACDB_MLEADERSTYLE_CLASS
 90
     4095
 91
       10
280
     0
281
     0
  0
CLASS
  1
SUN
  2
AcDbSun
  3
SCENEOE
 90
     1153
 91
       10
280
     0
281
     0
  0
CLASS
  1
SORTENTSTABLE
  2
AcDbSortentsTable
  3
ObjectDBX Classes
 90
        0
 91
        9
280
     0
281
     0
  0
CLASS
  1
DICTIONARYVAR
  2
AcDbDictionaryVar
  3
ObjectDBX Classes
 90
        0
 91
        9
280
     0
281
     0
  0
CLASS
  1
CELLSTYLEMAP
  2
AcDbCellStyleMap
  3
ObjectDBX Classes
 90
     1152
 91
        9
280
     0
281
     0
  0
ENDSEC
  0
SECTION
  2
TABLES
  0
TABLE
  2
VPORT
  5
8
330
0
100
AcDbSymbolTable
 70
     1
  0
VPORT
  5
29
330
8
100
AcDbSymbolTableRecord
100
AcDbViewportTableRecord
  2
*Active
 70
     0
 10
0.0
 20
0.0
 11
1.0
 21
1.0
 12
-9.013152
 22
1.943436
 13
0.0
 23
0.0
 14
0.5
 24
0.5
 15
0.5
 25
0.5
 16
0.0
 26
0.0
 36
1.0
 17
0.0
 27
0.0
 37
0.0
 40
12.871787
 41
1.111922
 42
50.0
 43
0.0
 44
0.0
 50
0.0
 51
0.0
 71
     0
 72
   100
 73
     1
 74
     3
 75
     0
 76
     0
 77
     0
 78
     0
281
     0
 65
     1
110
0.0
120
0.0
130
0.0
111
1.0
121
0.0
131
0.0
112
0.0
122
1.0
132
0.0
 79
     0
146
0.0
 60
     3
 61
     5
292
     1
282
     1
141
0.0
142
0.0
 63
   250
361
6D
  0
ENDTAB
  0
TABLE
  2
LTYPE
  5
5
330
0
100
AcDbSymbolTable
 70
     7
  0
LTYPE
  5
14
330
5
100
AcDbSymbolTableRecord
100
AcDbLinetypeTableRecord
  2
ByBlock
 70
     0
  3

 72
    65
 73
     0
 40
0.0
  0
LTYPE
  5
15
330
5
100
AcDbSymbolTableRecord
100
AcDbLinetypeTableRecord
  2
ByLayer
 70
     0
  3

 72
    65
 73
     0
 40
0.0
  0
LTYPE
  5
16
330
5
100
AcDbSymbolTableRecord
100
AcDbLinetypeTableRecord
  2
Continuous
 70
     0
  3
Solid line
 72
    65
 73
     0
 40
0.0
  0
LTYPE
  5
74
330
5
100
AcDbSymbolTableRecord
100
AcDbLinetypeTableRecord
  2
AUSGEZOGEN
 70
     0
  3
durchgezogene Linie
 72
    65
 73
     0
 40
0.0
  0
LTYPE
  5
75
330
5
100
AcDbSymbolTableRecord
100
AcDbLinetypeTableRecord
  2
PUNKT2_S9
 70
     0
  3
Eng Punktiert
 72
    65
 73
     2
 40
0.0001
 49
0.0
 74
     0
 49
-0.0001
 74
     0
  0
LTYPE
  5
76
330
5
100
AcDbSymbolTableRecord
100
AcDbLinetypeTableRecord
  2
STRICHPUNKT2_S5
 70
     0
  3
Lang eng gestrichelt bzw. punktiert
 72
    65
 73
     4
 40
0.007
 49
0.004
 74
     0
 49
-0.0015
 74
     0
 49
0.0
 74
     0
 49
-0.0015
 74
     0
  0
LTYPE
  5
B2
330
5
100
AcDbSymbolTableRecord
100
AcDbLinetypeTableRecord
  2
ALL_S18
 70
     0
  3
Punktiert
 72
    65
 73
     2
 40
0.05
 49
0.0
 74
     0
 49
-0.05
 74
     0
  0
LTYPE
  5
B3
330
5
100
AcDbSymbolTableRecord
100
AcDbLinetypeTableRecord
  2
STRICHLINIE_S4
 70
     0
  3
Langgestrichelt
 72
    65
 73
     2
 40
0.025
 49
0.0
 74
     0
 49
-0.025
 74
     0
  0
LTYPE
  5
B4
330
5
100
AcDbSymbolTableRecord
100
AcDbLinetypeTableRecord
  2
VERDECKT2_S2
 70
     0
  3
Kurzgestrichelt
 72
    65
 73
     2
 40
0.3
 49
0.2
 74
     0
 49
-0.1
 74
     0
  0
ENDTAB
  0
TABLE
  2
LAYER
  5
2
330
0
100
AcDbSymbolTable
 70
     6
  0
LAYER
  5
10
330
2
100
AcDbSymbolTableRecord
100
AcDbLayerTableRecord
  2
0
 70
     0
 62
     7
  6
Continuous
370
    -3
390
F
347
46
  0
LAYER
  5
77
330
2
100
AcDbSymbolTableRecord
100
AcDbLayerTableRecord
  2
L_KLIMAGERAET
 70
     0
 62
   253
  6
AUSGEZOGEN
370
    35
390
F
347
46
1001
AcAecLayerStandard
1000

1000
EXT0010139, an
  0
LAYER
  5
79
330
2
100
AcDbSymbolTableRecord
100
AcDbLayerTableRecord
  2
STANDARD
 70
     0
 62
     7
  6
AUSGEZOGEN
370
    25
390
F
347
46
1001
AcAecLayerStandard
1000

1000
STANDARD
  0
LAYER
  5
B5
330
2
100
AcDbSymbolTableRecord
100
AcDbLayerTableRecord
  2
XR$1$ALLGEMEIN
 70
     0
 62
     7
  6
AUSGEZOGEN
370
    25
390
F
347
46
1001
AcAecLayerStandard
1000

1000
ML_ALL, an
  0
LAYER
  5
B6
330
2
100
AcDbSymbolTableRecord
100
AcDbLayerTableRecord
  2
XR$1$STANDARD_1
 70
     0
 62
     7
  6
AUSGEZOGEN
370
    25
390
F
347
46
1001
AcAecLayerStandard
1000

1000
STANDARD
  0
LAYER
  5
101
330
2
100
AcDbSymbolTableRecord
100
AcDbLayerTableRecord
  2
DEFPOINTS
 70
     0
 62
     7
  6
Continuous
290
     0
370
    -3
390
F
347
46
  0
ENDTAB
  0
TABLE
  2
STYLE
  5
3
330
0
100
AcDbSymbolTable
 70
     4
  0
STYLE
  5
11
330
3
100
AcDbSymbolTableRecord
100
AcDbTextStyleTableRecord
  2
Standard
 70
     0
 40
0.0
 41
1.0
 50
0.0
 71
     0
 42
0.2
  3
txt
  4

  0
STYLE
  5
7A
330
3
100
AcDbSymbolTableRecord
100
AcDbTextStyleTableRecord
  2
CALIBRI
 70
     0
 40
0.0
 41
1.0
 50
0.0
 71
     0
 42
0.2
  3
Calibri
  4

1001
ACAD
1000
Calibri
1071
        0
  0
STYLE
  5
7B
330
3
100
AcDbSymbolTableRecord
100
AcDbTextStyleTableRecord
  2
MICROSOFT_SANS_SERIF
 70
     0
 40
0.0
 41
1.0
 50
0.0
 71
     0
 42
0.2
  3
Microsoft Sans Serif
  4

1001
ACAD
1000
Microsoft Sans Serif
1071
        0
  0
STYLE
  5
B1
330
3
100
AcDbSymbolTableRecord
100
AcDbTextStyleTableRecord
  2
ARIAL
 70
     0
 40
0.0
 41
1.0
 50
0.0
 71
     0
 42
0.2
  3
ARIAL.TTF
  4

1001
ACAD
1000
Arial
1071
       34
  0
ENDTAB
  0
TABLE
  2
VIEW
  5
6
330
0
100
AcDbSymbolTable
 70
     0
  0
ENDTAB
  0
TABLE
  2
UCS
  5
7
330
0
100
AcDbSymbolTable
 70
     0
  0
ENDTAB
  0
TABLE
  2
APPID
  5
9
330
0
100
AcDbSymbolTable
 70
     3
  0
APPID
  5
12
330
9
100
AcDbSymbolTableRecord
100
AcDbRegAppTableRecord
  2
ACAD
 70
     0
  0
APPID
  5
78
330
9
100
AcDbSymbolTableRecord
100
AcDbRegAppTableRecord
  2
AcAecLayerStandard
 70
     0
  0
APPID
  5
113
330
9
100
AcDbSymbolTableRecord
100
AcDbRegAppTableRecord
  2
NEM_ODX
 70
     0
  0
ENDTAB
  0
TABLE
  2
DIMSTYLE
  5
A
330
0
100
AcDbSymbolTable
 70
     9
100
AcDbDimStyleTable
  0
DIMSTYLE
105
27
330
A
100
AcDbSymbolTableRecord
100
AcDbDimStyleTableRecord
  2
Standard
 70
     0
178
     0
340
11
  0
DIMSTYLE
105
112
102
{ACAD_REACTORS
330
114
102
}
330
A
100
AcDbSymbolTableRecord
100
AcDbDimStyleTableRecord
  2
DIMSTYLE_2
 70
     0
  3
<>
 41
0.15
 42
0.000001
 43
0.0
 44
0.0
 45
0.005
 49
0.0
 73
     0
 74
     0
 75
     1
 76
     1
 77
     2
 78
     4
140
0.15
141
0.0
147
0.075
172
     1
173
     1
174
     1
176
    94
177
    94
271
     2
178
    94
271
     2
272
     0
274
     0
278
     0
279
     2
283
     0
340
7A
343
102
344
102
371
     0
372
    25
  0
DIMSTYLE
105
11F
102
{ACAD_REACTORS
330
120
102
}
330
A
100
AcDbSymbolTableRecord
100
AcDbDimStyleTableRecord
  2
DIMSTYLE_3
 70
     0
  3
<>
 41
0.15
 42
0.000001
 43
0.0
 44
0.0
 45
0.5
 49
0.0
 73
     0
 74
     0
 75
     1
 76
     1
 77
     2
 78
     4
140
0.15
141
0.0
144
100.0
147
0.075
172
     1
173
     1
174
     1
176
    94
177
    94
271
     1
178
    94
271
     1
272
     0
274
     0
278
     0
279
     2
283
     0
340
7A
343
102
344
102
371
     0
372
    25
  0
DIMSTYLE
105
12B
102
{ACAD_REACTORS
330
12C
330
143
330
14E
102
}
330
A
100
AcDbSymbolTableRecord
100
AcDbDimStyleTableRecord
  2
DIMSTYLE_4
 70
     0
  3
<>
 41
0.15
 42
0.000001
 43
0.0
 44
0.0
 45
0.005
 49
0.0
 73
     0
 74
     0
 75
     1
 76
     1
 77
     2
 78
     4
140
0.15
141
0.0
147
0.075
172
     1
173
     1
174
     1
176
    94
177
    94
271
     2
178
    94
271
     2
272
     0
274
     0
278
     0
279
     2
283
     0
340
7A
343
102
344
102
371
     0
372
    25
  0
DIMSTYLE
105
137
102
{ACAD_REACTORS
330
138
102
}
330
A
100
AcDbSymbolTableRecord
100
AcDbDimStyleTableRecord
  2
DIMSTYLE_5
 70
     0
  3
<>
 41
0.15
 42
0.000001
 43
0.0
 44
0.0
 45
0.5
 49
0.0
 73
     0
 74
     0
 75
     1
 76
     1
 77
     2
 78
     4
140
0.15
141
0.0
144
100.0
147
0.075
172
     1
173
     1
174
     1
176
    94
177
    94
271
     1
178
    94
271
     1
272
     0
274
     0
278
     0
279
     2
283
     0
340
7A
343
102
344
102
371
     0
372
    25
  0
DIMSTYLE
105
1AD
102
{ACAD_REACTORS
330
1AE
102
}
330
A
100
AcDbSymbolTableRecord
100
AcDbDimStyleTableRecord
  2
DIMSTYLE_6
 70
     0
  3
<>
 41
0.15
 42
0.000001
 43
0.0
 44
0.0
 45
0.01
 49
0.0
 73
     0
 74
     0
 75
     1
 76
     1
 77
     2
 78
     4
140
0.15
141
0.0
144
100.0
145
1.2
147
0.075
172
     1
173
     1
174
     1
176
    94
177
    94
271
     1
178
    94
271
     1
272
     0
274
     0
278
     0
279
     2
283
     0
340
7A
343
102
344
102
371
     0
372
    25
  0
DIMSTYLE
105
1CA
102
{ACAD_REACTORS
330
1CB
102
}
330
A
100
AcDbSymbolTableRecord
100
AcDbDimStyleTableRecord
  2
DIMSTYLE_7
 70
     0
  3
<>
 41
0.15
 42
0.000001
 43
0.0
 44
0.0
 45
0.0001
 49
0.0
 73
     0
 74
     0
 75
     1
 76
     1
 77
     2
 78
     4
140
0.15
141
0.0
147
0.075
172
     1
173
     1
174
     1
176
    94
177
    94
271
     2
178
    94
271
     2
272
     0
274
     0
278
     0
279
     2
283
     0
340
7A
343
102
344
102
371
     0
372
    25
  0
DIMSTYLE
105
225
102
{ACAD_REACTORS
330
226
330
231
330
298
102
}
330
A
100
AcDbSymbolTableRecord
100
AcDbDimStyleTableRecord
  2
DIMSTYLE_8
 70
     0
  3
<>
 41
0.15
 42
0.000001
 43
0.0
 44
0.0
 45
0.0001
 49
0.0
 73
     0
 74
     0
 75
     1
 76
     1
 77
     2
 78
     4
140
0.15
141
0.0
147
0.075
172
     1
173
     1
174
     1
176
    94
177
    94
271
     2
178
    94
271
     2
272
     0
274
     0
278
     0
279
     2
283
     0
340
7A
343
102
344
102
371
     0
372
    25
  0
DIMSTYLE
105
27B
102
{ACAD_REACTORS
330
27C
102
}
330
A
100
AcDbSymbolTableRecord
100
AcDbDimStyleTableRecord
  2
DIMSTYLE_9
 70
     0
  3
<>
 41
0.15
 42
0.000001
 43
0.0
 44
0.0
 45
0.01
 49
0.0
 73
     0
 74
     0
 75
     1
 76
     1
 77
     2
 78
     4
140
0.15
141
0.0
144
100.0
145
1.2
147
0.075
172
     1
173
     1
174
     1
176
    94
177
    94
271
     1
178
    94
271
     1
272
     0
274
     0
278
     0
279
     2
283
     0
340
7A
343
102
344
102
371
     0
372
    25
  0
ENDTAB
  0
TABLE
  2
BLOCK_RECORD
  5
1
330
0
100
AcDbSymbolTable
 70
    27
  0
BLOCK_RECORD
  5
1F
330
1
100
AcDbSymbolTableRecord
100
AcDbBlockTableRecord
  2
*Model_Space
340
22
 70
     0
280
     1
281
     0
  0
BLOCK_RECORD
  5
6E
102
{ACAD_XDICTIONARY
360
AF
102
}
330
1
100
AcDbSymbolTableRecord
100
AcDbBlockTableRecord
  2
*Paper_Space
340
6F
 70
     0
280
     1
281
     0
  0
BLOCK_RECORD
  5
B7
330
1
100
AcDbSymbolTableRecord
100
AcDbBlockTableRecord
  2
NSY140
340
0
 70
     6
280
     1
281
     0
  0
BLOCK_RECORD
  5
BD
330
1
100
AcDbSymbolTableRecord
100
AcDbBlockTableRecord
  2
NSY202
340
0
102
{BLKREFS
331
2E3
331
2E5
331
2E9
331
2EB
102
}
 70
     6
280
     1
281
     0
  0
BLOCK_RECORD
  5
E3
330
1
100
AcDbSymbolTableRecord
100
AcDbBlockTableRecord
  2
MUSTERELEMENT_0
340
0
102
{BLKREFS
331
EE
102
}
 70
     6
280
     1
281
     0
  0
BLOCK_RECORD
  5
F1
330
1
100
AcDbSymbolTableRecord
100
AcDbBlockTableRecord
  2
MUSTERELEMENT_1
340
0
102
{BLKREFS
331
100
102
}
 70
     6
280
     1
281
     0
  0
BLOCK_RECORD
  5
102
330
1
100
AcDbSymbolTableRecord
100
AcDbBlockTableRecord
  2
ALL_ML_STRICH
340
0
102
{BLKREFS
331
10D
331
10E
331
11A
331
11B
331
126
331
127
331
132
331
133
331
13E
331
13F
331
149
331
14A
331
1A8
331
1A9
331
1C5
331
1C6
331
220
331
221
331
22C
331
22D
331
276
331
277
331
293
331
294
102
}
 70
     6
280
     1
281
     0
  0
BLOCK_RECORD
  5
108
330
1
100
AcDbSymbolTableRecord
100
AcDbBlockTableRecord
  2
*D7
340
0
 70
     6
280
     1
281
     0
  0
BLOCK_RECORD
  5
115
330
1
100
AcDbSymbolTableRecord
100
AcDbBlockTableRecord
  2
*D8
340
0
 70
     6
280
     1
281
     0
  0
BLOCK_RECORD
  5
121
330
1
100
AcDbSymbolTableRecord
100
AcDbBlockTableRecord
  2
*D9
340
0
 70
     6
280
     1
281
     0
  0
BLOCK_RECORD
  5
12D
330
1
100
AcDbSymbolTableRecord
100
AcDbBlockTableRecord
  2
*D10
340
0
 70
     6
280
     1
281
     0
  0
BLOCK_RECORD
  5
139
330
1
100
AcDbSymbolTableRecord
100
AcDbBlockTableRecord
  2
*D11
340
0
 70
     6
280
     1
281
     0
  0
BLOCK_RECORD
  5
144
330
1
100
AcDbSymbolTableRecord
100
AcDbBlockTableRecord
  2
*D12
340
0
 70
     6
280
     1
281
     0
  0
BLOCK_RECORD
  5
14F
330
1
100
AcDbSymbolTableRecord
100
AcDbBlockTableRecord
  2
MUSTERELEMENT_2
340
0
102
{BLKREFS
331
158
102
}
 70
     6
280
     1
281
     0
  0
BLOCK_RECORD
  5
159
330
1
100
AcDbSymbolTableRecord
100
AcDbBlockTableRecord
  2
MUSTERELEMENT_3
340
0
102
{BLKREFS
331
162
102
}
 70
     6
280
     1
281
     0
  0
BLOCK_RECORD
  5
17F
330
1
100
AcDbSymbolTableRecord
100
AcDbBlockTableRecord
  2
MUSTERELEMENT_4
340
0
102
{BLKREFS
331
1A2
102
}
 70
     6
280
     1
281
     0
  0
BLOCK_RECORD
  5
1A3
330
1
100
AcDbSymbolTableRecord
100
AcDbBlockTableRecord
  2
*D16
340
0
 70
     6
280
     1
281
     0
  0
BLOCK_RECORD
  5
1C0
330
1
100
AcDbSymbolTableRecord
100
AcDbBlockTableRecord
  2
*D17
340
0
 70
     6
280
     1
281
     0
  0
BLOCK_RECORD
  5
1CD
330
1
100
AcDbSymbolTableRecord
100
AcDbBlockTableRecord
  2
MUSTERELEMENT_5
340
0
102
{BLKREFS
331
1F5
102
}
 70
     6
280
     1
281
     0
  0
BLOCK_RECORD
  5
1F7
330
1
100
AcDbSymbolTableRecord
100
AcDbBlockTableRecord
  2
MUSTERELEMENT_6
340
0
102
{BLKREFS
331
212
102
}
 70
     6
280
     1
281
     0
  0
BLOCK_RECORD
  5
21B
330
1
100
AcDbSymbolTableRecord
100
AcDbBlockTableRecord
  2
*D20
340
0
 70
     6
280
     1
281
     0
  0
BLOCK_RECORD
  5
227
330
1
100
AcDbSymbolTableRecord
100
AcDbBlockTableRecord
  2
*D21
340
0
 70
     6
280
     1
281
     0
  0
BLOCK_RECORD
  5
24D
330
1
100
AcDbSymbolTableRecord
100
AcDbBlockTableRecord
  2
MUSTERELEMENT_7
340
0
102
{BLKREFS
331
270
102
}
 70
     6
280
     1
281
     0
  0
BLOCK_RECORD
  5
271
330
1
100
AcDbSymbolTableRecord
100
AcDbBlockTableRecord
  2
*D23
340
0
 70
     6
280
     1
281
     0
  0
BLOCK_RECORD
  5
28E
330
1
100
AcDbSymbolTableRecord
100
AcDbBlockTableRecord
  2
*D24
340
0
 70
     6
280
     1
281
     0
  0
BLOCK_RECORD
  5
29A
330
1
100
AcDbSymbolTableRecord
100
AcDbBlockTableRecord
  2
MUSTERELEMENT_8
340
0
102
{BLKREFS
331
2C2
102
}
 70
     6
280
     1
281
     0
  0
BLOCK_RECORD
  5
2C4
330
1
100
AcDbSymbolTableRecord
100
AcDbBlockTableRecord
  2
MUSTERELEMENT_9
340
0
102
{BLKREFS
331
2DF
102
}
 70
     6
280
     1
281
     0
  0
ENDTAB
  0
ENDSEC
  0
SECTION
  2
BLOCKS
  0
BLOCK
  5
20
330
1F
100
AcDbEntity
  8
0
100
AcDbBlockBegin
  2
*Model_Space
 70
     0
 10
0.0
 20
0.0
 30
0.0
  3
*Model_Space
  1
*Model_Space
  0
ENDBLK
  5
21
330
1F
100
AcDbEntity
  8
0
100
AcDbBlockEnd
  0
BLOCK
  5
70
330
6E
100
AcDbEntity
 67
     1
  8
0
100
AcDbBlockBegin
  2
*Paper_Space
 70
     0
 10
0.0
 20
0.0
 30
0.0
  3
*Paper_Space
  1
*Paper_Space
  0
ENDBLK
  5
71
330
6E
100
AcDbEntity
 67
     1
  8
0
100
AcDbBlockEnd
  0
BLOCK
  5
B8
330
B7
100
AcDbEntity
  8
0
100
AcDbBlockBegin
  2
NSY140
 70
     0
 10
0.0
 20
0.0
 30
0.0
  3
NSY140
  1
NSY140
  0
LINE
  5
BA
330
B7
100
AcDbEntity
  8
0
  6
ByBlock
 62
     0
370
    -2
100
AcDbLine
 10
0.0
 20
-0.025
 30
0.0
 11
0.0
 21
0.025
 31
0.0
  0
LINE
  5
BB
330
B7
100
AcDbEntity
  8
0
  6
ByBlock
 62
     0
370
    -2
100
AcDbLine
 10
-0.025
 20
0.0
 30
0.0
 11
0.025
 21
0.0
 31
0.0
  0
LINE
  5
BC
330
B7
100
AcDbEntity
  8
0
  6
ByBlock
 62
     0
370
    -2
100
AcDbLine
 10
-0.015
 20
-0.015
 30
0.0
 11
0.015
 21
0.015
 31
0.0
  0
ENDBLK
  5
B9
330
B7
100
AcDbEntity
  8
0
100
AcDbBlockEnd
  0
BLOCK
  5
BE
330
BD
100
AcDbEntity
  8
0
100
AcDbBlockBegin
  2
NSY202
 70
     0
 10
0.0
 20
0.0
 30
0.0
  3
NSY202
  1
NSY202
  0
LINE
  5
C0
330
BD
100
AcDbEntity
  8
0
  6
ByBlock
 62
     0
370
    -2
100
AcDbLine
 10
-0.02625
 20
0.0375
 30
0.0
 11
0.0
 21
0.0375
 31
0.0
  0
LINE
  5
C1
330
BD
100
AcDbEntity
  8
0
  6
ByBlock
 62
     0
370
    -2
100
AcDbLine
 10
0.0
 20
0.0375
 30
0.0
 11
0.02625
 21
0.0375
 31
0.0
  0
LINE
  5
C2
330
BD
100
AcDbEntity
  8
0
  6
ByBlock
 62
     0
370
    -2
100
AcDbLine
 10
0.02625
 20
0.0375
 30
0.0
 11
0.0
 21
0.0
 31
0.0
  0
LINE
  5
C3
330
BD
100
AcDbEntity
  8
0
  6
ByBlock
 62
     0
370
    -2
100
AcDbLine
 10
0.0
 20
0.0
 30
0.0
 11
-0.02625
 21
0.0375
 31
0.0
  0
LINE
  5
C4
330
BD
100
AcDbEntity
  8
0
  6
ByBlock
 62
     0
370
    -2
100
AcDbLine
 10
-0.01905
 20
0.03375
 30
0.0
 11
0.0
 21
0.03375
 31
0.0
  0
LINE
  5
C5
330
BD
100
AcDbEntity
  8
0
  6
ByBlock
 62
     0
370
    -2
100
AcDbLine
 10
0.0
 20
0.03375
 30
0.0
 11
0.01905
 21
0.03375
 31
0.0
  0
LINE
  5
C6
330
BD
100
AcDbEntity
  8
0
  6
ByBlock
 62
     0
370
    -2
100
AcDbLine
 10
0.01905
 20
0.03375
 30
0.0
 11
0.0
 21
0.006525
 31
0.0
  0
LINE
  5
C7
330
BD
100
AcDbEntity
  8
0
  6
ByBlock
 62
     0
370
    -2
100
AcDbLine
 10
0.0
 20
0.006525
 30
0.0
 11
-0.01905
 21
0.03375
 31
0.0
  0
LINE
  5
C8
330
BD
100
AcDbEntity
  8
0
  6
ByBlock
 62
     0
370
    -2
100
AcDbLine
 10
-0.011888
 20
0.03
 30
0.0
 11
0.0
 21
0.03
 31
0.0
  0
LINE
  5
C9
330
BD
100
AcDbEntity
  8
0
  6
ByBlock
 62
     0
370
    -2
100
AcDbLine
 10
0.0
 20
0.03
 30
0.0
 11
0.011888
 21
0.03
 31
0.0
  0
LINE
  5
CA
330
BD
100
AcDbEntity
  8
0
  6
ByBlock
 62
     0
370
    -2
100
AcDbLine
 10
0.011888
 20
0.03
 30
0.0
 11
0.0
 21
0.01305
 31
0.0
  0
LINE
  5
CB
330
BD
100
AcDbEntity
  8
0
  6
ByBlock
 62
     0
370
    -2
100
AcDbLine
 10
0.0
 20
0.01305
 30
0.0
 11
-0.011888
 21
0.03
 31
0.0
  0
LINE
  5
CC
330
BD
100
AcDbEntity
  8
0
  6
ByBlock
 62
     0
370
    -2
100
AcDbLine
 10
-0.004725
 20
0.02625
 30
0.0
 11
0.0
 21
0.02625
 31
0.0
  0
LINE
  5
CD
330
BD
100
AcDbEntity
  8
0
  6
ByBlock
 62
     0
370
    -2
100
AcDbLine
 10
0.0
 20
0.02625
 30
0.0
 11
0.004725
 21
0.02625
 31
0.0
  0
LINE
  5
CE
330
BD
100
AcDbEntity
  8
0
  6
ByBlock
 62
     0
370
    -2
100
AcDbLine
 10
0.004725
 20
0.02625
 30
0.0
 11
0.0
 21
0.019575
 31
0.0
  0
LINE
  5
CF
330
BD
100
AcDbEntity
  8
0
  6
ByBlock
 62
     0
370
    -2
100
AcDbLine
 10
0.0
 20
0.019575
 30
0.0
 11
-0.004725
 21
0.02625
 31
0.0
  0
LINE
  5
D0
330
BD
100
AcDbEntity
  8
0
  6
ByBlock
 62
     0
370
    -2
100
AcDbLine
 10
0.01545
 20
0.031875
 30
0.0
 11
-0.01545
 21
0.031875
 31
0.0
  0
LINE
  5
D1
330
BD
100
AcDbEntity
  8
0
  6
ByBlock
 62
     0
370
    -2
100
AcDbLine
 10
-0.01545
 20
0.031875
 30
0.0
 11
0.0
 21
0.009788
 31
0.0
  0
LINE
  5
D2
330
BD
100
AcDbEntity
  8
0
  6
ByBlock
 62
     0
370
    -2
100
AcDbLine
 10
0.0
 20
0.009788
 30
0.0
 11
0.01545
 21
0.031875
 31
0.0
  0
LINE
  5
D3
330
BD
100
AcDbEntity
  8
0
  6
ByBlock
 62
     0
370
    -2
100
AcDbLine
 10
0.00825
 20
0.028125
 30
0.0
 11
-0.00825
 21
0.028125
 31
0.0
  0
LINE
  5
D4
330
BD
100
AcDbEntity
  8
0
  6
ByBlock
 62
     0
370
    -2
100
AcDbLine
 10
-0.00825
 20
0.028125
 30
0.0
 11
0.0
 21
0.01635
 31
0.0
  0
LINE
  5
D5
330
BD
100
AcDbEntity
  8
0
  6
ByBlock
 62
     0
370
    -2
100
AcDbLine
 10
0.0
 20
0.01635
 30
0.0
 11
0.00825
 21
0.028125
 31
0.0
  0
LINE
  5
D6
330
BD
100
AcDbEntity
  8
0
  6
ByBlock
 62
     0
370
    -2
100
AcDbLine
 10
0.00105
 20
0.024375
 30
0.0
 11
-0.00105
 21
0.024375
 31
0.0
  0
LINE
  5
D7
330
BD
100
AcDbEntity
  8
0
  6
ByBlock
 62
     0
370
    -2
100
AcDbLine
 10
-0.00105
 20
0.024375
 30
0.0
 11
0.0
 21
0.022875
 31
0.0
  0
LINE
  5
D8
330
BD
100
AcDbEntity
  8
0
  6
ByBlock
 62
     0
370
    -2
100
AcDbLine
 10
0.0
 20
0.022875
 30
0.0
 11
0.00105
 21
0.024375
 31
0.0
  0
LINE
  5
D9
330
BD
100
AcDbEntity
  8
0
  6
ByBlock
 62
     0
370
    -2
100
AcDbLine
 10
0.02265
 20
0.035625
 30
0.0
 11
-0.02265
 21
0.035625
 31
0.0
  0
LINE
  5
DA
330
BD
100
AcDbEntity
  8
0
  6
ByBlock
 62
     0
370
    -2
100
AcDbLine
 10
-0.02265
 20
0.035625
 30
0.0
 11
0.0
 21
0.003263
 31
0.0
  0
LINE
  5
DB
330
BD
100
AcDbEntity
  8
0
  6
ByBlock
 62
     0
370
    -2
100
AcDbLine
 10
0.0
 20
0.003263
 30
0.0
 11
0.02265
 21
0.035625
 31
0.0
  0
ENDBLK
  5
BF
330
BD
100
AcDbEntity
  8
0
100
AcDbBlockEnd
  0
BLOCK
  5
E4
330
E3
100
AcDbEntity
  8
0
100
AcDbBlockBegin
  2
MUSTERELEMENT_0
 70
     0
 10
0.0
 20
0.0
 30
0.0
  3
MUSTERELEMENT_0
  1
MUSTERELEMENT_0
  0
ARC
  5
E6
330
E3
100
AcDbEntity
  8
XR$1$ALLGEMEIN
  6
AUSGEZOGEN
 62
     7
370
    25
100
AcDbCircle
 10
-11.521161
 20
2.91668
 30
0.0
 40
2.899999999999999
100
AcDbArc
 50
54.0
 51
126.0
  0
LINE
  5
E7
330
E3
100
AcDbEntity
  8
XR$1$ALLGEMEIN
  6
AUSGEZOGEN
 62
     7
370
    25
100
AcDbLine
 10
-9.772588
 20
5.323384
 30
0.0
 11
-9.860667
 21
5.202153
 31
0.0
  0
LINE
  5
E8
330
E3
100
AcDbEntity
  8
XR$1$ALLGEMEIN
  6
AUSGEZOGEN
 62
     7
370
    25
100
AcDbLine
 10
-9.756029
 20
5.218834
 30
0.0
 11
-9.87726
 21
5.306913
 31
0.0
  0
LINE
  5
E9
330
E3
100
AcDbEntity
  8
XR$1$ALLGEMEIN
  6
AUSGEZOGEN
 62
     7
370
    25
100
AcDbLine
 10
-9.753937
 20
5.272752
 30
0.0
 11
-9.87944
 21
5.252874
 31
0.0
  0
LINE
  5
EA
330
E3
100
AcDbEntity
  8
XR$1$ALLGEMEIN
  6
AUSGEZOGEN
 62
     7
370
    25
100
AcDbLine
 10
-13.269734
 20
5.323384
 30
0.0
 11
-13.181654
 21
5.202153
 31
0.0
  0
LINE
  5
EB
330
E3
100
AcDbEntity
  8
XR$1$ALLGEMEIN
  6
AUSGEZOGEN
 62
     7
370
    25
100
AcDbLine
 10
-13.165183
 20
5.306825
 30
0.0
 11
-13.286414
 21
5.218745
 31
0.0
  0
LINE
  5
EC
330
E3
100
AcDbEntity
  8
XR$1$ALLGEMEIN
  6
AUSGEZOGEN
 62
     7
370
    25
100
AcDbLine
 10
-13.215816
 20
5.325476
 30
0.0
 11
-13.235693
 21
5.199973
 31
0.0
  0
MTEXT
  5
ED
330
E3
100
AcDbEntity
  8
XR$1$ALLGEMEIN
  6
AUSGEZOGEN
 62
     7
370
    25
100
AcDbMText
 10
-11.696161
 20
5.85668
 30
0.0
 40
0.15
 41
0.0625
 46
0.0
 71
     7
 72
     5
  1
\W0.83;3.14
  7
CALIBRI
 73
     1
 44
1.0
  0
ENDBLK
  5
E5
330
E3
100
AcDbEntity
  8
0
100
AcDbBlockEnd
  0
BLOCK
  5
F2
330
F1
100
AcDbEntity
  8
0
100
AcDbBlockBegin
  2
MUSTERELEMENT_1
 70
     0
 10
0.0
 20
0.0
 30
0.0
  3
MUSTERELEMENT_1
  1
MUSTERELEMENT_1
  0
ARC
  5
F4
330
F1
100
AcDbEntity
  8
XR$1$ALLGEMEIN
  6
AUSGEZOGEN
 62
     7
370
    25
100
AcDbCircle
 10
-11.521161
 20
2.91668
 30
0.0
 40
0.2535908453906673
100
AcDbArc
 50
54.0
 51
126.0
  0
LINE
  5
F5
330
F1
100
AcDbEntity
  8
XR$1$ALLGEMEIN
  6
AUSGEZOGEN
 62
     7
370
    25
100
AcDbLine
 10
-11.416099
 20
3.061284
 30
0.0
 11
-11.32802
 21
3.182516
 31
0.0
  0
LINE
  5
F6
330
F1
100
AcDbEntity
  8
XR$1$ALLGEMEIN
  6
AUSGEZOGEN
 62
     7
370
    25
100
AcDbLine
 10
-11.372104
 20
3.121839
 30
0.0
 11
-11.45418
 21
3.200012
 31
0.0
  0
LINE
  5
F7
330
F1
100
AcDbEntity
  8
XR$1$ALLGEMEIN
  6
AUSGEZOGEN
 62
     7
370
    25
100
AcDbLine
 10
-11.45418
 20
3.200012
 30
0.0
 11
-11.471725
 21
3.175863
 31
0.0
  0
LINE
  5
F8
330
F1
100
AcDbEntity
  8
XR$1$ALLGEMEIN
  6
AUSGEZOGEN
 62
     7
370
    25
100
AcDbLine
 10
-11.471725
 20
3.175863
 30
0.0
 11
-11.372104
 21
3.121839
 31
0.0
  0
LINE
  5
F9
330
F1
100
AcDbEntity
  8
XR$1$ALLGEMEIN
  6
AUSGEZOGEN
 62
     7
370
    25
100
AcDbLine
 10
-11.372104
 20
3.121839
 30
0.0
 11
-11.499403
 21
3.214327
 31
0.0
  0
LINE
  5
FA
330
F1
100
AcDbEntity
  8
XR$1$ALLGEMEIN
  6
AUSGEZOGEN
 62
     7
370
    25
100
AcDbLine
 10
-11.714213
 20
3.182394
 30
0.0
 11
-11.626134
 21
3.061163
 31
0.0
  0
LINE
  5
FB
330
F1
100
AcDbEntity
  8
XR$1$ALLGEMEIN
  6
AUSGEZOGEN
 62
     7
370
    25
100
AcDbLine
 10
-11.670218
 20
3.121839
 30
0.0
 11
-11.570508
 21
3.175742
 31
0.0
  0
LINE
  5
FC
330
F1
100
AcDbEntity
  8
XR$1$ALLGEMEIN
  6
AUSGEZOGEN
 62
     7
370
    25
100
AcDbLine
 10
-11.570508
 20
3.175742
 30
0.0
 11
-11.588053
 21
3.199891
 31
0.0
  0
LINE
  5
FD
330
F1
100
AcDbEntity
  8
XR$1$ALLGEMEIN
  6
AUSGEZOGEN
 62
     7
370
    25
100
AcDbLine
 10
-11.588053
 20
3.199891
 30
0.0
 11
-11.670218
 21
3.121839
 31
0.0
  0
LINE
  5
FE
330
F1
100
AcDbEntity
  8
XR$1$ALLGEMEIN
  6
AUSGEZOGEN
 62
     7
370
    25
100
AcDbLine
 10
-11.670218
 20
3.121839
 30
0.0
 11
-11.542919
 21
3.214327
 31
0.0
  0
MTEXT
  5
FF
330
F1
100
AcDbEntity
  8
XR$1$ALLGEMEIN
  6
AUSGEZOGEN
 62
     7
370
    25
100
AcDbMText
 10
-11.643768
 20
3.281225
 30
0.0
 40
0.15
 41
0.0625
 46
0.0
 71
     7
 72
     5
  1
\W0.83;72%%d
  7
CALIBRI
 11
0.9999769207059612
 21
0.00679397199167706
 31
0.0
 73
     1
 44
1.0
  0
ENDBLK
  5
F3
330
F1
100
AcDbEntity
  8
0
100
AcDbBlockEnd
  0
BLOCK
  5
103
330
102
100
AcDbEntity
  8
0
100
AcDbBlockBegin
  2
ALL_ML_STRICH
 70
     0
 10
0.0
 20
0.0
 30
0.0
  3
ALL_ML_STRICH
  1
ALL_ML_STRICH
  0
LINE
  5
105
330
102
100
AcDbEntity
  8
0
  6
ByBlock
 62
     0
370
    -2
100
AcDbLine
 10
-1.0
 20
0.0
 30
0.0
 11
0.5
 21
0.0
 31
0.0
  0
LINE
  5
106
330
102
100
AcDbEntity
  8
0
  6
ByBlock
 62
     0
370
    -2
100
AcDbLine
 10
0.0
 20
-0.5
 30
0.0
 11
0.0
 21
0.5
 31
0.0
  0
LINE
  5
107
330
102
100
AcDbEntity
  8
0
  6
ByBlock
 62
     0
370
    -2
100
AcDbLine
 10
-0.3
 20
-0.3
 30
0.0
 11
0.3
 21
0.3
 31
0.0
  0
ENDBLK
  5
104
330
102
100
AcDbEntity
  8
0
100
AcDbBlockEnd
  0
BLOCK
  5
109
330
108
100
AcDbEntity
  8
0
100
AcDbBlockBegin
  2
*D7
 70
     1
 10
0.0
 20
0.0
 30
0.0
  3
*D7
  1
*D7
  0
MTEXT
  5
10B
330
108
100
AcDbEntity
  8
XR$1$STANDARD_1
  6
AUSGEZOGEN
 62
    94
370
    25
100
AcDbMText
 10
-10.203176
 20
4.249607
 30
0.0
 40
0.15
 41
0.5
 46
0.0
 71
     5
 72
     1
  1
\W0.83;\A1;{\A1;{1.30\H0.099000;\S^ ;}}
  7
CALIBRI
 11
0.5877852522924751
 21
0.809016994374946
 31
0.0
 73
     1
 44
1.0
  0
LINE
  5
10C
330
108
100
AcDbEntity
  8
XR$1$STANDARD_1
  6
AUSGEZOGEN
 62
    94
370
    -2
100
AcDbLine
 10
-10.492212
 20
3.652386
 30
0.0
 11
-9.728091
 21
4.704108
 31
0.0
  0
INSERT
  5
10D
330
108
100
AcDbEntity
  8
XR$1$STANDARD_1
  6
AUSGEZOGEN
 62
    94
370
    25
100
AcDbBlockReference
  2
ALL_ML_STRICH
 10
-10.492212
 20
3.652386
 30
0.0
 41
0.15
 42
0.15
 43
0.15
 50
234.0
  0
INSERT
  5
10E
330
108
100
AcDbEntity
  8
XR$1$STANDARD_1
  6
AUSGEZOGEN
 62
    94
370
    25
100
AcDbBlockReference
  2
ALL_ML_STRICH
 10
-9.728091
 20
4.704108
 30
0.0
 41
0.15
 42
0.15
 43
0.15
 50
54.0
  0
POINT
  5
10F
330
108
100
AcDbEntity
  8
DEFPOINTS
  6
AUSGEZOGEN
 62
    94
370
    25
100
AcDbPoint
 10
-10.815818
 20
3.8875
 30
0.0
  0
POINT
  5
110
330
108
100
AcDbEntity
  8
DEFPOINTS
  6
AUSGEZOGEN
 62
    94
370
    25
100
AcDbPoint
 10
-10.051698
 20
4.939222
 30
0.0
  0
POINT
  5
111
330
108
100
AcDbEntity
  8
DEFPOINTS
  6
AUSGEZOGEN
 62
    94
370
    25
100
AcDbPoint
 10
-10.492212
 20
3.652386
 30
0.0
  0
ENDBLK
  5
10A
330
108
100
AcDbEntity
  8
0
100
AcDbBlockEnd
  0
BLOCK
  5
116
330
115
100
AcDbEntity
  8
0
100
AcDbBlockBegin
  2
*D8
 70
     1
 10
0.0
 20
0.0
 30
0.0
  3
*D8
  1
*D8
  0
MTEXT
  5
118
330
115
100
AcDbEntity
  8
XR$1$STANDARD_1
  6
AUSGEZOGEN
 62
    94
370
    25
100
AcDbMText
 10
-12.560437
 20
2.633882
 30
0.0
 40
0.15
 41
0.5
 46
0.0
 71
     5
 72
     1
  1
\W0.83;\A1;{\A1;{76\H0.099000;\S5^ ;}}
  7
CALIBRI
 73
     1
 44
1.0
  0
LINE
  5
119
330
115
100
AcDbEntity
  8
XR$1$STANDARD_1
  6
AUSGEZOGEN
 62
    94
370
    -2
100
AcDbLine
 10
-12.990624
 20
2.51668
 30
0.0
 11
-12.226503
 21
2.51668
 31
0.0
  0
INSERT
  5
11A
330
115
100
AcDbEntity
  8
XR$1$STANDARD_1
  6
AUSGEZOGEN
 62
    94
370
    25
100
AcDbBlockReference
  2
ALL_ML_STRICH
 10
-12.990624
 20
2.51668
 30
0.0
 41
0.15
 42
0.15
 43
0.15
 50
180.0
  0
INSERT
  5
11B
330
115
100
AcDbEntity
  8
XR$1$STANDARD_1
  6
AUSGEZOGEN
 62
    94
370
    25
100
AcDbBlockReference
  2
ALL_ML_STRICH
 10
-12.226503
 20
2.51668
 30
0.0
 41
0.15
 42
0.15
 43
0.15
  0
POINT
  5
11C
330
115
100
AcDbEntity
  8
DEFPOINTS
  6
AUSGEZOGEN
 62
    94
370
    25
100
AcDbPoint
 10
-12.990624
 20
4.939222
 30
0.0
  0
POINT
  5
11D
330
115
100
AcDbEntity
  8
DEFPOINTS
  6
AUSGEZOGEN
 62
    94
370
    25
100
AcDbPoint
 10
-12.226503
 20
3.8875
 30
0.0
  0
POINT
  5
11E
330
115
100
AcDbEntity
  8
DEFPOINTS
  6
AUSGEZOGEN
 62
    94
370
    25
100
AcDbPoint
 10
-12.990624
 20
2.51668
 30
0.0
  0
ENDBLK
  5
117
330
115
100
AcDbEntity
  8
0
100
AcDbBlockEnd
  0
BLOCK
  5
122
330
121
100
AcDbEntity
  8
0
100
AcDbBlockBegin
  2
*D9
 70
     1
 10
0.0
 20
0.0
 30
0.0
  3
*D9
  1
*D9
  0
MTEXT
  5
124
330
121
100
AcDbEntity
  8
XR$1$STANDARD_1
  6
AUSGEZOGEN
 62
    94
370
    25
100
AcDbMText
 10
-11.516176
 20
2.632723
 30
0.0
 40
0.15
 41
0.5
 46
0.0
 71
     5
 72
     1
  1
\W0.83;\A1;{\A1;{1.41\H0.099000;\S^ ;}}
  7
CALIBRI
 73
     1
 44
1.0
  0
LINE
  5
125
330
121
100
AcDbEntity
  8
XR$1$STANDARD_1
  6
AUSGEZOGEN
 62
    94
370
    -2
100
AcDbLine
 10
-12.226503
 20
2.51668
 30
0.0
 11
-10.815818
 21
2.51668
 31
0.0
  0
INSERT
  5
126
330
121
100
AcDbEntity
  8
XR$1$STANDARD_1
  6
AUSGEZOGEN
 62
    94
370
    25
100
AcDbBlockReference
  2
ALL_ML_STRICH
 10
-12.226503
 20
2.51668
 30
0.0
 41
0.15
 42
0.15
 43
0.15
 50
180.0
  0
INSERT
  5
127
330
121
100
AcDbEntity
  8
XR$1$STANDARD_1
  6
AUSGEZOGEN
 62
    94
370
    25
100
AcDbBlockReference
  2
ALL_ML_STRICH
 10
-10.815818
 20
2.51668
 30
0.0
 41
0.15
 42
0.15
 43
0.15
  0
POINT
  5
128
330
121
100
AcDbEntity
  8
DEFPOINTS
  6
AUSGEZOGEN
 62
    94
370
    25
100
AcDbPoint
 10
-12.226503
 20
3.8875
 30
0.0
  0
POINT
  5
129
330
121
100
AcDbEntity
  8
DEFPOINTS
  6
AUSGEZOGEN
 62
    94
370
    25
100
AcDbPoint
 10
-10.815818
 20
3.8875
 30
0.0
  0
POINT
  5
12A
330
121
100
AcDbEntity
  8
DEFPOINTS
  6
AUSGEZOGEN
 62
    94
370
    25
100
AcDbPoint
 10
-12.226503
 20
2.51668
 30
0.0
  0
ENDBLK
  5
123
330
121
100
AcDbEntity
  8
0
100
AcDbBlockEnd
  0
BLOCK
  5
12E
330
12D
100
AcDbEntity
  8
0
100
AcDbBlockBegin
  2
*D10
 70
     1
 10
0.0
 20
0.0
 30
0.0
  3
*D10
  1
*D10
  0
MTEXT
  5
130
330
12D
100
AcDbEntity
  8
XR$1$STANDARD_1
  6
AUSGEZOGEN
 62
    94
370
    25
100
AcDbMText
 10
-10.385632
 20
2.633882
 30
0.0
 40
0.15
 41
0.5
 46
0.0
 71
     5
 72
     1
  1
\W0.83;\A1;{\A1;{76\H0.099000;\S5^ ;}}
  7
CALIBRI
 73
     1
 44
1.0
  0
LINE
  5
131
330
12D
100
AcDbEntity
  8
XR$1$STANDARD_1
  6
AUSGEZOGEN
 62
    94
370
    -2
100
AcDbLine
 10
-10.815818
 20
2.51668
 30
0.0
 11
-10.051698
 21
2.51668
 31
0.0
  0
INSERT
  5
132
330
12D
100
AcDbEntity
  8
XR$1$STANDARD_1
  6
AUSGEZOGEN
 62
    94
370
    25
100
AcDbBlockReference
  2
ALL_ML_STRICH
 10
-10.815818
 20
2.51668
 30
0.0
 41
0.15
 42
0.15
 43
0.15
 50
180.0
  0
INSERT
  5
133
330
12D
100
AcDbEntity
  8
XR$1$STANDARD_1
  6
AUSGEZOGEN
 62
    94
370
    25
100
AcDbBlockReference
  2
ALL_ML_STRICH
 10
-10.051698
 20
2.51668
 30
0.0
 41
0.15
 42
0.15
 43
0.15
  0
POINT
  5
134
330
12D
100
AcDbEntity
  8
DEFPOINTS
  6
AUSGEZOGEN
 62
    94
370
    25
100
AcDbPoint
 10
-10.815818
 20
3.8875
 30
0.0
  0
POINT
  5
135
330
12D
100
AcDbEntity
  8
DEFPOINTS
  6
AUSGEZOGEN
 62
    94
370
    25
100
AcDbPoint
 10
-10.051698
 20
4.939222
 30
0.0
  0
POINT
  5
136
330
12D
100
AcDbEntity
  8
DEFPOINTS
  6
AUSGEZOGEN
 62
    94
370
    25
100
AcDbPoint
 10
-10.815818
 20
2.51668
 30
0.0
  0
ENDBLK
  5
12F
330
12D
100
AcDbEntity
  8
0
100
AcDbBlockEnd
  0
BLOCK
  5
13A
330
139
100
AcDbEntity
  8
0
100
AcDbBlockBegin
  2
*D11
 70
     1
 10
0.0
 20
0.0
 30
0.0
  3
*D11
  1
*D11
  0
MTEXT
  5
13C
330
139
100
AcDbEntity
  8
XR$1$STANDARD_1
  6
AUSGEZOGEN
 62
    94
370
    25
100
AcDbMText
 10
-11.518688
 20
2.233882
 30
0.0
 40
0.15
 41
0.5
 46
0.0
 71
     5
 72
     1
  1
\W0.83;\A1;{\A1;{2.94\H0.099000;\S^ ;}}
  7
CALIBRI
 73
     1
 44
1.0
  0
LINE
  5
13D
330
139
100
AcDbEntity
  8
XR$1$STANDARD_1
  6
AUSGEZOGEN
 62
    94
370
    -2
100
AcDbLine
 10
-12.990624
 20
2.11668
 30
0.0
 11
-10.051698
 21
2.11668
 31
0.0
  0
INSERT
  5
13E
330
139
100
AcDbEntity
  8
XR$1$STANDARD_1
  6
AUSGEZOGEN
 62
    94
370
    25
100
AcDbBlockReference
  2
ALL_ML_STRICH
 10
-12.990624
 20
2.11668
 30
0.0
 41
0.15
 42
0.15
 43
0.15
 50
180.0
  0
INSERT
  5
13F
330
139
100
AcDbEntity
  8
XR$1$STANDARD_1
  6
AUSGEZOGEN
 62
    94
370
    25
100
AcDbBlockReference
  2
ALL_ML_STRICH
 10
-10.051698
 20
2.11668
 30
0.0
 41
0.15
 42
0.15
 43
0.15
  0
POINT
  5
140
330
139
100
AcDbEntity
  8
DEFPOINTS
  6
AUSGEZOGEN
 62
    94
370
    25
100
AcDbPoint
 10
-12.990624
 20
2.51668
 30
0.0
  0
POINT
  5
141
330
139
100
AcDbEntity
  8
DEFPOINTS
  6
AUSGEZOGEN
 62
    94
370
    25
100
AcDbPoint
 10
-10.051698
 20
4.939222
 30
0.0
  0
POINT
  5
142
330
139
100
AcDbEntity
  8
DEFPOINTS
  6
AUSGEZOGEN
 62
    94
370
    25
100
AcDbPoint
 10
-12.990624
 20
2.11668
 30
0.0
  0
ENDBLK
  5
13B
330
139
100
AcDbEntity
  8
0
100
AcDbBlockEnd
  0
BLOCK
  5
145
330
144
100
AcDbEntity
  8
0
100
AcDbBlockBegin
  2
*D12
 70
     1
 10
0.0
 20
0.0
 30
0.0
  3
*D12
  1
*D12
  0
MTEXT
  5
147
330
144
100
AcDbEntity
  8
XR$1$STANDARD_1
  6
AUSGEZOGEN
 62
    94
370
    25
100
AcDbMText
 10
-13.74294
 20
4.657703
 30
0.0
 40
0.15
 41
0.5
 46
0.0
 71
     5
 72
     1
  1
\W0.83;\A1;{\A1;{1.53\H0.099000;\S^ ;}}
  7
CALIBRI
 11
6.123233995736766E-17
 21
1.0
 31
0.0
 73
     1
 44
1.0
  0
LINE
  5
148
330
144
100
AcDbEntity
  8
XR$1$STANDARD_1
  6
AUSGEZOGEN
 62
    94
370
    -2
100
AcDbLine
 10
-13.625738
 20
3.8875
 30
0.0
 11
-13.625738
 21
5.41668
 31
0.0
  0
INSERT
  5
149
330
144
100
AcDbEntity
  8
XR$1$STANDARD_1
  6
AUSGEZOGEN
 62
    94
370
    25
100
AcDbBlockReference
  2
ALL_ML_STRICH
 10
-13.625738
 20
3.8875
 30
0.0
 41
0.15
 42
0.15
 43
0.15
 50
270.0
  0
INSERT
  5
14A
330
144
100
AcDbEntity
  8
XR$1$STANDARD_1
  6
AUSGEZOGEN
 62
    94
370
    25
100
AcDbBlockReference
  2
ALL_ML_STRICH
 10
-13.625738
 20
5.41668
 30
0.0
 41
0.15
 42
0.15
 43
0.15
 50
90.0
  0
POINT
  5
14B
330
144
100
AcDbEntity
  8
DEFPOINTS
  6
AUSGEZOGEN
 62
    94
370
    25
100
AcDbPoint
 10
-12.226503
 20
3.8875
 30
0.0
  0
POINT
  5
14C
330
144
100
AcDbEntity
  8
DEFPOINTS
  6
AUSGEZOGEN
 62
    94
370
    25
100
AcDbPoint
 10
-11.521161
 20
5.41668
 30
0.0
  0
POINT
  5
14D
330
144
100
AcDbEntity
  8
DEFPOINTS
  6
AUSGEZOGEN
 62
    94
370
    25
100
AcDbPoint
 10
-13.625738
 20
3.8875
 30
0.0
  0
ENDBLK
  5
146
330
144
100
AcDbEntity
  8
0
100
AcDbBlockEnd
  0
BLOCK
  5
150
330
14F
100
AcDbEntity
  8
0
100
AcDbBlockBegin
  2
MUSTERELEMENT_2
 70
     0
 10
0.0
 20
0.0
 30
0.0
  3
MUSTERELEMENT_2
  1
MUSTERELEMENT_2
  0
LINE
  5
152
330
14F
100
AcDbEntity
  8
XR$1$ALLGEMEIN
  6
AUSGEZOGEN
 62
     7
370
    25
100
AcDbLine
 10
-11.881604
 20
4.061268
 30
0.0
 11
-11.834341
 21
3.911184
 31
0.0
  0
LINE
  5
153
330
14F
100
AcDbEntity
  8
XR$1$ALLGEMEIN
  6
AUSGEZOGEN
 62
     7
370
    25
100
AcDbLine
 10
-11.862165
 20
3.9496
 30
0.0
 11
-11.833693
 21
3.958566
 31
0.0
  0
LINE
  5
154
330
14F
100
AcDbEntity
  8
XR$1$ALLGEMEIN
  6
AUSGEZOGEN
 62
     7
370
    25
100
AcDbLine
 10
-11.833693
 20
3.958566
 30
0.0
 11
-11.881604
 21
4.061268
 31
0.0
  0
LINE
  5
155
330
14F
100
AcDbEntity
  8
XR$1$ALLGEMEIN
  6
AUSGEZOGEN
 62
     7
370
    25
100
AcDbLine
 10
-11.81021
 20
4.08375
 30
0.0
 11
-11.953141
 21
4.03874
 31
0.0
  0
LINE
  5
156
330
14F
100
AcDbEntity
  8
XR$1$ALLGEMEIN
  6
AUSGEZOGEN
 62
     7
370
    25
100
AcDbLine
 10
-11.881604
 20
4.061268
 30
0.0
 11
-11.862165
 21
3.9496
 31
0.0
  0
MTEXT
  5
157
330
14F
100
AcDbEntity
  8
XR$1$ALLGEMEIN
  6
AUSGEZOGEN
 62
     7
370
    25
100
AcDbMText
 10
-11.895171
 20
3.856658
 30
0.0
 40
0.15
 41
0.0625
 46
0.0
 71
     7
 72
     5
  1
\W0.83;1.20
  7
CALIBRI
 11
0.3003692664981853
 21
-0.9538229939267254
 31
0.0
 73
     1
 44
1.0
  0
ENDBLK
  5
151
330
14F
100
AcDbEntity
  8
0
100
AcDbBlockEnd
  0
BLOCK
  5
15A
330
159
100
AcDbEntity
  8
0
100
AcDbBlockBegin
  2
MUSTERELEMENT_3
 70
     0
 10
0.0
 20
0.0
 30
0.0
  3
MUSTERELEMENT_3
  1
MUSTERELEMENT_3
  0
LINE
  5
15C
330
159
100
AcDbEntity
  8
XR$1$ALLGEMEIN
  6
AUSGEZOGEN
 62
     7
370
    25
100
AcDbLine
 10
-12.381604
 20
5.263942
 30
0.0
 11
-12.327448
 21
5.116205
 31
0.0
  0
LINE
  5
15D
330
159
100
AcDbEntity
  8
XR$1$ALLGEMEIN
  6
AUSGEZOGEN
 62
     7
370
    25
100
AcDbLine
 10
-12.35702
 20
5.153293
 30
0.0
 11
-12.328993
 21
5.163567
 31
0.0
  0
LINE
  5
15E
330
159
100
AcDbEntity
  8
XR$1$ALLGEMEIN
  6
AUSGEZOGEN
 62
     7
370
    25
100
AcDbLine
 10
-12.328993
 20
5.163567
 30
0.0
 11
-12.381604
 21
5.263942
 31
0.0
  0
LINE
  5
15F
330
159
100
AcDbEntity
  8
XR$1$ALLGEMEIN
  6
AUSGEZOGEN
 62
     7
370
    25
100
AcDbLine
 10
-12.311327
 20
5.289703
 30
0.0
 11
-12.452022
 21
5.238128
 31
0.0
  0
LINE
  5
160
330
159
100
AcDbEntity
  8
XR$1$ALLGEMEIN
  6
AUSGEZOGEN
 62
     7
370
    25
100
AcDbLine
 10
-12.381604
 20
5.263942
 30
0.0
 11
-12.35702
 21
5.153293
 31
0.0
  0
MTEXT
  5
161
330
159
100
AcDbEntity
  8
XR$1$ALLGEMEIN
  6
AUSGEZOGEN
 62
     7
370
    25
100
AcDbMText
 10
-12.382238
 20
5.033807
 30
0.0
 40
0.15
 41
0.0625
 46
0.0
 71
     7
 72
     5
  1
\W0.83;2.50
  7
CALIBRI
 11
0.3441774238270242
 21
-0.9389046282385624
 31
0.0
 73
     1
 44
1.0
  0
ENDBLK
  5
15B
330
159
100
AcDbEntity
  8
0
100
AcDbBlockEnd
  0
BLOCK
  5
180
330
17F
100
AcDbEntity
  8
0
100
AcDbBlockBegin
  2
MUSTERELEMENT_4
 70
     0
 10
0.0
 20
0.0
 30
0.0
  3
MUSTERELEMENT_4
  1
MUSTERELEMENT_4
  0
LINE
  5
182
330
17F
100
AcDbEntity
  8
XR$1$STANDARD_1
  6
AUSGEZOGEN
 62
     7
370
    25
100
AcDbLine
 10
-5.805301
 20
3.86905
 30
0.0
 11
-5.797801
 21
3.86005
 31
0.0
  0
LINE
  5
183
330
17F
100
AcDbEntity
  8
XR$1$STANDARD_1
  6
AUSGEZOGEN
 62
     7
370
    25
100
AcDbLine
 10
-5.655301
 20
3.86905
 30
0.0
 11
-5.647801
 21
3.86005
 31
0.0
  0
LINE
  5
184
330
17F
100
AcDbEntity
  8
XR$1$STANDARD_1
  6
AUSGEZOGEN
 62
     7
370
    25
100
AcDbLine
 10
-5.505301
 20
3.86905
 30
0.0
 11
-5.497801
 21
3.86005
 31
0.0
  0
LINE
  5
185
330
17F
100
AcDbEntity
  8
XR$1$STANDARD_1
  6
AUSGEZOGEN
 62
     7
370
    25
100
AcDbLine
 10
-5.355301
 20
3.86905
 30
0.0
 11
-5.347801
 21
3.86005
 31
0.0
  0
LINE
  5
186
330
17F
100
AcDbEntity
  8
XR$1$STANDARD_1
  6
AUSGEZOGEN
 62
     7
370
    25
100
AcDbLine
 10
-5.805301
 20
3.88705
 30
0.0
 11
-5.790301
 21
3.86905
 31
0.0
  0
LINE
  5
187
330
17F
100
AcDbEntity
  8
XR$1$STANDARD_1
  6
AUSGEZOGEN
 62
     7
370
    25
100
AcDbLine
 10
-5.655301
 20
3.88705
 30
0.0
 11
-5.640301
 21
3.86905
 31
0.0
  0
LINE
  5
188
330
17F
100
AcDbEntity
  8
XR$1$STANDARD_1
  6
AUSGEZOGEN
 62
     7
370
    25
100
AcDbLine
 10
-5.505301
 20
3.88705
 30
0.0
 11
-5.490301
 21
3.86905
 31
0.0
  0
LINE
  5
189
330
17F
100
AcDbEntity
  8
XR$1$STANDARD_1
  6
AUSGEZOGEN
 62
     7
370
    25
100
AcDbLine
 10
-5.355301
 20
3.88705
 30
0.0
 11
-5.340301
 21
3.86905
 31
0.0
  0
LINE
  5
18A
330
17F
100
AcDbEntity
  8
XR$1$STANDARD_1
  6
AUSGEZOGEN
 62
     7
370
    25
100
AcDbLine
 10
-5.805301
 20
3.85105
 30
0.0
 11
-5.730301
 21
3.94105
 31
0.0
  0
LINE
  5
18B
330
17F
100
AcDbEntity
  8
XR$1$STANDARD_1
  6
AUSGEZOGEN
 62
     7
370
    25
100
AcDbLine
 10
-5.655301
 20
3.85105
 30
0.0
 11
-5.580301
 21
3.94105
 31
0.0
  0
LINE
  5
18C
330
17F
100
AcDbEntity
  8
XR$1$STANDARD_1
  6
AUSGEZOGEN
 62
     7
370
    25
100
AcDbLine
 10
-5.505301
 20
3.85105
 30
0.0
 11
-5.430301
 21
3.94105
 31
0.0
  0
LINE
  5
18D
330
17F
100
AcDbEntity
  8
XR$1$STANDARD_1
  6
AUSGEZOGEN
 62
     7
370
    25
100
AcDbLine
 10
-5.355301
 20
3.85105
 30
0.0
 11
-5.280301
 21
3.94105
 31
0.0
  0
LINE
  5
18E
330
17F
100
AcDbEntity
  8
XR$1$STANDARD_1
  6
AUSGEZOGEN
 62
     7
370
    25
100
AcDbLine
 10
-5.790301
 20
3.85105
 30
0.0
 11
-5.715301
 21
3.94105
 31
0.0
  0
LINE
  5
18F
330
17F
100
AcDbEntity
  8
XR$1$STANDARD_1
  6
AUSGEZOGEN
 62
     7
370
    25
100
AcDbLine
 10
-5.640301
 20
3.85105
 30
0.0
 11
-5.565301
 21
3.94105
 31
0.0
  0
LINE
  5
190
330
17F
100
AcDbEntity
  8
XR$1$STANDARD_1
  6
AUSGEZOGEN
 62
     7
370
    25
100
AcDbLine
 10
-5.490301
 20
3.85105
 30
0.0
 11
-5.415301
 21
3.94105
 31
0.0
  0
LINE
  5
191
330
17F
100
AcDbEntity
  8
XR$1$STANDARD_1
  6
AUSGEZOGEN
 62
     7
370
    25
100
AcDbLine
 10
-5.340301
 20
3.85105
 30
0.0
 11
-5.265301
 21
3.94105
 31
0.0
  0
LINE
  5
192
330
17F
100
AcDbEntity
  8
XR$1$STANDARD_1
  6
AUSGEZOGEN
 62
     7
370
    25
100
AcDbLine
 10
-5.775301
 20
3.85105
 30
0.0
 11
-5.700301
 21
3.94105
 31
0.0
  0
LINE
  5
193
330
17F
100
AcDbEntity
  8
XR$1$STANDARD_1
  6
AUSGEZOGEN
 62
     7
370
    25
100
AcDbLine
 10
-5.625301
 20
3.85105
 30
0.0
 11
-5.550301
 21
3.94105
 31
0.0
  0
LINE
  5
194
330
17F
100
AcDbEntity
  8
XR$1$STANDARD_1
  6
AUSGEZOGEN
 62
     7
370
    25
100
AcDbLine
 10
-5.475301
 20
3.85105
 30
0.0
 11
-5.400301
 21
3.94105
 31
0.0
  0
LINE
  5
195
330
17F
100
AcDbEntity
  8
XR$1$STANDARD_1
  6
AUSGEZOGEN
 62
     7
370
    25
100
AcDbLine
 10
-5.325301
 20
3.85105
 30
0.0
 11
-5.250301
 21
3.94105
 31
0.0
  0
LINE
  5
196
330
17F
100
AcDbEntity
  8
XR$1$STANDARD_1
  6
AUSGEZOGEN
 62
     7
370
    25
100
AcDbLine
 10
-5.715301
 20
3.92305
 30
0.0
 11
-5.655301
 21
3.85105
 31
0.0
  0
LINE
  5
197
330
17F
100
AcDbEntity
  8
XR$1$STANDARD_1
  6
AUSGEZOGEN
 62
     7
370
    25
100
AcDbLine
 10
-5.565301
 20
3.92305
 30
0.0
 11
-5.505301
 21
3.85105
 31
0.0
  0
LINE
  5
198
330
17F
100
AcDbEntity
  8
XR$1$STANDARD_1
  6
AUSGEZOGEN
 62
     7
370
    25
100
AcDbLine
 10
-5.415301
 20
3.92305
 30
0.0
 11
-5.355301
 21
3.85105
 31
0.0
  0
LINE
  5
199
330
17F
100
AcDbEntity
  8
XR$1$STANDARD_1
  6
AUSGEZOGEN
 62
     7
370
    25
100
AcDbLine
 10
-5.265301
 20
3.92305
 30
0.0
 11
-5.24397
 21
3.897454
 31
0.0
  0
LINE
  5
19A
330
17F
100
AcDbEntity
  8
XR$1$STANDARD_1
  6
AUSGEZOGEN
 62
     7
370
    25
100
AcDbLine
 10
-5.707801
 20
3.93205
 30
0.0
 11
-5.655301
 21
3.86905
 31
0.0
  0
LINE
  5
19B
330
17F
100
AcDbEntity
  8
XR$1$STANDARD_1
  6
AUSGEZOGEN
 62
     7
370
    25
100
AcDbLine
 10
-5.557801
 20
3.93205
 30
0.0
 11
-5.505301
 21
3.86905
 31
0.0
  0
LINE
  5
19C
330
17F
100
AcDbEntity
  8
XR$1$STANDARD_1
  6
AUSGEZOGEN
 62
     7
370
    25
100
AcDbLine
 10
-5.407801
 20
3.93205
 30
0.0
 11
-5.355301
 21
3.86905
 31
0.0
  0
LINE
  5
19D
330
17F
100
AcDbEntity
  8
XR$1$STANDARD_1
  6
AUSGEZOGEN
 62
     7
370
    25
100
AcDbLine
 10
-5.257801
 20
3.93205
 30
0.0
 11
-5.24397
 21
3.915454
 31
0.0
  0
LINE
  5
19E
330
17F
100
AcDbEntity
  8
XR$1$STANDARD_1
  6
AUSGEZOGEN
 62
     7
370
    25
100
AcDbLine
 10
-5.698501
 20
3.94105
 30
0.0
 11
-5.655301
 21
3.88921
 31
0.0
  0
LINE
  5
19F
330
17F
100
AcDbEntity
  8
XR$1$STANDARD_1
  6
AUSGEZOGEN
 62
     7
370
    25
100
AcDbLine
 10
-5.548501
 20
3.94105
 30
0.0
 11
-5.505301
 21
3.88921
 31
0.0
  0
LINE
  5
1A0
330
17F
100
AcDbEntity
  8
XR$1$STANDARD_1
  6
AUSGEZOGEN
 62
     7
370
    25
100
AcDbLine
 10
-5.398501
 20
3.94105
 30
0.0
 11
-5.355301
 21
3.88921
 31
0.0
  0
LINE
  5
1A1
330
17F
100
AcDbEntity
  8
XR$1$STANDARD_1
  6
AUSGEZOGEN
 62
     7
370
    25
100
AcDbLine
 10
-5.248501
 20
3.94105
 30
0.0
 11
-5.24397
 21
3.935614
 31
0.0
  0
ENDBLK
  5
181
330
17F
100
AcDbEntity
  8
0
100
AcDbBlockEnd
  0
BLOCK
  5
1A4
330
1A3
100
AcDbEntity
  8
0
100
AcDbBlockBegin
  2
*D16
 70
     1
 10
0.0
 20
0.0
 30
0.0
  3
*D16
  1
*D16
  0
MTEXT
  5
1A6
330
1A3
100
AcDbEntity
  8
XR$1$STANDARD_1
  6
AUSGEZOGEN
 62
    94
370
    25
100
AcDbMText
 10
-7.350739
 20
4.161129
 30
0.0
 40
0.15
 41
0.5
 46
0.0
 71
     5
 72
     1
  1
\W0.83;\A1;{\A1;{44\H0.099000;\S^ ;}}
  7
CALIBRI
 11
6.123233995736766E-17
 21
1.0
 31
0.0
 73
     1
 44
1.0
  0
LINE
  5
1A7
330
1A3
100
AcDbEntity
  8
XR$1$STANDARD_1
  6
AUSGEZOGEN
 62
    94
370
    -2
100
AcDbLine
 10
-7.235044
 20
3.95105
 30
0.0
 11
-7.235044
 21
4.39105
 31
0.0
  0
INSERT
  5
1A8
330
1A3
100
AcDbEntity
  8
XR$1$STANDARD_1
  6
AUSGEZOGEN
 62
    94
370
    25
100
AcDbBlockReference
  2
ALL_ML_STRICH
 10
-7.235044
 20
3.95105
 30
0.0
 41
0.15
 42
0.15
 43
0.15
 50
270.0
  0
INSERT
  5
1A9
330
1A3
100
AcDbEntity
  8
XR$1$STANDARD_1
  6
AUSGEZOGEN
 62
    94
370
    25
100
AcDbBlockReference
  2
ALL_ML_STRICH
 10
-7.235044
 20
4.39105
 30
0.0
 41
0.15
 42
0.15
 43
0.15
 50
90.0
  0
POINT
  5
1AA
330
1A3
100
AcDbEntity
  8
DEFPOINTS
  6
AUSGEZOGEN
 62
    94
370
    25
100
AcDbPoint
 10
-6.515301
 20
3.95105
 30
0.0
  0
POINT
  5
1AB
330
1A3
100
AcDbEntity
  8
DEFPOINTS
  6
AUSGEZOGEN
 62
    94
370
    25
100
AcDbPoint
 10
-6.272044
 20
4.39105
 30
0.0
  0
POINT
  5
1AC
330
1A3
100
AcDbEntity
  8
DEFPOINTS
  6
AUSGEZOGEN
 62
    94
370
    25
100
AcDbPoint
 10
-7.235044
 20
3.95105
 30
0.0
  0
ENDBLK
  5
1A5
330
1A3
100
AcDbEntity
  8
0
100
AcDbBlockEnd
  0
BLOCK
  5
1C1
330
1C0
100
AcDbEntity
  8
0
100
AcDbBlockBegin
  2
*D17
 70
     1
 10
0.0
 20
0.0
 30
0.0
  3
*D17
  1
*D17
  0
MTEXT
  5
1C3
330
1C0
100
AcDbEntity
  8
XR$1$STANDARD_1
  6
AUSGEZOGEN
 62
    94
370
    25
100
AcDbMText
 10
-6.182329
 20
5.161394
 30
0.0
 40
0.15
 41
0.5
 46
0.0
 71
     5
 72
     1
  1
\W0.83;\A1;{\A1;{1.30\H0.099000;\S^ ;}}
  7
CALIBRI
 73
     1
 44
1.0
  0
LINE
  5
1C4
330
1C0
100
AcDbEntity
  8
XR$1$STANDARD_1
  6
AUSGEZOGEN
 62
    94
370
    -2
100
AcDbLine
 10
-6.835301
 20
5.044191
 30
0.0
 11
-5.535462
 21
5.044191
 31
0.0
  0
INSERT
  5
1C5
330
1C0
100
AcDbEntity
  8
XR$1$STANDARD_1
  6
AUSGEZOGEN
 62
    94
370
    25
100
AcDbBlockReference
  2
ALL_ML_STRICH
 10
-6.835301
 20
5.044191
 30
0.0
 41
0.15
 42
0.15
 43
0.15
 50
180.0
  0
INSERT
  5
1C6
330
1C0
100
AcDbEntity
  8
XR$1$STANDARD_1
  6
AUSGEZOGEN
 62
    94
370
    25
100
AcDbBlockReference
  2
ALL_ML_STRICH
 10
-5.535462
 20
5.044191
 30
0.0
 41
0.15
 42
0.15
 43
0.15
  0
POINT
  5
1C7
330
1C0
100
AcDbEntity
  8
DEFPOINTS
  6
AUSGEZOGEN
 62
    94
370
    25
100
AcDbPoint
 10
-6.835301
 20
4.22105
 30
0.0
  0
POINT
  5
1C8
330
1C0
100
AcDbEntity
  8
DEFPOINTS
  6
AUSGEZOGEN
 62
    94
370
    25
100
AcDbPoint
 10
-5.535462
 20
4.228465
 30
0.0
  0
POINT
  5
1C9
330
1C0
100
AcDbEntity
  8
DEFPOINTS
  6
AUSGEZOGEN
 62
    94
370
    25
100
AcDbPoint
 10
-6.835301
 20
5.044191
 30
0.0
  0
ENDBLK
  5
1C2
330
1C0
100
AcDbEntity
  8
0
100
AcDbBlockEnd
  0
BLOCK
  5
1CE
330
1CD
100
AcDbEntity
  8
0
100
AcDbBlockBegin
  2
MUSTERELEMENT_5
 70
     0
 10
0.0
 20
0.0
 30
0.0
  3
MUSTERELEMENT_5
  1
MUSTERELEMENT_5
  0
LINE
  5
1D0
330
1CD
100
AcDbEntity
  8
XR$1$STANDARD_1
  6
AUSGEZOGEN
 62
     7
370
    25
100
AcDbLine
 10
-7.233684
 20
3.86905
 30
0.0
 11
-7.226184
 21
3.86005
 31
0.0
  0
LINE
  5
1D1
330
1CD
100
AcDbEntity
  8
XR$1$STANDARD_1
  6
AUSGEZOGEN
 62
     7
370
    25
100
AcDbLine
 10
-7.083684
 20
3.86905
 30
0.0
 11
-7.076184
 21
3.86005
 31
0.0
  0
LINE
  5
1D2
330
1CD
100
AcDbEntity
  8
XR$1$STANDARD_1
  6
AUSGEZOGEN
 62
     7
370
    25
100
AcDbLine
 10
-6.933684
 20
3.86905
 30
0.0
 11
-6.926184
 21
3.86005
 31
0.0
  0
LINE
  5
1D3
330
1CD
100
AcDbEntity
  8
XR$1$STANDARD_1
  6
AUSGEZOGEN
 62
     7
370
    25
100
AcDbLine
 10
-6.783684
 20
3.86905
 30
0.0
 11
-6.776184
 21
3.86005
 31
0.0
  0
LINE
  5
1D4
330
1CD
100
AcDbEntity
  8
XR$1$STANDARD_1
  6
AUSGEZOGEN
 62
     7
370
    25
100
AcDbLine
 10
-6.633684
 20
3.86905
 30
0.0
 11
-6.626184
 21
3.86005
 31
0.0
  0
LINE
  5
1D5
330
1CD
100
AcDbEntity
  8
XR$1$STANDARD_1
  6
AUSGEZOGEN
 62
     7
370
    25
100
AcDbLine
 10
-7.233684
 20
3.88705
 30
0.0
 11
-7.218684
 21
3.86905
 31
0.0
  0
LINE
  5
1D6
330
1CD
100
AcDbEntity
  8
XR$1$STANDARD_1
  6
AUSGEZOGEN
 62
     7
370
    25
100
AcDbLine
 10
-7.083684
 20
3.88705
 30
0.0
 11
-7.068684
 21
3.86905
 31
0.0
  0
LINE
  5
1D7
330
1CD
100
AcDbEntity
  8
XR$1$STANDARD_1
  6
AUSGEZOGEN
 62
     7
370
    25
100
AcDbLine
 10
-6.933684
 20
3.88705
 30
0.0
 11
-6.918684
 21
3.86905
 31
0.0
  0
LINE
  5
1D8
330
1CD
100
AcDbEntity
  8
XR$1$STANDARD_1
  6
AUSGEZOGEN
 62
     7
370
    25
100
AcDbLine
 10
-6.783684
 20
3.88705
 30
0.0
 11
-6.768684
 21
3.86905
 31
0.0
  0
LINE
  5
1D9
330
1CD
100
AcDbEntity
  8
XR$1$STANDARD_1
  6
AUSGEZOGEN
 62
     7
370
    25
100
AcDbLine
 10
-6.633684
 20
3.88705
 30
0.0
 11
-6.618684
 21
3.86905
 31
0.0
  0
LINE
  5
1DA
330
1CD
100
AcDbEntity
  8
XR$1$STANDARD_1
  6
AUSGEZOGEN
 62
     7
370
    25
100
AcDbLine
 10
-7.233684
 20
3.85105
 30
0.0
 11
-7.158684
 21
3.94105
 31
0.0
  0
LINE
  5
1DB
330
1CD
100
AcDbEntity
  8
XR$1$STANDARD_1
  6
AUSGEZOGEN
 62
     7
370
    25
100
AcDbLine
 10
-7.083684
 20
3.85105
 30
0.0
 11
-7.008684
 21
3.94105
 31
0.0
  0
LINE
  5
1DC
330
1CD
100
AcDbEntity
  8
XR$1$STANDARD_1
  6
AUSGEZOGEN
 62
     7
370
    25
100
AcDbLine
 10
-6.933684
 20
3.85105
 30
0.0
 11
-6.858684
 21
3.94105
 31
0.0
  0
LINE
  5
1DD
330
1CD
100
AcDbEntity
  8
XR$1$STANDARD_1
  6
AUSGEZOGEN
 62
     7
370
    25
100
AcDbLine
 10
-6.783684
 20
3.85105
 30
0.0
 11
-6.708684
 21
3.94105
 31
0.0
  0
LINE
  5
1DE
330
1CD
100
AcDbEntity
  8
XR$1$STANDARD_1
  6
AUSGEZOGEN
 62
     7
370
    25
100
AcDbLine
 10
-6.633684
 20
3.85105
 30
0.0
 11
-6.565301
 21
3.933109
 31
0.0
  0
LINE
  5
1DF
330
1CD
100
AcDbEntity
  8
XR$1$STANDARD_1
  6
AUSGEZOGEN
 62
     7
370
    25
100
AcDbLine
 10
-7.218684
 20
3.85105
 30
0.0
 11
-7.143684
 21
3.94105
 31
0.0
  0
LINE
  5
1E0
330
1CD
100
AcDbEntity
  8
XR$1$STANDARD_1
  6
AUSGEZOGEN
 62
     7
370
    25
100
AcDbLine
 10
-7.068684
 20
3.85105
 30
0.0
 11
-6.993684
 21
3.94105
 31
0.0
  0
LINE
  5
1E1
330
1CD
100
AcDbEntity
  8
XR$1$STANDARD_1
  6
AUSGEZOGEN
 62
     7
370
    25
100
AcDbLine
 10
-6.918684
 20
3.85105
 30
0.0
 11
-6.843684
 21
3.94105
 31
0.0
  0
LINE
  5
1E2
330
1CD
100
AcDbEntity
  8
XR$1$STANDARD_1
  6
AUSGEZOGEN
 62
     7
370
    25
100
AcDbLine
 10
-6.768684
 20
3.85105
 30
0.0
 11
-6.693684
 21
3.94105
 31
0.0
  0
LINE
  5
1E3
330
1CD
100
AcDbEntity
  8
XR$1$STANDARD_1
  6
AUSGEZOGEN
 62
     7
370
    25
100
AcDbLine
 10
-6.618684
 20
3.85105
 30
0.0
 11
-6.565301
 21
3.915109
 31
0.0
  0
LINE
  5
1E4
330
1CD
100
AcDbEntity
  8
XR$1$STANDARD_1
  6
AUSGEZOGEN
 62
     7
370
    25
100
AcDbLine
 10
-7.203684
 20
3.85105
 30
0.0
 11
-7.128684
 21
3.94105
 31
0.0
  0
LINE
  5
1E5
330
1CD
100
AcDbEntity
  8
XR$1$STANDARD_1
  6
AUSGEZOGEN
 62
     7
370
    25
100
AcDbLine
 10
-7.053684
 20
3.85105
 30
0.0
 11
-6.978684
 21
3.94105
 31
0.0
  0
LINE
  5
1E6
330
1CD
100
AcDbEntity
  8
XR$1$STANDARD_1
  6
AUSGEZOGEN
 62
     7
370
    25
100
AcDbLine
 10
-6.903684
 20
3.85105
 30
0.0
 11
-6.828684
 21
3.94105
 31
0.0
  0
LINE
  5
1E7
330
1CD
100
AcDbEntity
  8
XR$1$STANDARD_1
  6
AUSGEZOGEN
 62
     7
370
    25
100
AcDbLine
 10
-6.753684
 20
3.85105
 30
0.0
 11
-6.678684
 21
3.94105
 31
0.0
  0
LINE
  5
1E8
330
1CD
100
AcDbEntity
  8
XR$1$STANDARD_1
  6
AUSGEZOGEN
 62
     7
370
    25
100
AcDbLine
 10
-6.603684
 20
3.85105
 30
0.0
 11
-6.565301
 21
3.897109
 31
0.0
  0
LINE
  5
1E9
330
1CD
100
AcDbEntity
  8
XR$1$STANDARD_1
  6
AUSGEZOGEN
 62
     7
370
    25
100
AcDbLine
 10
-7.143684
 20
3.92305
 30
0.0
 11
-7.083684
 21
3.85105
 31
0.0
  0
LINE
  5
1EA
330
1CD
100
AcDbEntity
  8
XR$1$STANDARD_1
  6
AUSGEZOGEN
 62
     7
370
    25
100
AcDbLine
 10
-6.993684
 20
3.92305
 30
0.0
 11
-6.933684
 21
3.85105
 31
0.0
  0
LINE
  5
1EB
330
1CD
100
AcDbEntity
  8
XR$1$STANDARD_1
  6
AUSGEZOGEN
 62
     7
370
    25
100
AcDbLine
 10
-6.843684
 20
3.92305
 30
0.0
 11
-6.783684
 21
3.85105
 31
0.0
  0
LINE
  5
1EC
330
1CD
100
AcDbEntity
  8
XR$1$STANDARD_1
  6
AUSGEZOGEN
 62
     7
370
    25
100
AcDbLine
 10
-6.693684
 20
3.92305
 30
0.0
 11
-6.633684
 21
3.85105
 31
0.0
  0
LINE
  5
1ED
330
1CD
100
AcDbEntity
  8
XR$1$STANDARD_1
  6
AUSGEZOGEN
 62
     7
370
    25
100
AcDbLine
 10
-7.136184
 20
3.93205
 30
0.0
 11
-7.083684
 21
3.86905
 31
0.0
  0
LINE
  5
1EE
330
1CD
100
AcDbEntity
  8
XR$1$STANDARD_1
  6
AUSGEZOGEN
 62
     7
370
    25
100
AcDbLine
 10
-6.986184
 20
3.93205
 30
0.0
 11
-6.933684
 21
3.86905
 31
0.0
  0
LINE
  5
1EF
330
1CD
100
AcDbEntity
  8
XR$1$STANDARD_1
  6
AUSGEZOGEN
 62
     7
370
    25
100
AcDbLine
 10
-6.836184
 20
3.93205
 30
0.0
 11
-6.783684
 21
3.86905
 31
0.0
  0
LINE
  5
1F0
330
1CD
100
AcDbEntity
  8
XR$1$STANDARD_1
  6
AUSGEZOGEN
 62
     7
370
    25
100
AcDbLine
 10
-6.686184
 20
3.93205
 30
0.0
 11
-6.633684
 21
3.86905
 31
0.0
  0
LINE
  5
1F1
330
1CD
100
AcDbEntity
  8
XR$1$STANDARD_1
  6
AUSGEZOGEN
 62
     7
370
    25
100
AcDbLine
 10
-7.126884
 20
3.94105
 30
0.0
 11
-7.083684
 21
3.88921
 31
0.0
  0
LINE
  5
1F2
330
1CD
100
AcDbEntity
  8
XR$1$STANDARD_1
  6
AUSGEZOGEN
 62
     7
370
    25
100
AcDbLine
 10
-6.976884
 20
3.94105
 30
0.0
 11
-6.933684
 21
3.88921
 31
0.0
  0
LINE
  5
1F3
330
1CD
100
AcDbEntity
  8
XR$1$STANDARD_1
  6
AUSGEZOGEN
 62
     7
370
    25
100
AcDbLine
 10
-6.826884
 20
3.94105
 30
0.0
 11
-6.783684
 21
3.88921
 31
0.0
  0
LINE
  5
1F4
330
1CD
100
AcDbEntity
  8
XR$1$STANDARD_1
  6
AUSGEZOGEN
 62
     7
370
    25
100
AcDbLine
 10
-6.676884
 20
3.94105
 30
0.0
 11
-6.633684
 21
3.88921
 31
0.0
  0
ENDBLK
  5
1CF
330
1CD
100
AcDbEntity
  8
0
100
AcDbBlockEnd
  0
BLOCK
  5
1F8
330
1F7
100
AcDbEntity
  8
0
100
AcDbBlockBegin
  2
MUSTERELEMENT_6
 70
     0
 10
0.0
 20
0.0
 30
0.0
  3
MUSTERELEMENT_6
  1
MUSTERELEMENT_6
  0
LINE
  5
1FA
330
1F7
100
AcDbEntity
  8
XR$1$STANDARD_1
  6
AUSGEZOGEN
 62
     7
370
    25
100
AcDbLine
 10
-5.24397
 20
3.86905
 30
0.0
 11
-5.23647
 21
3.86005
 31
0.0
  0
LINE
  5
1FB
330
1F7
100
AcDbEntity
  8
XR$1$STANDARD_1
  6
AUSGEZOGEN
 62
     7
370
    25
100
AcDbLine
 10
-5.09397
 20
3.86905
 30
0.0
 11
-5.08647
 21
3.86005
 31
0.0
  0
LINE
  5
1FC
330
1F7
100
AcDbEntity
  8
XR$1$STANDARD_1
  6
AUSGEZOGEN
 62
     7
370
    25
100
AcDbLine
 10
-4.94397
 20
3.86905
 30
0.0
 11
-4.93647
 21
3.86005
 31
0.0
  0
LINE
  5
1FD
330
1F7
100
AcDbEntity
  8
XR$1$STANDARD_1
  6
AUSGEZOGEN
 62
     7
370
    25
100
AcDbLine
 10
-5.24397
 20
3.88705
 30
0.0
 11
-5.22897
 21
3.86905
 31
0.0
  0
LINE
  5
1FE
330
1F7
100
AcDbEntity
  8
XR$1$STANDARD_1
  6
AUSGEZOGEN
 62
     7
370
    25
100
AcDbLine
 10
-5.09397
 20
3.88705
 30
0.0
 11
-5.07897
 21
3.86905
 31
0.0
  0
LINE
  5
1FF
330
1F7
100
AcDbEntity
  8
XR$1$STANDARD_1
  6
AUSGEZOGEN
 62
     7
370
    25
100
AcDbLine
 10
-4.94397
 20
3.88705
 30
0.0
 11
-4.92897
 21
3.86905
 31
0.0
  0
LINE
  5
200
330
1F7
100
AcDbEntity
  8
XR$1$STANDARD_1
  6
AUSGEZOGEN
 62
     7
370
    25
100
AcDbLine
 10
-5.24397
 20
3.85105
 30
0.0
 11
-5.16897
 21
3.94105
 31
0.0
  0
LINE
  5
201
330
1F7
100
AcDbEntity
  8
XR$1$STANDARD_1
  6
AUSGEZOGEN
 62
     7
370
    25
100
AcDbLine
 10
-5.09397
 20
3.85105
 30
0.0
 11
-5.01897
 21
3.94105
 31
0.0
  0
LINE
  5
202
330
1F7
100
AcDbEntity
  8
XR$1$STANDARD_1
  6
AUSGEZOGEN
 62
     7
370
    25
100
AcDbLine
 10
-4.94397
 20
3.85105
 30
0.0
 11
-4.86897
 21
3.94105
 31
0.0
  0
LINE
  5
203
330
1F7
100
AcDbEntity
  8
XR$1$STANDARD_1
  6
AUSGEZOGEN
 62
     7
370
    25
100
AcDbLine
 10
-5.22897
 20
3.85105
 30
0.0
 11
-5.15397
 21
3.94105
 31
0.0
  0
LINE
  5
204
330
1F7
100
AcDbEntity
  8
XR$1$STANDARD_1
  6
AUSGEZOGEN
 62
     7
370
    25
100
AcDbLine
 10
-5.07897
 20
3.85105
 30
0.0
 11
-5.00397
 21
3.94105
 31
0.0
  0
LINE
  5
205
330
1F7
100
AcDbEntity
  8
XR$1$STANDARD_1
  6
AUSGEZOGEN
 62
     7
370
    25
100
AcDbLine
 10
-4.92897
 20
3.85105
 30
0.0
 11
-4.85397
 21
3.94105
 31
0.0
  0
LINE
  5
206
330
1F7
100
AcDbEntity
  8
XR$1$STANDARD_1
  6
AUSGEZOGEN
 62
     7
370
    25
100
AcDbLine
 10
-5.21397
 20
3.85105
 30
0.0
 11
-5.13897
 21
3.94105
 31
0.0
  0
LINE
  5
207
330
1F7
100
AcDbEntity
  8
XR$1$STANDARD_1
  6
AUSGEZOGEN
 62
     7
370
    25
100
AcDbLine
 10
-5.06397
 20
3.85105
 30
0.0
 11
-4.98897
 21
3.94105
 31
0.0
  0
LINE
  5
208
330
1F7
100
AcDbEntity
  8
XR$1$STANDARD_1
  6
AUSGEZOGEN
 62
     7
370
    25
100
AcDbLine
 10
-4.91397
 20
3.85105
 30
0.0
 11
-4.83897
 21
3.94105
 31
0.0
  0
LINE
  5
209
330
1F7
100
AcDbEntity
  8
XR$1$STANDARD_1
  6
AUSGEZOGEN
 62
     7
370
    25
100
AcDbLine
 10
-5.15397
 20
3.92305
 30
0.0
 11
-5.09397
 21
3.85105
 31
0.0
  0
LINE
  5
20A
330
1F7
100
AcDbEntity
  8
XR$1$STANDARD_1
  6
AUSGEZOGEN
 62
     7
370
    25
100
AcDbLine
 10
-5.00397
 20
3.92305
 30
0.0
 11
-4.94397
 21
3.85105
 31
0.0
  0
LINE
  5
20B
330
1F7
100
AcDbEntity
  8
XR$1$STANDARD_1
  6
AUSGEZOGEN
 62
     7
370
    25
100
AcDbLine
 10
-4.85397
 20
3.92305
 30
0.0
 11
-4.812116
 21
3.872824
 31
0.0
  0
LINE
  5
20C
330
1F7
100
AcDbEntity
  8
XR$1$STANDARD_1
  6
AUSGEZOGEN
 62
     7
370
    25
100
AcDbLine
 10
-5.14647
 20
3.93205
 30
0.0
 11
-5.09397
 21
3.86905
 31
0.0
  0
LINE
  5
20D
330
1F7
100
AcDbEntity
  8
XR$1$STANDARD_1
  6
AUSGEZOGEN
 62
     7
370
    25
100
AcDbLine
 10
-4.99647
 20
3.93205
 30
0.0
 11
-4.94397
 21
3.86905
 31
0.0
  0
LINE
  5
20E
330
1F7
100
AcDbEntity
  8
XR$1$STANDARD_1
  6
AUSGEZOGEN
 62
     7
370
    25
100
AcDbLine
 10
-4.84647
 20
3.93205
 30
0.0
 11
-4.812116
 21
3.890824
 31
0.0
  0
LINE
  5
20F
330
1F7
100
AcDbEntity
  8
XR$1$STANDARD_1
  6
AUSGEZOGEN
 62
     7
370
    25
100
AcDbLine
 10
-5.13717
 20
3.94105
 30
0.0
 11
-5.09397
 21
3.88921
 31
0.0
  0
LINE
  5
210
330
1F7
100
AcDbEntity
  8
XR$1$STANDARD_1
  6
AUSGEZOGEN
 62
     7
370
    25
100
AcDbLine
 10
-4.98717
 20
3.94105
 30
0.0
 11
-4.94397
 21
3.88921
 31
0.0
  0
LINE
  5
211
330
1F7
100
AcDbEntity
  8
XR$1$STANDARD_1
  6
AUSGEZOGEN
 62
     7
370
    25
100
AcDbLine
 10
-4.83717
 20
3.94105
 30
0.0
 11
-4.812116
 21
3.910984
 31
0.0
  0
ENDBLK
  5
1F9
330
1F7
100
AcDbEntity
  8
0
100
AcDbBlockEnd
  0
BLOCK
  5
21C
330
21B
100
AcDbEntity
  8
0
100
AcDbBlockBegin
  2
*D20
 70
     1
 10
0.0
 20
0.0
 30
0.0
  3
*D20
  1
*D20
  0
MTEXT
  5
21E
330
21B
100
AcDbEntity
  8
XR$1$STANDARD_1
  6
AUSGEZOGEN
 62
    94
370
    25
100
AcDbMText
 10
-11.534921
 20
-1.177718
 30
0.0
 40
0.15
 41
0.5
 46
0.0
 71
     5
 72
     1
  1
\W0.83;\A1;{\A1;{3.00\H0.099000;\S^ ;}}
  7
CALIBRI
 73
     1
 44
1.0
  0
LINE
  5
21F
330
21B
100
AcDbEntity
  8
XR$1$STANDARD_1
  6
AUSGEZOGEN
 62
    94
370
    -2
100
AcDbLine
 10
-13.037974
 20
-1.29492
 30
0.0
 11
-10.037974
 21
-1.29492
 31
0.0
  0
INSERT
  5
220
330
21B
100
AcDbEntity
  8
XR$1$STANDARD_1
  6
AUSGEZOGEN
 62
    94
370
    25
100
AcDbBlockReference
  2
ALL_ML_STRICH
 10
-13.037974
 20
-1.29492
 30
0.0
 41
0.15
 42
0.15
 43
0.15
 50
180.0
  0
INSERT
  5
221
330
21B
100
AcDbEntity
  8
XR$1$STANDARD_1
  6
AUSGEZOGEN
 62
    94
370
    25
100
AcDbBlockReference
  2
ALL_ML_STRICH
 10
-10.037974
 20
-1.29492
 30
0.0
 41
0.15
 42
0.15
 43
0.15
  0
POINT
  5
222
330
21B
100
AcDbEntity
  8
DEFPOINTS
  6
AUSGEZOGEN
 62
    94
370
    25
100
AcDbPoint
 10
-13.037974
 20
-2.99492
 30
0.0
  0
POINT
  5
223
330
21B
100
AcDbEntity
  8
DEFPOINTS
  6
AUSGEZOGEN
 62
    94
370
    25
100
AcDbPoint
 10
-10.037974
 20
-2.99492
 30
0.0
  0
POINT
  5
224
330
21B
100
AcDbEntity
  8
DEFPOINTS
  6
AUSGEZOGEN
 62
    94
370
    25
100
AcDbPoint
 10
-13.037974
 20
-1.29492
 30
0.0
  0
ENDBLK
  5
21D
330
21B
100
AcDbEntity
  8
0
100
AcDbBlockEnd
  0
BLOCK
  5
228
330
227
100
AcDbEntity
  8
0
100
AcDbBlockBegin
  2
*D21
 70
     1
 10
0.0
 20
0.0
 30
0.0
  3
*D21
  1
*D21
  0
MTEXT
  5
22A
330
227
100
AcDbEntity
  8
XR$1$STANDARD_1
  6
AUSGEZOGEN
 62
    94
370
    25
100
AcDbMText
 10
-13.555176
 20
-2.341868
 30
0.0
 40
0.15
 41
0.5
 46
0.0
 71
     5
 72
     1
  1
\W0.83;\A1;{\A1;{1.30\H0.099000;\S^ ;}}
  7
CALIBRI
 11
6.123233995736766E-17
 21
1.0
 31
0.0
 73
     1
 44
1.0
  0
LINE
  5
22B
330
227
100
AcDbEntity
  8
XR$1$STANDARD_1
  6
AUSGEZOGEN
 62
    94
370
    -2
100
AcDbLine
 10
-13.437974
 20
-2.99492
 30
0.0
 11
-13.437974
 21
-1.69492
 31
0.0
  0
INSERT
  5
22C
330
227
100
AcDbEntity
  8
XR$1$STANDARD_1
  6
AUSGEZOGEN
 62
    94
370
    25
100
AcDbBlockReference
  2
ALL_ML_STRICH
 10
-13.437974
 20
-2.99492
 30
0.0
 41
0.15
 42
0.15
 43
0.15
 50
270.0
  0
INSERT
  5
22D
330
227
100
AcDbEntity
  8
XR$1$STANDARD_1
  6
AUSGEZOGEN
 62
    94
370
    25
100
AcDbBlockReference
  2
ALL_ML_STRICH
 10
-13.437974
 20
-1.69492
 30
0.0
 41
0.15
 42
0.15
 43
0.15
 50
90.0
  0
POINT
  5
22E
330
227
100
AcDbEntity
  8
DEFPOINTS
  6
AUSGEZOGEN
 62
    94
370
    25
100
AcDbPoint
 10
-13.037974
 20
-2.99492
 30
0.0
  0
POINT
  5
22F
330
227
100
AcDbEntity
  8
DEFPOINTS
  6
AUSGEZOGEN
 62
    94
370
    25
100
AcDbPoint
 10
-13.037974
 20
-1.69492
 30
0.0
  0
POINT
  5
230
330
227
100
AcDbEntity
  8
DEFPOINTS
  6
AUSGEZOGEN
 62
    94
370
    25
100
AcDbPoint
 10
-13.437974
 20
-2.99492
 30
0.0
  0
ENDBLK
  5
229
330
227
100
AcDbEntity
  8
0
100
AcDbBlockEnd
  0
BLOCK
  5
24E
330
24D
100
AcDbEntity
  8
0
100
AcDbBlockBegin
  2
MUSTERELEMENT_7
 70
     0
 10
0.0
 20
0.0
 30
0.0
  3
MUSTERELEMENT_7
  1
MUSTERELEMENT_7
  0
LINE
  5
250
330
24D
100
AcDbEntity
  8
XR$1$STANDARD_1
  6
AUSGEZOGEN
 62
     7
370
    25
100
AcDbLine
 10
-5.813966
 20
-2.784023
 30
0.0
 11
-5.806466
 21
-2.793023
 31
0.0
  0
LINE
  5
251
330
24D
100
AcDbEntity
  8
XR$1$STANDARD_1
  6
AUSGEZOGEN
 62
     7
370
    25
100
AcDbLine
 10
-5.663966
 20
-2.784023
 30
0.0
 11
-5.656466
 21
-2.793023
 31
0.0
  0
LINE
  5
252
330
24D
100
AcDbEntity
  8
XR$1$STANDARD_1
  6
AUSGEZOGEN
 62
     7
370
    25
100
AcDbLine
 10
-5.513966
 20
-2.784023
 30
0.0
 11
-5.506466
 21
-2.793023
 31
0.0
  0
LINE
  5
253
330
24D
100
AcDbEntity
  8
XR$1$STANDARD_1
  6
AUSGEZOGEN
 62
     7
370
    25
100
AcDbLine
 10
-5.363966
 20
-2.784023
 30
0.0
 11
-5.356466
 21
-2.793023
 31
0.0
  0
LINE
  5
254
330
24D
100
AcDbEntity
  8
XR$1$STANDARD_1
  6
AUSGEZOGEN
 62
     7
370
    25
100
AcDbLine
 10
-5.813966
 20
-2.766023
 30
0.0
 11
-5.798966
 21
-2.784023
 31
0.0
  0
LINE
  5
255
330
24D
100
AcDbEntity
  8
XR$1$STANDARD_1
  6
AUSGEZOGEN
 62
     7
370
    25
100
AcDbLine
 10
-5.663966
 20
-2.766023
 30
0.0
 11
-5.648966
 21
-2.784023
 31
0.0
  0
LINE
  5
256
330
24D
100
AcDbEntity
  8
XR$1$STANDARD_1
  6
AUSGEZOGEN
 62
     7
370
    25
100
AcDbLine
 10
-5.513966
 20
-2.766023
 30
0.0
 11
-5.498966
 21
-2.784023
 31
0.0
  0
LINE
  5
257
330
24D
100
AcDbEntity
  8
XR$1$STANDARD_1
  6
AUSGEZOGEN
 62
     7
370
    25
100
AcDbLine
 10
-5.363966
 20
-2.766023
 30
0.0
 11
-5.348966
 21
-2.784023
 31
0.0
  0
LINE
  5
258
330
24D
100
AcDbEntity
  8
XR$1$STANDARD_1
  6
AUSGEZOGEN
 62
     7
370
    25
100
AcDbLine
 10
-5.813966
 20
-2.802023
 30
0.0
 11
-5.738966
 21
-2.712023
 31
0.0
  0
LINE
  5
259
330
24D
100
AcDbEntity
  8
XR$1$STANDARD_1
  6
AUSGEZOGEN
 62
     7
370
    25
100
AcDbLine
 10
-5.663966
 20
-2.802023
 30
0.0
 11
-5.588966
 21
-2.712023
 31
0.0
  0
LINE
  5
25A
330
24D
100
AcDbEntity
  8
XR$1$STANDARD_1
  6
AUSGEZOGEN
 62
     7
370
    25
100
AcDbLine
 10
-5.513966
 20
-2.802023
 30
0.0
 11
-5.438966
 21
-2.712023
 31
0.0
  0
LINE
  5
25B
330
24D
100
AcDbEntity
  8
XR$1$STANDARD_1
  6
AUSGEZOGEN
 62
     7
370
    25
100
AcDbLine
 10
-5.363966
 20
-2.802023
 30
0.0
 11
-5.288966
 21
-2.712023
 31
0.0
  0
LINE
  5
25C
330
24D
100
AcDbEntity
  8
XR$1$STANDARD_1
  6
AUSGEZOGEN
 62
     7
370
    25
100
AcDbLine
 10
-5.798966
 20
-2.802023
 30
0.0
 11
-5.723966
 21
-2.712023
 31
0.0
  0
LINE
  5
25D
330
24D
100
AcDbEntity
  8
XR$1$STANDARD_1
  6
AUSGEZOGEN
 62
     7
370
    25
100
AcDbLine
 10
-5.648966
 20
-2.802023
 30
0.0
 11
-5.573966
 21
-2.712023
 31
0.0
  0
LINE
  5
25E
330
24D
100
AcDbEntity
  8
XR$1$STANDARD_1
  6
AUSGEZOGEN
 62
     7
370
    25
100
AcDbLine
 10
-5.498966
 20
-2.802023
 30
0.0
 11
-5.423966
 21
-2.712023
 31
0.0
  0
LINE
  5
25F
330
24D
100
AcDbEntity
  8
XR$1$STANDARD_1
  6
AUSGEZOGEN
 62
     7
370
    25
100
AcDbLine
 10
-5.348966
 20
-2.802023
 30
0.0
 11
-5.273966
 21
-2.712023
 31
0.0
  0
LINE
  5
260
330
24D
100
AcDbEntity
  8
XR$1$STANDARD_1
  6
AUSGEZOGEN
 62
     7
370
    25
100
AcDbLine
 10
-5.783966
 20
-2.802023
 30
0.0
 11
-5.708966
 21
-2.712023
 31
0.0
  0
LINE
  5
261
330
24D
100
AcDbEntity
  8
XR$1$STANDARD_1
  6
AUSGEZOGEN
 62
     7
370
    25
100
AcDbLine
 10
-5.633966
 20
-2.802023
 30
0.0
 11
-5.558966
 21
-2.712023
 31
0.0
  0
LINE
  5
262
330
24D
100
AcDbEntity
  8
XR$1$STANDARD_1
  6
AUSGEZOGEN
 62
     7
370
    25
100
AcDbLine
 10
-5.483966
 20
-2.802023
 30
0.0
 11
-5.408966
 21
-2.712023
 31
0.0
  0
LINE
  5
263
330
24D
100
AcDbEntity
  8
XR$1$STANDARD_1
  6
AUSGEZOGEN
 62
     7
370
    25
100
AcDbLine
 10
-5.333966
 20
-2.802023
 30
0.0
 11
-5.258966
 21
-2.712023
 31
0.0
  0
LINE
  5
264
330
24D
100
AcDbEntity
  8
XR$1$STANDARD_1
  6
AUSGEZOGEN
 62
     7
370
    25
100
AcDbLine
 10
-5.723966
 20
-2.730023
 30
0.0
 11
-5.663966
 21
-2.802023
 31
0.0
  0
LINE
  5
265
330
24D
100
AcDbEntity
  8
XR$1$STANDARD_1
  6
AUSGEZOGEN
 62
     7
370
    25
100
AcDbLine
 10
-5.573966
 20
-2.730023
 30
0.0
 11
-5.513966
 21
-2.802023
 31
0.0
  0
LINE
  5
266
330
24D
100
AcDbEntity
  8
XR$1$STANDARD_1
  6
AUSGEZOGEN
 62
     7
370
    25
100
AcDbLine
 10
-5.423966
 20
-2.730023
 30
0.0
 11
-5.363966
 21
-2.802023
 31
0.0
  0
LINE
  5
267
330
24D
100
AcDbEntity
  8
XR$1$STANDARD_1
  6
AUSGEZOGEN
 62
     7
370
    25
100
AcDbLine
 10
-5.273966
 20
-2.730023
 30
0.0
 11
-5.252636
 21
-2.755619
 31
0.0
  0
LINE
  5
268
330
24D
100
AcDbEntity
  8
XR$1$STANDARD_1
  6
AUSGEZOGEN
 62
     7
370
    25
100
AcDbLine
 10
-5.716466
 20
-2.721023
 30
0.0
 11
-5.663966
 21
-2.784023
 31
0.0
  0
LINE
  5
269
330
24D
100
AcDbEntity
  8
XR$1$STANDARD_1
  6
AUSGEZOGEN
 62
     7
370
    25
100
AcDbLine
 10
-5.566466
 20
-2.721023
 30
0.0
 11
-5.513966
 21
-2.784023
 31
0.0
  0
LINE
  5
26A
330
24D
100
AcDbEntity
  8
XR$1$STANDARD_1
  6
AUSGEZOGEN
 62
     7
370
    25
100
AcDbLine
 10
-5.416466
 20
-2.721023
 30
0.0
 11
-5.363966
 21
-2.784023
 31
0.0
  0
LINE
  5
26B
330
24D
100
AcDbEntity
  8
XR$1$STANDARD_1
  6
AUSGEZOGEN
 62
     7
370
    25
100
AcDbLine
 10
-5.266466
 20
-2.721023
 30
0.0
 11
-5.252636
 21
-2.737619
 31
0.0
  0
LINE
  5
26C
330
24D
100
AcDbEntity
  8
XR$1$STANDARD_1
  6
AUSGEZOGEN
 62
     7
370
    25
100
AcDbLine
 10
-5.707166
 20
-2.712023
 30
0.0
 11
-5.663966
 21
-2.763863
 31
0.0
  0
LINE
  5
26D
330
24D
100
AcDbEntity
  8
XR$1$STANDARD_1
  6
AUSGEZOGEN
 62
     7
370
    25
100
AcDbLine
 10
-5.557166
 20
-2.712023
 30
0.0
 11
-5.513966
 21
-2.763863
 31
0.0
  0
LINE
  5
26E
330
24D
100
AcDbEntity
  8
XR$1$STANDARD_1
  6
AUSGEZOGEN
 62
     7
370
    25
100
AcDbLine
 10
-5.407166
 20
-2.712023
 30
0.0
 11
-5.363966
 21
-2.763863
 31
0.0
  0
LINE
  5
26F
330
24D
100
AcDbEntity
  8
XR$1$STANDARD_1
  6
AUSGEZOGEN
 62
     7
370
    25
100
AcDbLine
 10
-5.257166
 20
-2.712023
 30
0.0
 11
-5.252636
 21
-2.717459
 31
0.0
  0
ENDBLK
  5
24F
330
24D
100
AcDbEntity
  8
0
100
AcDbBlockEnd
  0
BLOCK
  5
272
330
271
100
AcDbEntity
  8
0
100
AcDbBlockBegin
  2
*D23
 70
     1
 10
0.0
 20
0.0
 30
0.0
  3
*D23
  1
*D23
  0
MTEXT
  5
274
330
271
100
AcDbEntity
  8
XR$1$STANDARD_1
  6
AUSGEZOGEN
 62
    94
370
    25
100
AcDbMText
 10
-7.359404
 20
-2.491944
 30
0.0
 40
0.15
 41
0.5
 46
0.0
 71
     5
 72
     1
  1
\W0.83;\A1;{\A1;{44\H0.099000;\S^ ;}}
  7
CALIBRI
 11
6.123233995736766E-17
 21
1.0
 31
0.0
 73
     1
 44
1.0
  0
LINE
  5
275
330
271
100
AcDbEntity
  8
XR$1$STANDARD_1
  6
AUSGEZOGEN
 62
    94
370
    -2
100
AcDbLine
 10
-7.243709
 20
-2.702023
 30
0.0
 11
-7.243709
 21
-2.262023
 31
0.0
  0
INSERT
  5
276
330
271
100
AcDbEntity
  8
XR$1$STANDARD_1
  6
AUSGEZOGEN
 62
    94
370
    25
100
AcDbBlockReference
  2
ALL_ML_STRICH
 10
-7.243709
 20
-2.702023
 30
0.0
 41
0.15
 42
0.15
 43
0.15
 50
270.0
  0
INSERT
  5
277
330
271
100
AcDbEntity
  8
XR$1$STANDARD_1
  6
AUSGEZOGEN
 62
    94
370
    25
100
AcDbBlockReference
  2
ALL_ML_STRICH
 10
-7.243709
 20
-2.262023
 30
0.0
 41
0.15
 42
0.15
 43
0.15
 50
90.0
  0
POINT
  5
278
330
271
100
AcDbEntity
  8
DEFPOINTS
  6
AUSGEZOGEN
 62
    94
370
    25
100
AcDbPoint
 10
-6.523966
 20
-2.702023
 30
0.0
  0
POINT
  5
279
330
271
100
AcDbEntity
  8
DEFPOINTS
  6
AUSGEZOGEN
 62
    94
370
    25
100
AcDbPoint
 10
-6.280709
 20
-2.262023
 30
0.0
  0
POINT
  5
27A
330
271
100
AcDbEntity
  8
DEFPOINTS
  6
AUSGEZOGEN
 62
    94
370
    25
100
AcDbPoint
 10
-7.243709
 20
-2.702023
 30
0.0
  0
ENDBLK
  5
273
330
271
100
AcDbEntity
  8
0
100
AcDbBlockEnd
  0
BLOCK
  5
28F
330
28E
100
AcDbEntity
  8
0
100
AcDbBlockBegin
  2
*D24
 70
     1
 10
0.0
 20
0.0
 30
0.0
  3
*D24
  1
*D24
  0
MTEXT
  5
291
330
28E
100
AcDbEntity
  8
XR$1$STANDARD_1
  6
AUSGEZOGEN
 62
    94
370
    25
100
AcDbMText
 10
-6.190994
 20
-1.491679
 30
0.0
 40
0.15
 41
0.5
 46
0.0
 71
     5
 72
     1
  1
\W0.83;\A1;{\A1;{1.30\H0.099000;\S^ ;}}
  7
CALIBRI
 73
     1
 44
1.0
  0
LINE
  5
292
330
28E
100
AcDbEntity
  8
XR$1$STANDARD_1
  6
AUSGEZOGEN
 62
    94
370
    -2
100
AcDbLine
 10
-6.843966
 20
-1.608882
 30
0.0
 11
-5.544128
 21
-1.608882
 31
0.0
  0
INSERT
  5
293
330
28E
100
AcDbEntity
  8
XR$1$STANDARD_1
  6
AUSGEZOGEN
 62
    94
370
    25
100
AcDbBlockReference
  2
ALL_ML_STRICH
 10
-6.843966
 20
-1.608882
 30
0.0
 41
0.15
 42
0.15
 43
0.15
 50
180.0
  0
INSERT
  5
294
330
28E
100
AcDbEntity
  8
XR$1$STANDARD_1
  6
AUSGEZOGEN
 62
    94
370
    25
100
AcDbBlockReference
  2
ALL_ML_STRICH
 10
-5.544128
 20
-1.608882
 30
0.0
 41
0.15
 42
0.15
 43
0.15
  0
POINT
  5
295
330
28E
100
AcDbEntity
  8
DEFPOINTS
  6
AUSGEZOGEN
 62
    94
370
    25
100
AcDbPoint
 10
-6.843966
 20
-2.432023
 30
0.0
  0
POINT
  5
296
330
28E
100
AcDbEntity
  8
DEFPOINTS
  6
AUSGEZOGEN
 62
    94
370
    25
100
AcDbPoint
 10
-5.544128
 20
-2.424608
 30
0.0
  0
POINT
  5
297
330
28E
100
AcDbEntity
  8
DEFPOINTS
  6
AUSGEZOGEN
 62
    94
370
    25
100
AcDbPoint
 10
-6.843966
 20
-1.608882
 30
0.0
  0
ENDBLK
  5
290
330
28E
100
AcDbEntity
  8
0
100
AcDbBlockEnd
  0
BLOCK
  5
29B
330
29A
100
AcDbEntity
  8
0
100
AcDbBlockBegin
  2
MUSTERELEMENT_8
 70
     0
 10
0.0
 20
0.0
 30
0.0
  3
MUSTERELEMENT_8
  1
MUSTERELEMENT_8
  0
LINE
  5
29D
330
29A
100
AcDbEntity
  8
XR$1$STANDARD_1
  6
AUSGEZOGEN
 62
     7
370
    25
100
AcDbLine
 10
-7.242349
 20
-2.784023
 30
0.0
 11
-7.234849
 21
-2.793023
 31
0.0
  0
LINE
  5
29E
330
29A
100
AcDbEntity
  8
XR$1$STANDARD_1
  6
AUSGEZOGEN
 62
     7
370
    25
100
AcDbLine
 10
-7.092349
 20
-2.784023
 30
0.0
 11
-7.084849
 21
-2.793023
 31
0.0
  0
LINE
  5
29F
330
29A
100
AcDbEntity
  8
XR$1$STANDARD_1
  6
AUSGEZOGEN
 62
     7
370
    25
100
AcDbLine
 10
-6.942349
 20
-2.784023
 30
0.0
 11
-6.934849
 21
-2.793023
 31
0.0
  0
LINE
  5
2A0
330
29A
100
AcDbEntity
  8
XR$1$STANDARD_1
  6
AUSGEZOGEN
 62
     7
370
    25
100
AcDbLine
 10
-6.792349
 20
-2.784023
 30
0.0
 11
-6.784849
 21
-2.793023
 31
0.0
  0
LINE
  5
2A1
330
29A
100
AcDbEntity
  8
XR$1$STANDARD_1
  6
AUSGEZOGEN
 62
     7
370
    25
100
AcDbLine
 10
-6.642349
 20
-2.784023
 30
0.0
 11
-6.634849
 21
-2.793023
 31
0.0
  0
LINE
  5
2A2
330
29A
100
AcDbEntity
  8
XR$1$STANDARD_1
  6
AUSGEZOGEN
 62
     7
370
    25
100
AcDbLine
 10
-7.242349
 20
-2.766023
 30
0.0
 11
-7.227349
 21
-2.784023
 31
0.0
  0
LINE
  5
2A3
330
29A
100
AcDbEntity
  8
XR$1$STANDARD_1
  6
AUSGEZOGEN
 62
     7
370
    25
100
AcDbLine
 10
-7.092349
 20
-2.766023
 30
0.0
 11
-7.077349
 21
-2.784023
 31
0.0
  0
LINE
  5
2A4
330
29A
100
AcDbEntity
  8
XR$1$STANDARD_1
  6
AUSGEZOGEN
 62
     7
370
    25
100
AcDbLine
 10
-6.942349
 20
-2.766023
 30
0.0
 11
-6.927349
 21
-2.784023
 31
0.0
  0
LINE
  5
2A5
330
29A
100
AcDbEntity
  8
XR$1$STANDARD_1
  6
AUSGEZOGEN
 62
     7
370
    25
100
AcDbLine
 10
-6.792349
 20
-2.766023
 30
0.0
 11
-6.777349
 21
-2.784023
 31
0.0
  0
LINE
  5
2A6
330
29A
100
AcDbEntity
  8
XR$1$STANDARD_1
  6
AUSGEZOGEN
 62
     7
370
    25
100
AcDbLine
 10
-6.642349
 20
-2.766023
 30
0.0
 11
-6.627349
 21
-2.784023
 31
0.0
  0
LINE
  5
2A7
330
29A
100
AcDbEntity
  8
XR$1$STANDARD_1
  6
AUSGEZOGEN
 62
     7
370
    25
100
AcDbLine
 10
-7.242349
 20
-2.802023
 30
0.0
 11
-7.167349
 21
-2.712023
 31
0.0
  0
LINE
  5
2A8
330
29A
100
AcDbEntity
  8
XR$1$STANDARD_1
  6
AUSGEZOGEN
 62
     7
370
    25
100
AcDbLine
 10
-7.092349
 20
-2.802023
 30
0.0
 11
-7.017349
 21
-2.712023
 31
0.0
  0
LINE
  5
2A9
330
29A
100
AcDbEntity
  8
XR$1$STANDARD_1
  6
AUSGEZOGEN
 62
     7
370
    25
100
AcDbLine
 10
-6.942349
 20
-2.802023
 30
0.0
 11
-6.867349
 21
-2.712023
 31
0.0
  0
LINE
  5
2AA
330
29A
100
AcDbEntity
  8
XR$1$STANDARD_1
  6
AUSGEZOGEN
 62
     7
370
    25
100
AcDbLine
 10
-6.792349
 20
-2.802023
 30
0.0
 11
-6.717349
 21
-2.712023
 31
0.0
  0
LINE
  5
2AB
330
29A
100
AcDbEntity
  8
XR$1$STANDARD_1
  6
AUSGEZOGEN
 62
     7
370
    25
100
AcDbLine
 10
-6.642349
 20
-2.802023
 30
0.0
 11
-6.573966
 21
-2.719963
 31
0.0
  0
LINE
  5
2AC
330
29A
100
AcDbEntity
  8
XR$1$STANDARD_1
  6
AUSGEZOGEN
 62
     7
370
    25
100
AcDbLine
 10
-7.227349
 20
-2.802023
 30
0.0
 11
-7.152349
 21
-2.712023
 31
0.0
  0
LINE
  5
2AD
330
29A
100
AcDbEntity
  8
XR$1$STANDARD_1
  6
AUSGEZOGEN
 62
     7
370
    25
100
AcDbLine
 10
-7.077349
 20
-2.802023
 30
0.0
 11
-7.002349
 21
-2.712023
 31
0.0
  0
LINE
  5
2AE
330
29A
100
AcDbEntity
  8
XR$1$STANDARD_1
  6
AUSGEZOGEN
 62
     7
370
    25
100
AcDbLine
 10
-6.927349
 20
-2.802023
 30
0.0
 11
-6.852349
 21
-2.712023
 31
0.0
  0
LINE
  5
2AF
330
29A
100
AcDbEntity
  8
XR$1$STANDARD_1
  6
AUSGEZOGEN
 62
     7
370
    25
100
AcDbLine
 10
-6.777349
 20
-2.802023
 30
0.0
 11
-6.702349
 21
-2.712023
 31
0.0
  0
LINE
  5
2B0
330
29A
100
AcDbEntity
  8
XR$1$STANDARD_1
  6
AUSGEZOGEN
 62
     7
370
    25
100
AcDbLine
 10
-6.627349
 20
-2.802023
 30
0.0
 11
-6.573966
 21
-2.737963
 31
0.0
  0
LINE
  5
2B1
330
29A
100
AcDbEntity
  8
XR$1$STANDARD_1
  6
AUSGEZOGEN
 62
     7
370
    25
100
AcDbLine
 10
-7.212349
 20
-2.802023
 30
0.0
 11
-7.137349
 21
-2.712023
 31
0.0
  0
LINE
  5
2B2
330
29A
100
AcDbEntity
  8
XR$1$STANDARD_1
  6
AUSGEZOGEN
 62
     7
370
    25
100
AcDbLine
 10
-7.062349
 20
-2.802023
 30
0.0
 11
-6.987349
 21
-2.712023
 31
0.0
  0
LINE
  5
2B3
330
29A
100
AcDbEntity
  8
XR$1$STANDARD_1
  6
AUSGEZOGEN
 62
     7
370
    25
100
AcDbLine
 10
-6.912349
 20
-2.802023
 30
0.0
 11
-6.837349
 21
-2.712023
 31
0.0
  0
LINE
  5
2B4
330
29A
100
AcDbEntity
  8
XR$1$STANDARD_1
  6
AUSGEZOGEN
 62
     7
370
    25
100
AcDbLine
 10
-6.762349
 20
-2.802023
 30
0.0
 11
-6.687349
 21
-2.712023
 31
0.0
  0
LINE
  5
2B5
330
29A
100
AcDbEntity
  8
XR$1$STANDARD_1
  6
AUSGEZOGEN
 62
     7
370
    25
100
AcDbLine
 10
-6.612349
 20
-2.802023
 30
0.0
 11
-6.573966
 21
-2.755963
 31
0.0
  0
LINE
  5
2B6
330
29A
100
AcDbEntity
  8
XR$1$STANDARD_1
  6
AUSGEZOGEN
 62
     7
370
    25
100
AcDbLine
 10
-7.152349
 20
-2.730023
 30
0.0
 11
-7.092349
 21
-2.802023
 31
0.0
  0
LINE
  5
2B7
330
29A
100
AcDbEntity
  8
XR$1$STANDARD_1
  6
AUSGEZOGEN
 62
     7
370
    25
100
AcDbLine
 10
-7.002349
 20
-2.730023
 30
0.0
 11
-6.942349
 21
-2.802023
 31
0.0
  0
LINE
  5
2B8
330
29A
100
AcDbEntity
  8
XR$1$STANDARD_1
  6
AUSGEZOGEN
 62
     7
370
    25
100
AcDbLine
 10
-6.852349
 20
-2.730023
 30
0.0
 11
-6.792349
 21
-2.802023
 31
0.0
  0
LINE
  5
2B9
330
29A
100
AcDbEntity
  8
XR$1$STANDARD_1
  6
AUSGEZOGEN
 62
     7
370
    25
100
AcDbLine
 10
-6.702349
 20
-2.730023
 30
0.0
 11
-6.642349
 21
-2.802023
 31
0.0
  0
LINE
  5
2BA
330
29A
100
AcDbEntity
  8
XR$1$STANDARD_1
  6
AUSGEZOGEN
 62
     7
370
    25
100
AcDbLine
 10
-7.144849
 20
-2.721023
 30
0.0
 11
-7.092349
 21
-2.784023
 31
0.0
  0
LINE
  5
2BB
330
29A
100
AcDbEntity
  8
XR$1$STANDARD_1
  6
AUSGEZOGEN
 62
     7
370
    25
100
AcDbLine
 10
-6.994849
 20
-2.721023
 30
0.0
 11
-6.942349
 21
-2.784023
 31
0.0
  0
LINE
  5
2BC
330
29A
100
AcDbEntity
  8
XR$1$STANDARD_1
  6
AUSGEZOGEN
 62
     7
370
    25
100
AcDbLine
 10
-6.844849
 20
-2.721023
 30
0.0
 11
-6.792349
 21
-2.784023
 31
0.0
  0
LINE
  5
2BD
330
29A
100
AcDbEntity
  8
XR$1$STANDARD_1
  6
AUSGEZOGEN
 62
     7
370
    25
100
AcDbLine
 10
-6.694849
 20
-2.721023
 30
0.0
 11
-6.642349
 21
-2.784023
 31
0.0
  0
LINE
  5
2BE
330
29A
100
AcDbEntity
  8
XR$1$STANDARD_1
  6
AUSGEZOGEN
 62
     7
370
    25
100
AcDbLine
 10
-7.135549
 20
-2.712023
 30
0.0
 11
-7.092349
 21
-2.763863
 31
0.0
  0
LINE
  5
2BF
330
29A
100
AcDbEntity
  8
XR$1$STANDARD_1
  6
AUSGEZOGEN
 62
     7
370
    25
100
AcDbLine
 10
-6.985549
 20
-2.712023
 30
0.0
 11
-6.942349
 21
-2.763863
 31
0.0
  0
LINE
  5
2C0
330
29A
100
AcDbEntity
  8
XR$1$STANDARD_1
  6
AUSGEZOGEN
 62
     7
370
    25
100
AcDbLine
 10
-6.835549
 20
-2.712023
 30
0.0
 11
-6.792349
 21
-2.763863
 31
0.0
  0
LINE
  5
2C1
330
29A
100
AcDbEntity
  8
XR$1$STANDARD_1
  6
AUSGEZOGEN
 62
     7
370
    25
100
AcDbLine
 10
-6.685549
 20
-2.712023
 30
0.0
 11
-6.642349
 21
-2.763863
 31
0.0
  0
ENDBLK
  5
29C
330
29A
100
AcDbEntity
  8
0
100
AcDbBlockEnd
  0
BLOCK
  5
2C5
330
2C4
100
AcDbEntity
  8
0
100
AcDbBlockBegin
  2
MUSTERELEMENT_9
 70
     0
 10
0.0
 20
0.0
 30
0.0
  3
MUSTERELEMENT_9
  1
MUSTERELEMENT_9
  0
LINE
  5
2C7
330
2C4
100
AcDbEntity
  8
XR$1$STANDARD_1
  6
AUSGEZOGEN
 62
     7
370
    25
100
AcDbLine
 10
-5.252636
 20
-2.784023
 30
0.0
 11
-5.245136
 21
-2.793023
 31
0.0
  0
LINE
  5
2C8
330
2C4
100
AcDbEntity
  8
XR$1$STANDARD_1
  6
AUSGEZOGEN
 62
     7
370
    25
100
AcDbLine
 10
-5.102636
 20
-2.784023
 30
0.0
 11
-5.095136
 21
-2.793023
 31
0.0
  0
LINE
  5
2C9
330
2C4
100
AcDbEntity
  8
XR$1$STANDARD_1
  6
AUSGEZOGEN
 62
     7
370
    25
100
AcDbLine
 10
-4.952636
 20
-2.784023
 30
0.0
 11
-4.945136
 21
-2.793023
 31
0.0
  0
LINE
  5
2CA
330
2C4
100
AcDbEntity
  8
XR$1$STANDARD_1
  6
AUSGEZOGEN
 62
     7
370
    25
100
AcDbLine
 10
-5.252636
 20
-2.766023
 30
0.0
 11
-5.237636
 21
-2.784023
 31
0.0
  0
LINE
  5
2CB
330
2C4
100
AcDbEntity
  8
XR$1$STANDARD_1
  6
AUSGEZOGEN
 62
     7
370
    25
100
AcDbLine
 10
-5.102636
 20
-2.766023
 30
0.0
 11
-5.087636
 21
-2.784023
 31
0.0
  0
LINE
  5
2CC
330
2C4
100
AcDbEntity
  8
XR$1$STANDARD_1
  6
AUSGEZOGEN
 62
     7
370
    25
100
AcDbLine
 10
-4.952636
 20
-2.766023
 30
0.0
 11
-4.937636
 21
-2.784023
 31
0.0
  0
LINE
  5
2CD
330
2C4
100
AcDbEntity
  8
XR$1$STANDARD_1
  6
AUSGEZOGEN
 62
     7
370
    25
100
AcDbLine
 10
-5.252636
 20
-2.802023
 30
0.0
 11
-5.177636
 21
-2.712023
 31
0.0
  0
LINE
  5
2CE
330
2C4
100
AcDbEntity
  8
XR$1$STANDARD_1
  6
AUSGEZOGEN
 62
     7
370
    25
100
AcDbLine
 10
-5.102636
 20
-2.802023
 30
0.0
 11
-5.027636
 21
-2.712023
 31
0.0
  0
LINE
  5
2CF
330
2C4
100
AcDbEntity
  8
XR$1$STANDARD_1
  6
AUSGEZOGEN
 62
     7
370
    25
100
AcDbLine
 10
-4.952636
 20
-2.802023
 30
0.0
 11
-4.877636
 21
-2.712023
 31
0.0
  0
LINE
  5
2D0
330
2C4
100
AcDbEntity
  8
XR$1$STANDARD_1
  6
AUSGEZOGEN
 62
     7
370
    25
100
AcDbLine
 10
-5.237636
 20
-2.802023
 30
0.0
 11
-5.162636
 21
-2.712023
 31
0.0
  0
LINE
  5
2D1
330
2C4
100
AcDbEntity
  8
XR$1$STANDARD_1
  6
AUSGEZOGEN
 62
     7
370
    25
100
AcDbLine
 10
-5.087636
 20
-2.802023
 30
0.0
 11
-5.012636
 21
-2.712023
 31
0.0
  0
LINE
  5
2D2
330
2C4
100
AcDbEntity
  8
XR$1$STANDARD_1
  6
AUSGEZOGEN
 62
     7
370
    25
100
AcDbLine
 10
-4.937636
 20
-2.802023
 30
0.0
 11
-4.862636
 21
-2.712023
 31
0.0
  0
LINE
  5
2D3
330
2C4
100
AcDbEntity
  8
XR$1$STANDARD_1
  6
AUSGEZOGEN
 62
     7
370
    25
100
AcDbLine
 10
-5.222636
 20
-2.802023
 30
0.0
 11
-5.147636
 21
-2.712023
 31
0.0
  0
LINE
  5
2D4
330
2C4
100
AcDbEntity
  8
XR$1$STANDARD_1
  6
AUSGEZOGEN
 62
     7
370
    25
100
AcDbLine
 10
-5.072636
 20
-2.802023
 30
0.0
 11
-4.997636
 21
-2.712023
 31
0.0
  0
LINE
  5
2D5
330
2C4
100
AcDbEntity
  8
XR$1$STANDARD_1
  6
AUSGEZOGEN
 62
     7
370
    25
100
AcDbLine
 10
-4.922636
 20
-2.802023
 30
0.0
 11
-4.847636
 21
-2.712023
 31
0.0
  0
LINE
  5
2D6
330
2C4
100
AcDbEntity
  8
XR$1$STANDARD_1
  6
AUSGEZOGEN
 62
     7
370
    25
100
AcDbLine
 10
-5.162636
 20
-2.730023
 30
0.0
 11
-5.102636
 21
-2.802023
 31
0.0
  0
LINE
  5
2D7
330
2C4
100
AcDbEntity
  8
XR$1$STANDARD_1
  6
AUSGEZOGEN
 62
     7
370
    25
100
AcDbLine
 10
-5.012636
 20
-2.730023
 30
0.0
 11
-4.952636
 21
-2.802023
 31
0.0
  0
LINE
  5
2D8
330
2C4
100
AcDbEntity
  8
XR$1$STANDARD_1
  6
AUSGEZOGEN
 62
     7
370
    25
100
AcDbLine
 10
-4.862636
 20
-2.730023
 30
0.0
 11
-4.820781
 21
-2.780248
 31
0.0
  0
LINE
  5
2D9
330
2C4
100
AcDbEntity
  8
XR$1$STANDARD_1
  6
AUSGEZOGEN
 62
     7
370
    25
100
AcDbLine
 10
-5.155136
 20
-2.721023
 30
0.0
 11
-5.102636
 21
-2.784023
 31
0.0
  0
LINE
  5
2DA
330
2C4
100
AcDbEntity
  8
XR$1$STANDARD_1
  6
AUSGEZOGEN
 62
     7
370
    25
100
AcDbLine
 10
-5.005136
 20
-2.721023
 30
0.0
 11
-4.952636
 21
-2.784023
 31
0.0
  0
LINE
  5
2DB
330
2C4
100
AcDbEntity
  8
XR$1$STANDARD_1
  6
AUSGEZOGEN
 62
     7
370
    25
100
AcDbLine
 10
-4.855136
 20
-2.721023
 30
0.0
 11
-4.820781
 21
-2.762248
 31
0.0
  0
LINE
  5
2DC
330
2C4
100
AcDbEntity
  8
XR$1$STANDARD_1
  6
AUSGEZOGEN
 62
     7
370
    25
100
AcDbLine
 10
-5.145836
 20
-2.712023
 30
0.0
 11
-5.102636
 21
-2.763863
 31
0.0
  0
LINE
  5
2DD
330
2C4
100
AcDbEntity
  8
XR$1$STANDARD_1
  6
AUSGEZOGEN
 62
     7
370
    25
100
AcDbLine
 10
-4.995836
 20
-2.712023
 30
0.0
 11
-4.952636
 21
-2.763863
 31
0.0
  0
LINE
  5
2DE
330
2C4
100
AcDbEntity
  8
XR$1$STANDARD_1
  6
AUSGEZOGEN
 62
     7
370
    25
100
AcDbLine
 10
-4.845836
 20
-2.712023
 30
0.0
 11
-4.820781
 21
-2.742088
 31
0.0
  0
ENDBLK
  5
2C6
330
2C4
100
AcDbEntity
  8
0
100
AcDbBlockEnd
  0
ENDSEC
  0
SECTION
  2
ENTITIES
  0
LINE
  5
DC
330
1F
100
AcDbEntity
  8
XR$1$STANDARD_1
  6
AUSGEZOGEN
 62
     7
370
    25
100
AcDbLine
 10
-12.226503
 20
3.8875
 30
0.0
 11
-12.990624
 21
4.939222
 31
0.0
  0
LINE
  5
DD
330
1F
100
AcDbEntity
  8
XR$1$STANDARD_1
  6
AUSGEZOGEN
 62
     7
370
    25
100
AcDbLine
 10
-10.815818
 20
3.8875
 30
0.0
 11
-10.051698
 21
4.939222
 31
0.0
  0
ARC
  5
DE
330
1F
100
AcDbEntity
  8
XR$1$STANDARD_1
  6
AUSGEZOGEN
 62
     7
370
    25
100
AcDbCircle
 10
-11.521161
 20
2.91668
 30
0.0
 40
1.2
100
AcDbArc
 50
54.0
 51
126.0
  0
ARC
  5
DF
330
1F
100
AcDbEntity
  8
XR$1$STANDARD_1
  6
AUSGEZOGEN
 62
     7
370
    25
100
AcDbCircle
 10
-11.521161
 20
2.91668
 30
0.0
 40
2.5
100
AcDbArc
 50
54.0
 51
126.0
  0
HATCH
  5
E0
330
1F
100
AcDbEntity
  8
XR$1$STANDARD_1
  6
AUSGEZOGEN
 62
   255
370
    25
100
AcDbHatch
 10
0.0
 20
0.0
 30
0.0
210
0.0
220
0.0
230
1.0
  2
SOLID
 70
     1
 71
     0
 91
        1
 92
        3
 72
     0
 73
     1
 93
       60
 10
-10.81581835617916
 20
3.887500373920244
 10
-10.05169752819894
 20
4.939222466607676
 10
-10.14069092825481
 20
5.000979220868133
 10
-10.23227601598757
 20
5.058822921089281
 10
-10.32628084996454
 20
5.112644971767923
 10
-10.42252894593229
 20
5.162344327627668
 10
-10.52083960814741
 20
5.207827683320872
 10
-10.62102826861388
 20
5.249009648599685
 10
-10.72290683359018
 20
5.285812908627313
 10
-10.82628403671564
 20
5.318168369128554
 10
-10.93096579809308
 20
5.346015286107071
 10
-11.03675558865348
 20
5.369301379885905
 10
-11.14345479911884
 20
5.387982933257103
 10
-11.25086311287027
 20
5.402024873556207
 10
-11.3587788820216
 20
5.411400838507519
 10
-11.46699950599213
 20
5.416093225716518
 10
-11.57532181186812
 20
5.416093225716518
 10
-11.68354243583865
 20
5.411400838507519
 10
-11.79145820498998
 20
5.402024873556208
 10
-11.89886651874142
 20
5.387982933257104
 10
-12.00556572920677
 20
5.369301379885907
 10
-12.11135551976718
 20
5.346015286107072
 10
-12.21603728114461
 20
5.318168369128555
 10
-12.31941448427007
 20
5.285812908627315
 10
-12.42129304924637
 20
5.249009648599686
 10
-12.52148170971284
 20
5.207827683320874
 10
-12.61979237192797
 20
5.162344327627671
 10
-12.71604046789572
 20
5.112644971767924
 10
-12.81004530187268
 20
5.058822921089282
 10
-12.90163038960544
 20
5.000979220868135
 10
-12.99062378966131
 20
4.939222466607677
 10
-12.2265029616811
 20
3.887500373920245
 10
-12.18378612965428
 20
3.917143615965264
 10
-12.13982528754255
 20
3.944908592071415
 10
-12.09470296723361
 20
3.970743176397164
 10
-12.04850388116909
 20
3.994598867209841
 10
-12.00131476330583
 20
4.01643087794258
 10
-11.95322420628193
 20
4.036198221276408
 10
-11.9043224950933
 20
4.05386378608967
 10
-11.85470143759308
 20
4.069394407130266
 10
-11.80445419213191
 20
4.082760927279955
 10
-11.75367509266292
 20
4.093938252293795
 10
-11.70245947163955
 20
4.102905397911969
 10
-11.65090348103886
 20
4.109645529255539
 10
-11.59910391184622
 20
4.114145992432169
 10
-11.54715801234036
 20
4.116398338292489
 10
-11.49516330551989
 20
4.116398338292489
 10
-11.44321740601404
 20
4.114145992432169
 10
-11.3914178368214
 20
4.109645529255539
 10
-11.33986184622071
 20
4.102905397911969
 10
-11.28864622519734
 20
4.093938252293794
 10
-11.23786712572834
 20
4.082760927279955
 10
-11.18761988026718
 20
4.069394407130265
 10
-11.13799882276695
 20
4.05386378608967
 10
-11.08909711157833
 20
4.036198221276408
 10
-11.04100655455442
 20
4.01643087794258
 10
-10.99381743669116
 20
3.994598867209841
 10
-10.94761835062664
 20
3.970743176397163
 10
-10.9024960303177
 20
3.944908592071415
 10
-10.85853518820598
 20
3.917143615965264
 97
        0
 75
     0
 76
     1
 98
        0
  0
ARC
  5
E1
330
1F
100
AcDbEntity
  8
XR$1$STANDARD_1
  6
STRICHLINIE_S4
 62
     7
370
    25
100
AcDbCircle
 10
-11.521161
 20
2.91668
 30
0.0
 40
2.33
100
AcDbArc
 50
54.0
 51
126.0
  0
ARC
  5
E2
330
1F
100
AcDbEntity
  8
XR$1$STANDARD_1
  6
STRICHLINIE_S4
 62
     7
370
    25
100
AcDbCircle
 10
-11.521161
 20
2.91668
 30
0.0
 40
1.37
100
AcDbArc
 50
54.0
 51
126.0
  0
INSERT
  5
EE
330
1F
100
AcDbEntity
  8
XR$1$ALLGEMEIN
  6
AUSGEZOGEN
 62
     7
370
    25
100
AcDbBlockReference
  2
MUSTERELEMENT_0
 10
0.0
 20
0.0
 30
0.0
  0
LINE
  5
EF
330
1F
100
AcDbEntity
  8
XR$1$STANDARD_1
  6
ALL_S18
 62
     7
370
    25
100
AcDbLine
 10
-12.226503
 20
3.8875
 30
0.0
 11
-11.521161
 21
2.91668
 31
0.0
  0
LINE
  5
F0
330
1F
100
AcDbEntity
  8
XR$1$STANDARD_1
  6
ALL_S18
 62
     7
370
    25
100
AcDbLine
 10
-11.521161
 20
2.91668
 30
0.0
 11
-10.815818
 21
3.8875
 31
0.0
  0
INSERT
  5
100
330
1F
100
AcDbEntity
  8
XR$1$ALLGEMEIN
  6
AUSGEZOGEN
 62
     7
370
    25
100
AcDbBlockReference
  2
MUSTERELEMENT_1
 10
0.0
 20
0.0
 30
0.0
  0
DIMENSION
  5
114
330
1F
100
AcDbEntity
  8
XR$1$STANDARD_1
  6
AUSGEZOGEN
 62
    94
370
    25
100
AcDbDimension
280
     0
  2
*D7
 10
-9.728091
 20
4.704108
 30
0.0
 11
-10.203176
 21
4.249607
 31
0.0
 70
   160
  1
<>
 71
     5
 42
-1.0
 73
     0
 74
     0
 75
     0
  3
DIMSTYLE_2
100
AcDbAlignedDimension
 13
-10.815818
 23
3.8875
 33
0.0
 14
-10.051697
 24
4.939222
 34
0.0
 50
54.0
100
AcDbRotatedDimension
1001
ACAD
1000
DSTYLE
1002
{
1070
     3
1000
<>
1070
   372
1070
    25
1070
   371
1070
     0
1070
   178
1070
    94
1070
   177
1070
    94
1070
   176
1070
    94
1002
}
1001
NEM_ODX
1000
MASSLINIE
1002
{
1000
UTF_TYPE
1070
     6
1000
ODXVALUES
1070
     3
1070
     2
1070
   499
1040
5.0
1002
}
  0
DIMENSION
  5
120
330
1F
100
AcDbEntity
  8
XR$1$STANDARD_1
  6
AUSGEZOGEN
 62
    94
370
    25
100
AcDbDimension
280
     0
  2
*D8
 10
-12.226503
 20
2.51668
 30
0.0
 11
-12.560437
 21
2.633882
 31
0.0
 70
   160
  1
<>
 71
     5
 42
-1.0
 73
     0
 74
     0
 75
     0
  3
DIMSTYLE_3
100
AcDbAlignedDimension
 13
-12.990624
 23
4.939221
 33
0.0
 14
-12.226503
 24
3.887499
 34
0.0
100
AcDbRotatedDimension
1001
ACAD
1000
DSTYLE
1002
{
1070
     3
1000
<>
1070
   372
1070
    25
1070
   371
1070
     0
1070
   178
1070
    94
1070
   177
1070
    94
1070
   176
1070
    94
1002
}
1001
NEM_ODX
1000
MASSLINIE
1002
{
1000
UTF_TYPE
1070
     6
1000
ODXVALUES
1070
     3
1070
     2
1070
   499
1040
5.0
1002
}
  0
DIMENSION
  5
12C
330
1F
100
AcDbEntity
  8
XR$1$STANDARD_1
  6
AUSGEZOGEN
 62
    94
370
    25
100
AcDbDimension
280
     0
  2
*D9
 10
-10.815818
 20
2.51668
 30
0.0
 11
-11.516176
 21
2.632723
 31
0.0
 70
   160
  1
<>
 71
     5
 42
-1.0
 73
     0
 74
     0
 75
     0
  3
DIMSTYLE_4
100
AcDbAlignedDimension
 13
-12.226503
 23
3.887499
 33
0.0
 14
-10.815818
 24
3.887499
 34
0.0
100
AcDbRotatedDimension
1001
ACAD
1000
DSTYLE
1002
{
1070
     3
1000
<>
1070
   372
1070
    25
1070
   371
1070
     0
1070
   178
1070
    94
1070
   177
1070
    94
1070
   176
1070
    94
1002
}
1001
NEM_ODX
1000
MASSLINIE
1002
{
1000
UTF_TYPE
1070
     6
1000
ODXVALUES
1070
     3
1070
     2
1070
   499
1040
5.0
1002
}
  0
DIMENSION
  5
138
330
1F
100
AcDbEntity
  8
XR$1$STANDARD_1
  6
AUSGEZOGEN
 62
    94
370
    25
100
AcDbDimension
280
     0
  2
*D10
 10
-10.051698
 20
2.51668
 30
0.0
 11
-10.385632
 21
2.633882
 31
0.0
 70
   160
  1
<>
 71
     5
 42
-1.0
 73
     0
 74
     0
 75
     0
  3
DIMSTYLE_5
100
AcDbAlignedDimension
 13
-10.815818
 23
3.887499
 33
0.0
 14
-10.051698
 24
4.939221
 34
0.0
100
AcDbRotatedDimension
1001
ACAD
1000
DSTYLE
1002
{
1070
     3
1000
<>
1070
   372
1070
    25
1070
   371
1070
     0
1070
   178
1070
    94
1070
   177
1070
    94
1070
   176
1070
    94
1002
}
1001
NEM_ODX
1000
MASSLINIE
1002
{
1000
UTF_TYPE
1070
     6
1000
ODXVALUES
1070
     3
1070
     2
1070
   499
1040
5.0
1002
}
  0
DIMENSION
  5
143
330
1F
100
AcDbEntity
  8
XR$1$STANDARD_1
  6
AUSGEZOGEN
 62
    94
370
    25
100
AcDbDimension
280
     0
  2
*D11
 10
-10.051698
 20
2.11668
 30
0.0
 11
-11.518688
 21
2.233882
 31
0.0
 70
   160
  1
<>
 71
     5
 42
-1.0
 73
     0
 74
     0
 75
     0
  3
DIMSTYLE_4
100
AcDbAlignedDimension
 13
-12.990624
 23
2.516679
 33
0.0
 14
-10.051698
 24
4.939221
 34
0.0
100
AcDbRotatedDimension
1001
ACAD
1000
DSTYLE
1002
{
1070
     3
1000
<>
1070
   372
1070
    25
1070
   371
1070
     0
1070
   178
1070
    94
1070
   177
1070
    94
1070
   176
1070
    94
1002
}
1001
NEM_ODX
1000
MASSLINIE
1002
{
1000
UTF_TYPE
1070
     6
1000
ODXVALUES
1070
     3
1070
     2
1070
   499
1040
5.0
1002
}
  0
DIMENSION
  5
14E
330
1F
100
AcDbEntity
  8
XR$1$STANDARD_1
  6
AUSGEZOGEN
 62
    94
370
    25
100
AcDbDimension
280
     0
  2
*D12
 10
-13.625738
 20
5.41668
 30
0.0
 11
-13.74294
 21
4.657703
 31
0.0
 70
   160
  1
<>
 71
     5
 42
-1.0
 73
     0
 74
     0
 75
     0
  3
DIMSTYLE_4
100
AcDbAlignedDimension
 13
-12.226504
 23
3.8875
 33
0.0
 14
-11.521162
 24
5.41668
 34
0.0
 50
90.0
100
AcDbRotatedDimension
1001
ACAD
1000
DSTYLE
1002
{
1070
     3
1000
<>
1070
   372
1070
    25
1070
   371
1070
     0
1070
   178
1070
    94
1070
   177
1070
    94
1070
   176
1070
    94
1002
}
1001
NEM_ODX
1000
MASSLINIE
1002
{
1000
UTF_TYPE
1070
     6
1000
ODXVALUES
1070
     3
1070
     2
1070
   499
1040
5.0
1002
}
  0
INSERT
  5
158
330
1F
100
AcDbEntity
  8
XR$1$ALLGEMEIN
  6
AUSGEZOGEN
 62
     7
370
    25
100
AcDbBlockReference
  2
MUSTERELEMENT_2
 10
0.0
 20
0.0
 30
0.0
  0
INSERT
  5
162
330
1F
100
AcDbEntity
  8
XR$1$ALLGEMEIN
  6
AUSGEZOGEN
 62
     7
370
    25
100
AcDbBlockReference
  2
MUSTERELEMENT_3
 10
0.0
 20
0.0
 30
0.0
  0
LINE
  5
163
330
1F
100
AcDbEntity
  8
XR$1$STANDARD_1
  6
ALL_S18
 62
     7
370
    25
100
AcDbLine
 10
-13.625738
 20
3.8875
 30
0.0
 11
-12.226503
 21
3.8875
 31
0.0
  0
LINE
  5
164
330
1F
100
AcDbEntity
  8
XR$1$STANDARD_1
  6
ALL_S18
 62
     7
370
    25
100
AcDbLine
 10
-13.625738
 20
5.41668
 30
0.0
 11
-11.523529
 21
5.416679
 31
0.0
  0
ARC
  5
165
330
1F
100
AcDbEntity
  8
XR$1$STANDARD_1
  6
AUSGEZOGEN
 62
     7
370
    25
100
AcDbCircle
 10
-6.665301
 20
4.22105
 30
0.0
 40
0.17
100
AcDbArc
 50
90.0
 51
180.0
  0
ARC
  5
166
330
1F
100
AcDbEntity
  8
XR$1$STANDARD_1
  6
AUSGEZOGEN
 62
     7
370
    25
100
AcDbCircle
 10
-5.705301
 20
4.22105
 30
0.0
 40
0.17
100
AcDbArc
 50
0.0
 51
90.0
  0
LINE
  5
167
330
1F
100
AcDbEntity
  8
XR$1$STANDARD_1
  6
AUSGEZOGEN
 62
     7
370
    25
100
AcDbLine
 10
-6.665301
 20
4.39105
 30
0.0
 11
-5.705301
 21
4.39105
 31
0.0
  0
ARC
  5
168
330
1F
100
AcDbEntity
  8
XR$1$STANDARD_1
  6
AUSGEZOGEN
 62
     7
370
    25
100
AcDbCircle
 10
-5.805301
 20
4.22105
 30
0.0
 40
0.27
100
AcDbArc
 50
270.0
 51
0.0
  0
LINE
  5
169
330
1F
100
AcDbEntity
  8
XR$1$STANDARD_1
  6
AUSGEZOGEN
 62
     7
370
    25
100
AcDbLine
 10
-5.535301
 20
4.22105
 30
0.0
 11
-5.535301
 21
4.22105
 31
0.0
  0
ARC
  5
16A
330
1F
100
AcDbEntity
  8
XR$1$STANDARD_1
  6
AUSGEZOGEN
 62
     7
370
    25
100
AcDbCircle
 10
-6.565301
 20
4.22105
 30
0.0
 40
0.27
100
AcDbArc
 50
180.0
 51
270.0
  0
LINE
  5
16B
330
1F
100
AcDbEntity
  8
XR$1$STANDARD_1
  6
AUSGEZOGEN
 62
     7
370
    25
100
AcDbLine
 10
-6.835301
 20
4.22105
 30
0.0
 11
-6.835301
 21
4.22105
 31
0.0
  0
ARC
  5
16C
330
1F
100
AcDbEntity
  8
XR$1$STANDARD_1
  6
AUSGEZOGEN
 62
     7
370
    25
100
AcDbCircle
 10
-6.565301
 20
4.22105
 30
0.0
 40
0.24
100
AcDbArc
 50
180.0
 51
270.0
  0
ARC
  5
16D
330
1F
100
AcDbEntity
  8
XR$1$STANDARD_1
  6
AUSGEZOGEN
 62
     7
370
    25
100
AcDbCircle
 10
-6.665301
 20
4.22105
 30
0.0
 40
0.14
100
AcDbArc
 50
90.0
 51
180.0
  0
LINE
  5
16E
330
1F
100
AcDbEntity
  8
XR$1$STANDARD_1
  6
AUSGEZOGEN
 62
     7
370
    25
100
AcDbLine
 10
-6.665301
 20
4.36105
 30
0.0
 11
-5.705301
 21
4.36105
 31
0.0
  0
ARC
  5
16F
330
1F
100
AcDbEntity
  8
XR$1$STANDARD_1
  6
AUSGEZOGEN
 62
     7
370
    25
100
AcDbCircle
 10
-5.705301
 20
4.22105
 30
0.0
 40
0.14
100
AcDbArc
 50
0.0
 51
90.0
  0
ARC
  5
170
330
1F
100
AcDbEntity
  8
XR$1$STANDARD_1
  6
AUSGEZOGEN
 62
     7
370
    25
100
AcDbCircle
 10
-5.805301
 20
4.22105
 30
0.0
 40
0.24
100
AcDbArc
 50
270.0
 51
0.0
  0
LINE
  5
171
330
1F
100
AcDbEntity
  8
XR$1$STANDARD_1
  6
AUSGEZOGEN
 62
     7
370
    25
100
AcDbLine
 10
-6.465301
 20
3.95105
 30
0.0
 11
-6.465301
 21
3.98105
 31
0.0
  0
LINE
  5
172
330
1F
100
AcDbEntity
  8
XR$1$STANDARD_1
  6
AUSGEZOGEN
 62
     7
370
    25
100
AcDbLine
 10
-6.465301
 20
3.98105
 30
0.0
 11
-6.565301
 21
3.98105
 31
0.0
  0
LINE
  5
173
330
1F
100
AcDbEntity
  8
XR$1$STANDARD_1
  6
AUSGEZOGEN
 62
     7
370
    25
100
AcDbLine
 10
-5.905301
 20
3.95105
 30
0.0
 11
-5.905301
 21
3.98105
 31
0.0
  0
LINE
  5
174
330
1F
100
AcDbEntity
  8
XR$1$STANDARD_1
  6
AUSGEZOGEN
 62
     7
370
    25
100
AcDbLine
 10
-5.905301
 20
3.98105
 30
0.0
 11
-5.805301
 21
3.98105
 31
0.0
  0
LINE
  5
175
330
1F
100
AcDbEntity
  8
XR$1$STANDARD_1
  6
AUSGEZOGEN
 62
     7
370
    25
100
AcDbLine
 10
-5.805301
 20
3.95105
 30
0.0
 11
-5.905301
 21
3.95105
 31
0.0
  0
LINE
  5
176
330
1F
100
AcDbEntity
  8
XR$1$STANDARD_1
  6
AUSGEZOGEN
 62
     7
370
    25
100
AcDbLine
 10
-6.465301
 20
3.95105
 30
0.0
 11
-6.565301
 21
3.95105
 31
0.0
  0
HATCH
  5
177
330
1F
100
AcDbEntity
  8
XR$1$STANDARD_1
  6
AUSGEZOGEN
 62
   253
370
    25
100
AcDbHatch
 10
0.0
 20
0.0
 30
0.0
210
0.0
220
0.0
230
1.0
  2
SOLID
 70
     1
 71
     0
 91
        1
 92
        3
 72
     0
 73
     1
 93
      296
 10
-6.665300661310103
 20
4.391050021305585
 10
-6.672715957162211
 20
4.390888218974501
 10
-6.680117137577203
 20
4.390403119981182
 10
-6.687490113987511
 20
4.389595647739132
 10
-6.694820851513483
 20
4.388467339317659
 10
-6.702095395679579
 20
4.387020342515974
 10
-6.709299898977529
 20
4.385257411774727
 10
-6.716420647225831
 20
4.383181902932784
 10
-6.723444085675466
 20
4.38079776683919
 10
-6.730356844812166
 20
4.378109541832504
 10
-6.737145765806021
 20
4.375122345101815
 10
-6.743797925560059
 20
4.371841862945882
 10
-6.750300661310103
 20
4.36827433994894
 10
-6.756641594729063
 20
4.364426567093775
 10
-6.762808655489782
 20
4.360305868834713
 10
-6.768790104241583
 20
4.355920089155094
 10
-6.774574554956817
 20
4.351277576635811
 10
-6.780150996604767
 20
4.346387168563305
 10
-6.785508814111818
 20
4.341258174107298
 10
-6.790637808567823
 20
4.335900356600248
 10
-6.795528216640327
 20
4.330323914952297
 10
-6.800170729159611
 20
4.324539464237067
 10
-6.804556508839233
 20
4.318558015485262
 10
-6.808677207098292
 20
4.312390954724544
 10
-6.812524979953458
 20
4.306050021305585
 10
-6.8160925029504
 20
4.299547285555541
 10
-6.819372985106333
 20
4.292895125801503
 10
-6.822360181837023
 20
4.28610620480765
 10
-6.825048406843707
 20
4.279193445670948
 10
-6.827432542937299
 20
4.272170007221311
 10
-6.829508051779245
 20
4.265049258973014
 10
-6.831270982520492
 20
4.257844755675062
 10
-6.83271797932218
 20
4.250570211508964
 10
-6.833846287743651
 20
4.243239473982993
 10
-6.834653759985697
 20
4.235866497572687
 10
-6.835138858979018
 20
4.228465317157693
 10
-6.835300661310103
 20
4.221050021305585
 10
-6.835043681137206
 20
4.209272786716944
 10
-6.834273229794875
 20
4.197517970763717
 10
-6.832990773881029
 20
4.18580794940617
 10
-6.831198754623402
 20
4.174165013335513
 10
-6.828900583232484
 20
4.162611325542296
 10
-6.826100634408151
 20
4.151168879127904
 10
-6.822804238012126
 20
4.139859455439432
 10
-6.819017668922298
 20
4.128704582607654
 10
-6.81474813508815
 20
4.117725494567011
 10
-6.810003763809997
 20
4.106943090635596
 10
-6.804793586268221
 20
4.096377895732125
 10
-6.799127520331902
 20
4.086050021305585
 10
-6.79301635167958
 20
4.075979127051943
 10
-6.786471713268133
 20
4.066184383490802
 10
-6.779506063188736
 20
4.056684435473231
 10
-6.772132660952225
 20
4.047497366690219
 10
-6.764365542248838
 20
4.038640665249356
 10
-6.756219492230469
 20
4.030131190385218
 10
-6.747710017366331
 20
4.021985140366851
 10
-6.738853315925466
 20
4.014218021663462
 10
-6.729666247142458
 20
4.006844619426952
 10
-6.720166299124885
 20
3.999878969347557
 10
-6.710371555563746
 20
3.993334330936106
 10
-6.700300661310102
 20
3.987223162283785
 10
-6.689972786883562
 20
3.981557096347465
 10
-6.679407591980089
 20
3.976346918805689
 10
-6.668625188048675
 20
3.971602547527537
 10
-6.657646100008031
 20
3.96733301369339
 10
-6.646491227176258
 20
3.963546444603563
 10
-6.635181803487783
 20
3.960250048207536
 10
-6.623739357073391
 20
3.957450099383204
 10
-6.612185669280174
 20
3.95515192799229
 10
-6.600542733209517
 20
3.953359908734657
 10
-6.58883271185197
 20
3.952077452820814
 10
-6.577077895898743
 20
3.951307001478483
 10
-6.565300661310102
 20
3.951050021305585
 10
-6.465300661310103
 20
3.951050021305585
 10
-6.465300661310103
 20
3.981050021305585
 10
-6.565300661310102
 20
3.981050021305585
 10
-6.575769314277783
 20
3.98127844812594
 10
-6.586218039569539
 20
3.981963293763566
 10
-6.596626947442914
 20
3.983103254575871
 10
-6.606976223950165
 20
3.984696160582656
 10
-6.617246168655249
 20
3.9867389795968
 10
-6.627417232134707
 20
3.989227822996209
 10
-6.637470053191129
 20
3.992157953126009
 10
-6.647385495708262
 20
3.995523792316967
 10
-6.657144685077725
 20
3.999318933502876
 10
-6.666729044127871
 20
4.003536152416788
 10
-6.676120328486512
 20
4.008167421342812
 10
-6.685300661310102
 20
4.013203924397319
 10
-6.694252567313343
 20
4.018636074310492
 10
-6.702959006034354
 20
4.024453530676228
 10
-6.711403404272198
 20
4.030645219635689
 10
-6.719569687634874
 20
4.03719935495703
 10
-6.72744231113786
 20
4.044103460471156
 10
-6.735006288794874
 20
4.051344393820814
 10
-6.742247222144532
 20
4.058908371477827
 10
-6.749151327658656
 20
4.066780994980816
 10
-6.755705462979997
 20
4.074947278343491
 10
-6.761897151939462
 20
4.083391676581333
 10
-6.767714608305196
 20
4.092098115302347
 10
-6.773146758218369
 20
4.101050021305585
 10
-6.778183261272876
 20
4.110230354129176
 10
-6.782814530198899
 20
4.119621638487816
 10
-6.787031749112812
 20
4.129205997537962
 10
-6.790826890298718
 20
4.138965186907425
 10
-6.794192729489678
 20
4.14888062942456
 10
-6.797122859619478
 20
4.158933450480981
 10
-6.799611703018887
 20
4.16910451396044
 10
-6.80165452203303
 20
4.179374458665523
 10
-6.803247428039817
 20
4.189723735172774
 10
-6.80438738885212
 20
4.200132643046148
 10
-6.805072234489748
 20
4.210581368337905
 10
-6.805300661310103
 20
4.221050021305585
 10
-6.805167412331561
 20
4.227156735536733
 10
-6.804767919042948
 20
4.233251825290257
 10
-6.804102941902435
 20
4.239323688216392
 10
-6.803173746731809
 20
4.245360766178955
 10
-6.801982102306894
 20
4.251351567256918
 10
-6.800530276990572
 20
4.257284687619937
 10
-6.798821034414854
 20
4.263148833236183
 10
-6.796857628220132
 20
4.268932841371178
 10
-6.794643795861681
 20
4.274625701836697
 10
-6.792183751495235
 20
4.280216577949282
 10
-6.789482177955055
 20
4.28569482715849
 10
-6.786544217839925
 20
4.291050021305585
 10
-6.783375463723908
 20
4.296271966474141
 10
-6.779981947510562
 20
4.301350722394732
 10
-6.776370128950876
 20
4.306276621366806
 10
-6.77254688334676
 20
4.3110402866617
 10
-6.768519488463521
 20
4.315632650371779
 10
-6.764295610676221
 20
4.320044970671701
 10
-6.759883290376296
 20
4.324268848459003
 10
-6.755290926666217
 20
4.328296243342243
 10
-6.750527261371325
 20
4.332119488946358
 10
-6.745601362399248
 20
4.335731307506044
 10
-6.740522606478659
 20
4.33912482371939
 10
-6.735300661310102
 20
4.342293577835407
 10
-6.729945467163009
 20
4.345231537950536
 10
-6.724467217953803
 20
4.347933111490716
 10
-6.718876341841213
 20
4.350393155857165
 10
-6.713183481375694
 20
4.352606988215612
 10
-6.707399473240701
 20
4.354570394410336
 10
-6.701535327624457
 20
4.356279636986055
 10
-6.695602207261437
 20
4.357731462302375
 10
-6.689611406183475
 20
4.358923106727295
 10
-6.683574328220908
 20
4.359852301897918
 10
-6.677502465294776
 20
4.360517279038429
 10
-6.67140737554125
 20
4.360916772327045
 10
-6.665300661310103
 20
4.361050021305585
 10
-5.705300661310103
 20
4.361050021305585
 10
-5.699193947078955
 20
4.360916772327045
 10
-5.693098857325429
 20
4.360517279038429
 10
-5.687026994399297
 20
4.359852301897918
 10
-5.680989916436731
 20
4.358923106727295
 10
-5.674999115358769
 20
4.357731462302375
 10
-5.669065994995748
 20
4.356279636986055
 10
-5.663201849379504
 20
4.354570394410336
 10
-5.657417841244511
 20
4.352606988215612
 10
-5.651724980778992
 20
4.350393155857165
 10
-5.646134104666402
 20
4.347933111490716
 10
-5.640655855457196
 20
4.345231537950536
 10
-5.635300661310103
 20
4.342293577835407
 10
-5.630078716141546
 20
4.33912482371939
 10
-5.624999960220958
 20
4.335731307506044
 10
-5.62007406124888
 20
4.332119488946358
 10
-5.615310395953988
 20
4.328296243342243
 10
-5.610718032243909
 20
4.324268848459003
 10
-5.606305711943984
 20
4.320044970671701
 10
-5.602081834156685
 20
4.315632650371779
 10
-5.598054439273445
 20
4.3110402866617
 10
-5.594231193669329
 20
4.306276621366806
 10
-5.590619375109643
 20
4.301350722394732
 10
-5.587225858896298
 20
4.296271966474141
 10
-5.584057104780281
 20
4.291050021305585
 10
-5.58111914466515
 20
4.28569482715849
 10
-5.57841757112497
 20
4.280216577949282
 10
-5.575957526758525
 20
4.274625701836697
 10
-5.573743694400073
 20
4.268932841371178
 10
-5.571780288205352
 20
4.263148833236183
 10
-5.570071045629633
 20
4.257284687619937
 10
-5.568619220313311
 20
4.251351567256918
 10
-5.567427575888396
 20
4.245360766178955
 10
-5.56649838071777
 20
4.239323688216392
 10
-5.565833403577257
 20
4.233251825290257
 10
-5.565433910288644
 20
4.227156735536733
 10
-5.565300661310102
 20
4.221050021305585
 10
-5.565529088130457
 20
4.210581368337905
 10
-5.566213933768085
 20
4.200132643046148
 10
-5.567353894580388
 20
4.189723735172771
 10
-5.568946800587175
 20
4.179374458665523
 10
-5.570989619601318
 20
4.16910451396044
 10
-5.573478463000727
 20
4.158933450480981
 10
-5.576408593130528
 20
4.14888062942456
 10
-5.579774432321487
 20
4.138965186907425
 10
-5.583569573507393
 20
4.129205997537962
 10
-5.587786792421306
 20
4.119621638487816
 10
-5.592418061347329
 20
4.110230354129176
 10
-5.597454564401836
 20
4.101050021305585
 10
-5.60288671431501
 20
4.092098115302347
 10
-5.608704170680744
 20
4.083391676581333
 10
-5.614895859640209
 20
4.074947278343491
 10
-5.62144999496155
 20
4.066780994980816
 10
-5.628354100475674
 20
4.058908371477827
 10
-5.635595033825331
 20
4.051344393820814
 10
-5.643159011482345
 20
4.044103460471156
 10
-5.651031634985332
 20
4.03719935495703
 10
-5.659197918348007
 20
4.030645219635689
 10
-5.667642316585851
 20
4.024453530676228
 10
-5.676348755306862
 20
4.018636074310492
 10
-5.685300661310102
 20
4.013203924397319
 10
-5.694480994133694
 20
4.008167421342812
 10
-5.703872278492334
 20
4.003536152416788
 10
-5.71345663754248
 20
3.999318933502876
 10
-5.723215826911943
 20
3.995523792316967
 10
-5.733131269429076
 20
3.992157953126009
 10
-5.743184090485498
 20
3.989227822996209
 10
-5.753355153964956
 20
3.9867389795968
 10
-5.763625098670039
 20
3.984696160582656
 10
-5.773974375177291
 20
3.983103254575871
 10
-5.784383283050666
 20
3.981963293763566
 10
-5.794832008342422
 20
3.98127844812594
 10
-5.805300661310103
 20
3.981050021305585
 10
-5.905300661310102
 20
3.981050021305585
 10
-5.905300661310102
 20
3.951050021305585
 10
-5.805300661310103
 20
3.951050021305585
 10
-5.793523426721462
 20
3.951307001478483
 10
-5.781768610768235
 20
3.952077452820814
 10
-5.770058589410688
 20
3.953359908734657
 10
-5.758415653340031
 20
3.95515192799229
 10
-5.746861965546814
 20
3.957450099383204
 10
-5.735419519132422
 20
3.960250048207536
 10
-5.724110095443947
 20
3.963546444603563
 10
-5.712955222612174
 20
3.96733301369339
 10
-5.701976134571531
 20
3.971602547527537
 10
-5.691193730640116
 20
3.976346918805689
 10
-5.680628535736643
 20
3.981557096347465
 10
-5.670300661310103
 20
3.987223162283785
 10
-5.660229767056459
 20
3.993334330936106
 10
-5.65043502349532
 20
3.999878969347557
 10
-5.640935075477748
 20
4.006844619426952
 10
-5.631748006694739
 20
4.014218021663462
 10
-5.622891305253874
 20
4.021985140366851
 10
-5.614381830389735
 20
4.030131190385218
 10
-5.606235780371367
 20
4.038640665249356
 10
-5.59846866166798
 20
4.047497366690219
 10
-5.591095259431469
 20
4.056684435473231
 10
-5.584129609352073
 20
4.066184383490802
 10
-5.577584970940625
 20
4.075979127051943
 10
-5.571473802288303
 20
4.086050021305585
 10
-5.565807736351984
 20
4.096377895732125
 10
-5.560597558810208
 20
4.106943090635596
 10
-5.555853187532055
 20
4.11772549456701
 10
-5.551583653697908
 20
4.128704582607654
 10
-5.547797084608079
 20
4.139859455439431
 10
-5.544500688212055
 20
4.151168879127904
 10
-5.541700739387721
 20
4.162611325542296
 10
-5.539402567996808
 20
4.174165013335513
 10
-5.537610548739176
 20
4.18580794940617
 10
-5.53632809282533
 20
4.197517970763717
 10
-5.535557641482999
 20
4.209272786716944
 10
-5.535300661310102
 20
4.221050021305585
 10
-5.535462463641187
 20
4.228465317157693
 10
-5.535947562634508
 20
4.235866497572687
 10
-5.536755034876554
 20
4.243239473982993
 10
-5.537883343298025
 20
4.250570211508964
 10
-5.539330340099714
 20
4.257844755675062
 10
-5.54109327084096
 20
4.265049258973014
 10
-5.543168779682906
 20
4.272170007221311
 10
-5.545552915776498
 20
4.279193445670948
 10
-5.548241140783182
 20
4.28610620480765
 10
-5.551228337513872
 20
4.292895125801503
 10
-5.554508819669805
 20
4.299547285555541
 10
-5.558076342666747
 20
4.306050021305585
 10
-5.561924115521913
 20
4.312390954724544
 10
-5.566044813780973
 20
4.318558015485262
 10
-5.570430593460594
 20
4.324539464237067
 10
-5.575073105979878
 20
4.330323914952297
 10
-5.579963514052382
 20
4.335900356600248
 10
-5.585092508508388
 20
4.341258174107298
 10
-5.590450326015438
 20
4.346387168563305
 10
-5.596026767663388
 20
4.351277576635811
 10
-5.601811218378622
 20
4.355920089155094
 10
-5.607792667130423
 20
4.360305868834713
 10
-5.613959727891142
 20
4.364426567093775
 10
-5.620300661310103
 20
4.36827433994894
 10
-5.626803397060146
 20
4.371841862945882
 10
-5.633455556814185
 20
4.375122345101815
 10
-5.640244477808039
 20
4.378109541832504
 10
-5.647157236944738
 20
4.38079776683919
 10
-5.654180675394374
 20
4.383181902932784
 10
-5.661301423642676
 20
4.385257411774727
 10
-5.668505926940627
 20
4.387020342515974
 10
-5.675780471106722
 20
4.388467339317659
 10
-5.683111208632694
 20
4.389595647739132
 10
-5.690484185043002
 20
4.390403119981182
 10
-5.697885365457995
 20
4.390888218974501
 10
-5.705300661310103
 20
4.391050021305585
 97
        0
 75
     0
 76
     1
 98
        0
  0
LINE
  5
178
330
1F
100
AcDbEntity
  8
XR$1$STANDARD_1
  6
AUSGEZOGEN
 62
     7
370
    25
100
AcDbLine
 10
-6.565301
 20
3.95105
 30
0.0
 11
-6.565301
 21
3.60105
 31
0.0
  0
LINE
  5
179
330
1F
100
AcDbEntity
  8
XR$1$STANDARD_1
  6
AUSGEZOGEN
 62
     7
370
    25
100
AcDbLine
 10
-5.805301
 20
3.95105
 30
0.0
 11
-5.805301
 21
3.60105
 31
0.0
  0
LINE
  5
17A
330
1F
100
AcDbEntity
  8
XR$1$STANDARD_1
  6
AUSGEZOGEN
 62
     7
370
    25
100
AcDbLine
 10
-5.805301
 20
3.60105
 30
0.0
 11
-6.565301
 21
3.60105
 31
0.0
  0
LINE
  5
17B
330
1F
100
AcDbEntity
  8
XR$1$STANDARD_1
  6
AUSGEZOGEN
 62
     7
370
    25
100
AcDbLine
 10
-6.565301
 20
3.95105
 30
0.0
 11
-5.805301
 21
3.95105
 31
0.0
  0
LINE
  5
17C
330
1F
100
AcDbEntity
  8
XR$1$STANDARD_1
  6
AUSGEZOGEN
 62
     7
370
    25
100
AcDbLine
 10
-5.805301
 20
3.94105
 30
0.0
 11
-5.805301
 21
3.95105
 31
0.0
  0
HATCH
  5
17D
330
1F
100
AcDbEntity
  8
XR$1$STANDARD_1
  6
AUSGEZOGEN
 62
     7
370
    25
100
AcDbHatch
 10
0.0
 20
0.0
 30
0.0
210
0.0
220
0.0
230
1.0
  2
SCHRAFFUR_16
 70
     0
 71
     0
 91
        1
 92
        0
 93
        4
 72
     1
 10
-5.805300661310103
 20
3.951050021305585
 11
-6.565300661310102
 21
3.951050021305585
 72
     1
 10
-6.565300661310102
 20
3.951050021305585
 11
-6.565300661310102
 21
3.601050021305585
 72
     1
 10
-6.565300661310102
 20
3.601050021305585
 11
-5.805300661310103
 21
3.601050021305585
 72
     1
 10
-5.805300661310103
 20
3.601050021305585
 11
-5.805300661310103
 21
3.951050021305585
 97
        0
 75
     0
 76
     2
 52
0.0
 41
0.05
 77
     0
 78
     2
 53
45.0
 43
0.0
 44
0.0
 45
-0.1060660171779822
 46
0.1060660171779822
 79
     2
 49
0.2
 49
-0.1
 53
45.0
 43
-0.0530330085889911
 44
0.0530330085889911
 45
-0.1060660171779822
 46
0.1060660171779822
 79
     2
 49
0.2
 49
-0.1
 98
        0
1001
ACAD
1010
0.0
1020
0.0
1030
0.0
1001
NEM_ODX
1002
{
1000
BZM_DEPEND
1070
     1
1000
BZM_SCALE
1040
50.0
1000
SCHRAFFUR_16
1002
}
  0
LINE
  5
17E
330
1F
100
AcDbEntity
  8
XR$1$STANDARD_1
  6
AUSGEZOGEN
 62
     7
370
    25
100
AcDbLine
 10
-5.805301
 20
3.94105
 30
0.0
 11
-5.24397
 21
3.94105
 31
0.0
  0
INSERT
  5
1A2
330
1F
100
AcDbEntity
  8
XR$1$STANDARD_1
  6
AUSGEZOGEN
 62
     7
370
    25
100
AcDbBlockReference
  2
MUSTERELEMENT_4
 10
0.0
 20
0.0
 30
0.0
  0
DIMENSION
  5
1AE
330
1F
100
AcDbEntity
  8
XR$1$STANDARD_1
  6
AUSGEZOGEN
 62
    94
370
    25
100
AcDbDimension
280
     0
  2
*D16
 10
-7.235044
 20
4.39105
 30
0.0
 11
-7.350739
 21
4.161129
 31
0.0
 70
   160
  1
<>
 71
     5
 42
-1.0
 73
     0
 74
     0
 75
     0
  3
DIMSTYLE_6
100
AcDbAlignedDimension
 13
-6.515302
 23
3.95105
 33
0.0
 14
-6.272045
 24
4.39105
 34
0.0
 50
90.0
100
AcDbRotatedDimension
1001
ACAD
1000
DSTYLE
1002
{
1070
     3
1000
<>
1070
   372
1070
    25
1070
   371
1070
     0
1070
   178
1070
    94
1070
   177
1070
    94
1070
   176
1070
    94
1002
}
1001
NEM_ODX
1000
MASSLINIE
1002
{
1000
UTF_TYPE
1070
     6
1000
ODXVALUES
1070
     3
1070
     2
1070
   499
1040
0.1
1002
}
  0
MTEXT
  5
1AF
330
1F
100
AcDbEntity
  8
XR$1$STANDARD_1
  6
AUSGEZOGEN
 62
     7
370
    25
100
AcDbMText
 10
-4.58172
 20
4.638495
 30
0.0
 40
0.125
 41
0.670996
 46
0.0
 71
     9
 72
     5
  1
{\fCalibri|i0|b0;\H0.125000;\W1.000000;\C7;r=17cm}\P
  7
CALIBRI
 73
     1
 44
1.0
  0
LINE
  5
1B0
330
1F
100
AcDbEntity
  8
XR$1$STANDARD_1
  6
AUSGEZOGEN
 62
     7
370
    25
100
AcDbLine
 10
-4.588426
 20
4.583024
 30
0.0
 11
-5.203318
 21
4.583024
 31
0.0
  0
LINE
  5
1B1
330
1F
100
AcDbEntity
  8
XR$1$STANDARD_1
  6
AUSGEZOGEN
 62
     7
370
    25
100
AcDbLine
 10
-5.203318
 20
4.583024
 30
0.0
 11
-5.579964
 21
4.3359
 31
0.0
  0
LINE
  5
1B2
330
1F
100
AcDbEntity
  8
XR$1$STANDARD_1
  6
AUSGEZOGEN
 62
     7
370
    25
100
AcDbLine
 10
-5.579964
 20
4.3859
 30
0.0
 11
-5.579964
 21
4.2859
 31
0.0
  0
LINE
  5
1B3
330
1F
100
AcDbEntity
  8
XR$1$STANDARD_1
  6
AUSGEZOGEN
 62
     7
370
    25
100
AcDbLine
 10
-5.606236
 20
4.088641
 30
0.0
 11
-5.606236
 21
3.988641
 31
0.0
  0
LINE
  5
1B4
330
1F
100
AcDbEntity
  8
XR$1$STANDARD_1
  6
AUSGEZOGEN
 62
     7
370
    25
100
AcDbLine
 10
-4.511702
 20
3.629967
 30
0.0
 11
-5.126594
 21
3.629967
 31
0.0
  0
LINE
  5
1B5
330
1F
100
AcDbEntity
  8
XR$1$STANDARD_1
  6
AUSGEZOGEN
 62
     7
370
    25
100
AcDbLine
 10
-5.126594
 20
3.629967
 30
0.0
 11
-5.606236
 21
4.038641
 31
0.0
  0
MTEXT
  5
1B6
330
1F
100
AcDbEntity
  8
XR$1$STANDARD_1
  6
AUSGEZOGEN
 62
     7
370
    25
100
AcDbMText
 10
-4.504995
 20
3.685438
 30
0.0
 40
0.125
 41
0.670055
 46
0.0
 71
     9
 72
     5
  1
{\fCalibri|i0|b0;\H0.125000;\W1.000000;\C7;r=27cm}\P
  7
CALIBRI
 73
     1
 44
1.0
  0
MTEXT
  5
1B7
330
1F
100
AcDbEntity
  8
XR$1$STANDARD_1
  6
AUSGEZOGEN
 62
     7
370
    25
100
AcDbMText
 10
-7.180548
 20
4.638495
 30
0.0
 40
0.125
 41
0.670996
 46
0.0
 71
     9
 72
     5
  1
{\fCalibri|i0|b0;\H0.125000;\W1.000000;\C7;r=17cm}\P
  7
CALIBRI
 73
     1
 44
1.0
  0
LINE
  5
1B8
330
1F
100
AcDbEntity
  8
XR$1$STANDARD_1
  6
AUSGEZOGEN
 62
     7
370
    25
100
AcDbLine
 10
-7.782175
 20
4.583024
 30
0.0
 11
-7.167283
 21
4.583024
 31
0.0
  0
LINE
  5
1B9
330
1F
100
AcDbEntity
  8
XR$1$STANDARD_1
  6
AUSGEZOGEN
 62
     7
370
    25
100
AcDbLine
 10
-7.167283
 20
4.583024
 30
0.0
 11
-6.790638
 21
4.3359
 31
0.0
  0
LINE
  5
1BA
330
1F
100
AcDbEntity
  8
XR$1$STANDARD_1
  6
AUSGEZOGEN
 62
     7
370
    25
100
AcDbLine
 10
-6.790638
 20
4.3859
 30
0.0
 11
-6.790638
 21
4.2859
 31
0.0
  0
LINE
  5
1BB
330
1F
100
AcDbEntity
  8
XR$1$STANDARD_1
  6
AUSGEZOGEN
 62
     7
370
    25
100
AcDbLine
 10
-6.764366
 20
4.088641
 30
0.0
 11
-6.764366
 21
3.988641
 31
0.0
  0
LINE
  5
1BC
330
1F
100
AcDbEntity
  8
XR$1$STANDARD_1
  6
AUSGEZOGEN
 62
     7
370
    25
100
AcDbLine
 10
-7.8589
 20
3.629967
 30
0.0
 11
-7.244008
 21
3.629967
 31
0.0
  0
LINE
  5
1BD
330
1F
100
AcDbEntity
  8
XR$1$STANDARD_1
  6
AUSGEZOGEN
 62
     7
370
    25
100
AcDbLine
 10
-7.244008
 20
3.629967
 30
0.0
 11
-6.764366
 21
4.038641
 31
0.0
  0
MTEXT
  5
1BE
330
1F
100
AcDbEntity
  8
XR$1$STANDARD_1
  6
AUSGEZOGEN
 62
     7
370
    25
100
AcDbMText
 10
-7.257273
 20
3.685438
 30
0.0
 40
0.125
 41
0.670055
 46
0.0
 71
     9
 72
     5
  1
{\fCalibri|i0|b0;\H0.125000;\W1.000000;\C7;r=27cm}\P
  7
CALIBRI
 73
     1
 44
1.0
  0
MTEXT
  5
1BF
330
1F
100
AcDbEntity
  8
XR$1$STANDARD_1
  6
AUSGEZOGEN
 62
     7
370
    35
100
AcDbMText
 10
-6.185382
 20
5.686394
 30
0.0
 40
0.2
 41
1.629635
 46
0.0
 71
     5
 72
     5
  1
{\L\fCalibri|i0|b0;\H0.200000;\W1.000000;\C7;Schnitt A--A\l}\P
  7
CALIBRI
 73
     1
 44
1.0
  0
DIMENSION
  5
1CB
330
1F
100
AcDbEntity
  8
XR$1$STANDARD_1
  6
AUSGEZOGEN
 62
    94
370
    25
100
AcDbDimension
280
     0
  2
*D17
 10
-5.535462
 20
5.044191
 30
0.0
 11
-6.182329
 21
5.161394
 31
0.0
 70
   160
  1
<>
 71
     5
 42
-1.0
 73
     0
 74
     0
 75
     0
  3
DIMSTYLE_7
100
AcDbAlignedDimension
 13
-6.835301
 23
4.221051
 33
0.0
 14
-5.535462
 24
4.228466
 34
0.0
100
AcDbRotatedDimension
1001
ACAD
1000
DSTYLE
1002
{
1070
     3
1000
<>
1070
   372
1070
    25
1070
   371
1070
     0
1070
   178
1070
    94
1070
   177
1070
    94
1070
   176
1070
    94
1002
}
1001
NEM_ODX
1000
MASSLINIE
1002
{
1000
UTF_TYPE
1070
     6
1000
ODXVALUES
1070
     3
1070
     2
1070
   499
1040
0.1
1002
}
  0
LINE
  5
1CC
330
1F
100
AcDbEntity
  8
XR$1$STANDARD_1
  6
AUSGEZOGEN
 62
     7
370
    25
100
AcDbLine
 10
-6.565301
 20
3.94105
 30
0.0
 11
-7.233684
 21
3.94105
 31
0.0
  0
INSERT
  5
1F5
330
1F
100
AcDbEntity
  8
XR$1$STANDARD_1
  6
AUSGEZOGEN
 62
     7
370
    25
100
AcDbBlockReference
  2
MUSTERELEMENT_5
 10
0.0
 20
0.0
 30
0.0
  0
LINE
  5
1F6
330
1F
100
AcDbEntity
  8
XR$1$STANDARD_1
  6
AUSGEZOGEN
 62
     7
370
    25
100
AcDbLine
 10
-4.812116
 20
3.94105
 30
0.0
 11
-5.24397
 21
3.94105
 31
0.0
  0
INSERT
  5
212
330
1F
100
AcDbEntity
  8
XR$1$STANDARD_1
  6
AUSGEZOGEN
 62
     7
370
    25
100
AcDbBlockReference
  2
MUSTERELEMENT_6
 10
0.0
 20
0.0
 30
0.0
  0
MTEXT
  5
213
330
1F
100
AcDbEntity
  8
XR$1$STANDARD_1
  6
AUSGEZOGEN
 62
     7
370
    35
100
AcDbMText
 10
-11.521161
 20
6.45668
 30
0.0
 40
0.2
 41
1.419203
 46
0.0
 71
     5
 72
     5
  1
{\L\fCalibri|i0|b0;\H0.200000;\W1.000000;\C7;Draufsicht\l}\P
  7
CALIBRI
 73
     1
 44
1.0
  0
LINE
  5
214
330
1F
100
AcDbEntity
  8
XR$1$STANDARD_1
  6
AUSGEZOGEN
 62
     7
370
    25
100
AcDbLine
 10
-13.037974
 20
-1.69492
 30
0.0
 11
-10.037974
 21
-1.69492
 31
0.0
  0
LINE
  5
215
330
1F
100
AcDbEntity
  8
XR$1$STANDARD_1
  6
AUSGEZOGEN
 62
     7
370
    25
100
AcDbLine
 10
-10.037974
 20
-1.69492
 30
0.0
 11
-10.037974
 21
-2.99492
 31
0.0
  0
LINE
  5
216
330
1F
100
AcDbEntity
  8
XR$1$STANDARD_1
  6
AUSGEZOGEN
 62
     7
370
    25
100
AcDbLine
 10
-10.037974
 20
-2.99492
 30
0.0
 11
-13.037974
 21
-2.99492
 31
0.0
  0
LINE
  5
217
330
1F
100
AcDbEntity
  8
XR$1$STANDARD_1
  6
AUSGEZOGEN
 62
     7
370
    25
100
AcDbLine
 10
-13.037974
 20
-2.99492
 30
0.0
 11
-13.037974
 21
-1.69492
 31
0.0
  0
LINE
  5
218
330
1F
100
AcDbEntity
  8
XR$1$STANDARD_1
  6
STRICHLINIE_S4
 62
     7
370
    25
100
AcDbLine
 10
-13.037974
 20
-1.86492
 30
0.0
 11
-10.037974
 21
-1.86492
 31
0.0
  0
LINE
  5
219
330
1F
100
AcDbEntity
  8
XR$1$STANDARD_1
  6
STRICHLINIE_S4
 62
     7
370
    25
100
AcDbLine
 10
-10.037974
 20
-2.82492
 30
0.0
 11
-13.037974
 21
-2.82492
 31
0.0
  0
HATCH
  5
21A
330
1F
100
AcDbEntity
  8
XR$1$STANDARD_1
  6
AUSGEZOGEN
 62
   255
370
    25
100
AcDbHatch
 10
0.0
 20
0.0
 30
0.0
210
0.0
220
0.0
230
1.0
  2
SOLID
 70
     1
 71
     0
 91
        1
 92
        3
 72
     0
 73
     1
 93
        4
 10
-10.03797386333091
 20
-1.69492047194387
 10
-13.03797386333091
 20
-1.69492047194387
 10
-13.03797386333091
 20
-2.99492047194387
 10
-10.03797386333091
 20
-2.99492047194387
 97
        0
 75
     0
 76
     1
 98
        0
  0
DIMENSION
  5
226
330
1F
100
AcDbEntity
  8
XR$1$STANDARD_1
  6
AUSGEZOGEN
 62
    94
370
    25
100
AcDbDimension
280
     0
  2
*D20
 10
-10.037974
 20
-1.29492
 30
0.0
 11
-11.534921
 21
-1.177718
 31
0.0
 70
   160
  1
<>
 71
     5
 42
-1.0
 73
     0
 74
     0
 75
     0
  3
DIMSTYLE_8
100
AcDbAlignedDimension
 13
-13.037974
 23
-2.994919
 33
0.0
 14
-10.037974
 24
-2.994919
 34
0.0
100
AcDbRotatedDimension
1001
ACAD
1000
DSTYLE
1002
{
1070
     3
1000
<>
1070
   372
1070
    25
1070
   371
1070
     0
1070
   178
1070
    94
1070
   177
1070
    94
1070
   176
1070
    94
1002
}
1001
NEM_ODX
1000
MASSLINIE
1002
{
1000
UTF_TYPE
1070
     6
1000
ODXVALUES
1070
     3
1070
     2
1070
   499
1040
0.1
1002
}
  0
DIMENSION
  5
231
330
1F
100
AcDbEntity
  8
XR$1$STANDARD_1
  6
AUSGEZOGEN
 62
    94
370
    25
100
AcDbDimension
280
     0
  2
*D21
 10
-13.437974
 20
-1.69492
 30
0.0
 11
-13.555176
 21
-2.341868
 31
0.0
 70
   160
  1
<>
 71
     5
 42
-1.0
 73
     0
 74
     0
 75
     0
  3
DIMSTYLE_8
100
AcDbAlignedDimension
 13
-13.037975
 23
-2.99492
 33
0.0
 14
-13.037975
 24
-1.69492
 34
0.0
 50
90.0
100
AcDbRotatedDimension
1001
ACAD
1000
DSTYLE
1002
{
1070
     3
1000
<>
1070
   372
1070
    25
1070
   371
1070
     0
1070
   178
1070
    94
1070
   177
1070
    94
1070
   176
1070
    94
1002
}
1001
NEM_ODX
1000
MASSLINIE
1002
{
1000
UTF_TYPE
1070
     6
1000
ODXVALUES
1070
     3
1070
     2
1070
   499
1040
0.1
1002
}
  0
MTEXT
  5
232
330
1F
100
AcDbEntity
  8
XR$1$STANDARD_1
  6
AUSGEZOGEN
 62
     7
370
    35
100
AcDbMText
 10
-11.537974
 20
-0.652718
 30
0.0
 40
0.2
 41
1.419203
 46
0.0
 71
     5
 72
     5
  1
{\L\fCalibri|i0|b0;\H0.200000;\W1.000000;\C7;Draufsicht\l}\P
  7
CALIBRI
 73
     1
 44
1.0
  0
ARC
  5
233
330
1F
100
AcDbEntity
  8
XR$1$STANDARD_1
  6
AUSGEZOGEN
 62
     7
370
    25
100
AcDbCircle
 10
-6.673966
 20
-2.432023
 30
0.0
 40
0.17
100
AcDbArc
 50
90.0
 51
180.0
  0
ARC
  5
234
330
1F
100
AcDbEntity
  8
XR$1$STANDARD_1
  6
AUSGEZOGEN
 62
     7
370
    25
100
AcDbCircle
 10
-5.713966
 20
-2.432023
 30
0.0
 40
0.17
100
AcDbArc
 50
0.0
 51
90.0
  0
LINE
  5
235
330
1F
100
AcDbEntity
  8
XR$1$STANDARD_1
  6
AUSGEZOGEN
 62
     7
370
    25
100
AcDbLine
 10
-6.673966
 20
-2.262023
 30
0.0
 11
-5.713966
 21
-2.262023
 31
0.0
  0
ARC
  5
236
330
1F
100
AcDbEntity
  8
XR$1$STANDARD_1
  6
AUSGEZOGEN
 62
     7
370
    25
100
AcDbCircle
 10
-5.813966
 20
-2.432023
 30
0.0
 40
0.27
100
AcDbArc
 50
270.0
 51
0.0
  0
LINE
  5
237
330
1F
100
AcDbEntity
  8
XR$1$STANDARD_1
  6
AUSGEZOGEN
 62
     7
370
    25
100
AcDbLine
 10
-5.543966
 20
-2.432023
 30
0.0
 11
-5.543966
 21
-2.432023
 31
0.0
  0
ARC
  5
238
330
1F
100
AcDbEntity
  8
XR$1$STANDARD_1
  6
AUSGEZOGEN
 62
     7
370
    25
100
AcDbCircle
 10
-6.573966
 20
-2.432023
 30
0.0
 40
0.27
100
AcDbArc
 50
180.0
 51
270.0
  0
LINE
  5
239
330
1F
100
AcDbEntity
  8
XR$1$STANDARD_1
  6
AUSGEZOGEN
 62
     7
370
    25
100
AcDbLine
 10
-6.843966
 20
-2.432023
 30
0.0
 11
-6.843966
 21
-2.432023
 31
0.0
  0
ARC
  5
23A
330
1F
100
AcDbEntity
  8
XR$1$STANDARD_1
  6
AUSGEZOGEN
 62
     7
370
    25
100
AcDbCircle
 10
-6.573966
 20
-2.432023
 30
0.0
 40
0.24
100
AcDbArc
 50
180.0
 51
270.0
  0
ARC
  5
23B
330
1F
100
AcDbEntity
  8
XR$1$STANDARD_1
  6
AUSGEZOGEN
 62
     7
370
    25
100
AcDbCircle
 10
-6.673966
 20
-2.432023
 30
0.0
 40
0.14
100
AcDbArc
 50
90.0
 51
180.0
  0
LINE
  5
23C
330
1F
100
AcDbEntity
  8
XR$1$STANDARD_1
  6
AUSGEZOGEN
 62
     7
370
    25
100
AcDbLine
 10
-6.673966
 20
-2.292023
 30
0.0
 11
-5.713966
 21
-2.292023
 31
0.0
  0
ARC
  5
23D
330
1F
100
AcDbEntity
  8
XR$1$STANDARD_1
  6
AUSGEZOGEN
 62
     7
370
    25
100
AcDbCircle
 10
-5.713966
 20
-2.432023
 30
0.0
 40
0.14
100
AcDbArc
 50
0.0
 51
90.0
  0
ARC
  5
23E
330
1F
100
AcDbEntity
  8
XR$1$STANDARD_1
  6
AUSGEZOGEN
 62
     7
370
    25
100
AcDbCircle
 10
-5.813966
 20
-2.432023
 30
0.0
 40
0.24
100
AcDbArc
 50
270.0
 51
0.0
  0
LINE
  5
23F
330
1F
100
AcDbEntity
  8
XR$1$STANDARD_1
  6
AUSGEZOGEN
 62
     7
370
    25
100
AcDbLine
 10
-6.473966
 20
-2.702023
 30
0.0
 11
-6.473966
 21
-2.672023
 31
0.0
  0
LINE
  5
240
330
1F
100
AcDbEntity
  8
XR$1$STANDARD_1
  6
AUSGEZOGEN
 62
     7
370
    25
100
AcDbLine
 10
-6.473966
 20
-2.672023
 30
0.0
 11
-6.573966
 21
-2.672023
 31
0.0
  0
LINE
  5
241
330
1F
100
AcDbEntity
  8
XR$1$STANDARD_1
  6
AUSGEZOGEN
 62
     7
370
    25
100
AcDbLine
 10
-5.913966
 20
-2.702023
 30
0.0
 11
-5.913966
 21
-2.672023
 31
0.0
  0
LINE
  5
242
330
1F
100
AcDbEntity
  8
XR$1$STANDARD_1
  6
AUSGEZOGEN
 62
     7
370
    25
100
AcDbLine
 10
-5.913966
 20
-2.672023
 30
0.0
 11
-5.813966
 21
-2.672023
 31
0.0
  0
LINE
  5
243
330
1F
100
AcDbEntity
  8
XR$1$STANDARD_1
  6
AUSGEZOGEN
 62
     7
370
    25
100
AcDbLine
 10
-5.813966
 20
-2.702023
 30
0.0
 11
-5.913966
 21
-2.702023
 31
0.0
  0
LINE
  5
244
330
1F
100
AcDbEntity
  8
XR$1$STANDARD_1
  6
AUSGEZOGEN
 62
     7
370
    25
100
AcDbLine
 10
-6.473966
 20
-2.702023
 30
0.0
 11
-6.573966
 21
-2.702023
 31
0.0
  0
HATCH
  5
245
330
1F
100
AcDbEntity
  8
XR$1$STANDARD_1
  6
AUSGEZOGEN
 62
   253
370
    25
100
AcDbHatch
 10
0.0
 20
0.0
 30
0.0
210
0.0
220
0.0
230
1.0
  2
SOLID
 70
     1
 71
     0
 91
        1
 92
        3
 72
     0
 73
     1
 93
      296
 10
-6.673965917627649
 20
-2.262022822354246
 10
-6.681381213479757
 20
-2.26218462468533
 10
-6.688782393894749
 20
-2.262669723678648
 10
-6.696155370305058
 20
-2.263477195920698
 10
-6.70348610783103
 20
-2.264605504342172
 10
-6.710760651997125
 20
-2.266052501143858
 10
-6.717965155295077
 20
-2.267815431885104
 10
-6.725085903543377
 20
-2.269890940727047
 10
-6.732109341993013
 20
-2.272275076820641
 10
-6.739022101129713
 20
-2.274963301827328
 10
-6.745811022123568
 20
-2.277950498558016
 10
-6.752463181877605
 20
-2.281230980713949
 10
-6.758965917627649
 20
-2.284798503710891
 10
-6.765306851046609
 20
-2.288646276566055
 10
-6.771473911807329
 20
-2.292766974825118
 10
-6.77745536055913
 20
-2.297152754504737
 10
-6.783239811274363
 20
-2.30179526702402
 10
-6.788816252922314
 20
-2.306685675096526
 10
-6.794174070429364
 20
-2.311814669552533
 10
-6.799303064885369
 20
-2.317172487059584
 10
-6.804193472957873
 20
-2.322748928707534
 10
-6.808835985477157
 20
-2.328533379422764
 10
-6.813221765156779
 20
-2.334514828174569
 10
-6.817342463415838
 20
-2.340681888935286
 10
-6.821190236271004
 20
-2.347022822354246
 10
-6.824757759267946
 20
-2.35352555810429
 10
-6.828038241423879
 20
-2.360177717858328
 10
-6.831025438154569
 20
-2.366966638852181
 10
-6.833713663161254
 20
-2.373879397988882
 10
-6.836097799254845
 20
-2.380902836438521
 10
-6.838173308096792
 20
-2.388023584686817
 10
-6.839936238838038
 20
-2.395228087984769
 10
-6.841383235639727
 20
-2.402502632150868
 10
-6.842511544061197
 20
-2.409833369676838
 10
-6.843319016303243
 20
-2.417206346087144
 10
-6.843804115296566
 20
-2.424607526502138
 10
-6.843965917627649
 20
-2.432022822354246
 10
-6.843708937454752
 20
-2.443800056942887
 10
-6.842938486112422
 20
-2.455554872896114
 10
-6.841656030198576
 20
-2.467264894253661
 10
-6.839864010940948
 20
-2.478907830324318
 10
-6.837565839550031
 20
-2.490461518117535
 10
-6.834765890725698
 20
-2.501903964531927
 10
-6.831469494329673
 20
-2.513213388220399
 10
-6.827682925239844
 20
-2.524368261052176
 10
-6.823413391405697
 20
-2.53534734909282
 10
-6.818669020127543
 20
-2.546129753024235
 10
-6.813458842585767
 20
-2.556694947927705
 10
-6.807792776649449
 20
-2.567022822354246
 10
-6.801681607997127
 20
-2.577093716607888
 10
-6.79513696958568
 20
-2.586888460169029
 10
-6.788171319506282
 20
-2.596388408186601
 10
-6.780797917269773
 20
-2.605575476969611
 10
-6.773030798566384
 20
-2.614432178410475
 10
-6.764884748548017
 20
-2.622941653274613
 10
-6.756375273683878
 20
-2.631087703292979
 10
-6.747518572243012
 20
-2.638854821996369
 10
-6.738331503460004
 20
-2.646228224232879
 10
-6.728831555442432
 20
-2.653193874312274
 10
-6.719036811881293
 20
-2.659738512723726
 10
-6.708965917627649
 20
-2.665849681376046
 10
-6.698638043201108
 20
-2.671515747312367
 10
-6.688072848297636
 20
-2.676725924854142
 10
-6.677290444366221
 20
-2.681470296132294
 10
-6.666311356325577
 20
-2.685739829966441
 10
-6.655156483493806
 20
-2.689526399056268
 10
-6.643847059805331
 20
-2.692822795452295
 10
-6.632404613390938
 20
-2.695622744276628
 10
-6.620850925597721
 20
-2.697920915667542
 10
-6.609207989527063
 20
-2.699712934925175
 10
-6.597497968169517
 20
-2.700995390839017
 10
-6.58574315221629
 20
-2.701765842181348
 10
-6.573965917627649
 20
-2.702022822354246
 10
-6.473965917627649
 20
-2.702022822354246
 10
-6.473965917627649
 20
-2.672022822354246
 10
-6.573965917627649
 20
-2.672022822354246
 10
-6.584434570595329
 20
-2.671794395533892
 10
-6.594883295887087
 20
-2.671109549896265
 10
-6.60529220376046
 20
-2.66996958908396
 10
-6.615641480267712
 20
-2.668376683077176
 10
-6.625911424972796
 20
-2.666333864063031
 10
-6.636082488452254
 20
-2.663845020663622
 10
-6.646135309508677
 20
-2.660914890533822
 10
-6.656050752025809
 20
-2.657549051342864
 10
-6.665809941395271
 20
-2.653753910156956
 10
-6.675394300445418
 20
-2.649536691243043
 10
-6.684785584804058
 20
-2.64490542231702
 10
-6.693965917627649
 20
-2.639868919262513
 10
-6.702917823630889
 20
-2.63443676934934
 10
-6.711624262351902
 20
-2.628619312983604
 10
-6.720068660589744
 20
-2.622427624024143
 10
-6.728234943952421
 20
-2.615873488702801
 10
-6.736107567455407
 20
-2.608969383188675
 10
-6.74367154511242
 20
-2.601728449839017
 10
-6.750912478462078
 20
-2.594164472182004
 10
-6.757816583976203
 20
-2.586291848679016
 10
-6.764370719297544
 20
-2.57812556531634
 10
-6.770562408257009
 20
-2.569681167078498
 10
-6.776379864622743
 20
-2.560974728357484
 10
-6.781812014535915
 20
-2.552022822354246
 10
-6.786848517590423
 20
-2.542842489530655
 10
-6.791479786516446
 20
-2.533451205172015
 10
-6.795697005430358
 20
-2.523866846121869
 10
-6.799492146616265
 20
-2.514107656752406
 10
-6.802857985807225
 20
-2.504192214235271
 10
-6.805788115937025
 20
-2.494139393178851
 10
-6.808276959336434
 20
-2.483968329699391
 10
-6.810319778350577
 20
-2.473698384994309
 10
-6.811912684357363
 20
-2.463349108487058
 10
-6.813052645169666
 20
-2.452940200613683
 10
-6.813737490807294
 20
-2.442491475321926
 10
-6.813965917627649
 20
-2.432022822354246
 10
-6.813832668649107
 20
-2.425916108123099
 10
-6.813433175360495
 20
-2.419821018369575
 10
-6.812768198219981
 20
-2.413749155443439
 10
-6.811839003049355
 20
-2.407712077480876
 10
-6.810647358624442
 20
-2.401721276402913
 10
-6.809195533308118
 20
-2.395788156039894
 10
-6.807486290732401
 20
-2.389924010423648
 10
-6.805522884537679
 20
-2.384140002288653
 10
-6.803309052179228
 20
-2.378447141823134
 10
-6.800849007812782
 20
-2.37285626571055
 10
-6.798147434272602
 20
-2.36737801650134
 10
-6.795209474157471
 20
-2.362022822354247
 10
-6.792040720041454
 20
-2.356800877185691
 10
-6.788647203828108
 20
-2.351722121265099
 10
-6.785035385268422
 20
-2.346796222293025
 10
-6.781212139664307
 20
-2.342032556998131
 10
-6.777184744781067
 20
-2.337440193288053
 10
-6.772960866993768
 20
-2.333027872988129
 10
-6.768548546693843
 20
-2.328803995200829
 10
-6.763956182983764
 20
-2.324776600317588
 10
-6.759192517688871
 20
-2.320953354713474
 10
-6.754266618716795
 20
-2.317341536153787
 10
-6.749187862796205
 20
-2.313948019940442
 10
-6.74396591762765
 20
-2.310779265824424
 10
-6.738610723480555
 20
-2.307841305709296
 10
-6.73313247427135
 20
-2.305139732169116
 10
-6.727541598158759
 20
-2.302679687802666
 10
-6.721848737693241
 20
-2.300465855444219
 10
-6.716064729558248
 20
-2.298502449249495
 10
-6.710200583942004
 20
-2.296793206673777
 10
-6.704267463578983
 20
-2.295341381357456
 10
-6.698276662501021
 20
-2.294149736932536
 10
-6.692239584538455
 20
-2.293220541761912
 10
-6.686167721612323
 20
-2.292555564621403
 10
-6.680072631858797
 20
-2.292156071332786
 10
-6.673965917627649
 20
-2.292022822354246
 10
-5.713965917627649
 20
-2.292022822354246
 10
-5.707859203396501
 20
-2.292156071332786
 10
-5.701764113642976
 20
-2.292555564621403
 10
-5.695692250716844
 20
-2.293220541761912
 10
-5.689655172754278
 20
-2.294149736932536
 10
-5.683664371676316
 20
-2.295341381357456
 10
-5.677731251313295
 20
-2.296793206673777
 10
-5.671867105697051
 20
-2.298502449249495
 10
-5.666083097562058
 20
-2.300465855444219
 10
-5.660390237096539
 20
-2.302679687802666
 10
-5.654799360983949
 20
-2.305139732169116
 10
-5.649321111774744
 20
-2.307841305709296
 10
-5.643965917627649
 20
-2.310779265824424
 10
-5.638743972459094
 20
-2.313948019940442
 10
-5.633665216538504
 20
-2.317341536153787
 10
-5.628739317566428
 20
-2.320953354713474
 10
-5.623975652271534
 20
-2.324776600317588
 10
-5.619383288561456
 20
-2.328803995200829
 10
-5.61497096826153
 20
-2.333027872988129
 10
-5.610747090474232
 20
-2.337440193288053
 10
-5.606719695590991
 20
-2.342032556998131
 10
-5.602896449986877
 20
-2.346796222293025
 10
-5.59928463142719
 20
-2.351722121265099
 10
-5.595891115213845
 20
-2.356800877185691
 10
-5.592722361097827
 20
-2.362022822354247
 10
-5.589784400982697
 20
-2.36737801650134
 10
-5.587082827442517
 20
-2.37285626571055
 10
-5.584622783076071
 20
-2.378447141823134
 10
-5.582408950717619
 20
-2.384140002288653
 10
-5.580445544522898
 20
-2.389924010423648
 10
-5.578736301947179
 20
-2.395788156039894
 10
-5.577284476630857
 20
-2.401721276402913
 10
-5.576092832205942
 20
-2.407712077480876
 10
-5.575163637035318
 20
-2.413749155443439
 10
-5.574498659894804
 20
-2.419821018369575
 10
-5.574099166606191
 20
-2.425916108123099
 10
-5.573965917627649
 20
-2.432022822354246
 10
-5.574194344448004
 20
-2.442491475321926
 10
-5.574879190085633
 20
-2.452940200613683
 10
-5.576019150897936
 20
-2.463349108487059
 10
-5.577612056904722
 20
-2.473698384994309
 10
-5.579654875918864
 20
-2.483968329699391
 10
-5.582143719318274
 20
-2.494139393178851
 10
-5.585073849448074
 20
-2.504192214235271
 10
-5.588439688639033
 20
-2.514107656752406
 10
-5.59223482982494
 20
-2.523866846121869
 10
-5.596452048738853
 20
-2.533451205172015
 10
-5.601083317664876
 20
-2.542842489530655
 10
-5.606119820719383
 20
-2.552022822354246
 10
-5.611551970632556
 20
-2.560974728357484
 10
-5.61736942699829
 20
-2.569681167078498
 10
-5.623561115957755
 20
-2.57812556531634
 10
-5.630115251279096
 20
-2.586291848679016
 10
-5.63701935679322
 20
-2.594164472182004
 10
-5.644260290142879
 20
-2.601728449839017
 10
-5.651824267799892
 20
-2.608969383188675
 10
-5.659696891302878
 20
-2.615873488702801
 10
-5.667863174665554
 20
-2.622427624024143
 10
-5.676307572903397
 20
-2.628619312983604
 10
-5.68501401162441
 20
-2.63443676934934
 10
-5.693965917627649
 20
-2.639868919262513
 10
-5.70314625045124
 20
-2.64490542231702
 10
-5.712537534809881
 20
-2.649536691243043
 10
-5.722121893860027
 20
-2.653753910156956
 10
-5.73188108322949
 20
-2.657549051342864
 10
-5.741796525746622
 20
-2.660914890533822
 10
-5.751849346803045
 20
-2.663845020663622
 10
-5.762020410282503
 20
-2.666333864063031
 10
-5.772290354987587
 20
-2.668376683077176
 10
-5.782639631494838
 20
-2.66996958908396
 10
-5.793048539368212
 20
-2.671109549896265
 10
-5.803497264659969
 20
-2.671794395533892
 10
-5.813965917627649
 20
-2.672022822354246
 10
-5.91396591762765
 20
-2.672022822354246
 10
-5.91396591762765
 20
-2.702022822354246
 10
-5.813965917627649
 20
-2.702022822354246
 10
-5.802188683039009
 20
-2.701765842181348
 10
-5.790433867085782
 20
-2.700995390839017
 10
-5.778723845728234
 20
-2.699712934925175
 10
-5.767080909657578
 20
-2.697920915667542
 10
-5.75552722186436
 20
-2.695622744276628
 10
-5.744084775449968
 20
-2.692822795452295
 10
-5.732775351761493
 20
-2.689526399056268
 10
-5.72162047892972
 20
-2.685739829966441
 10
-5.710641390889077
 20
-2.681470296132294
 10
-5.699858986957663
 20
-2.676725924854142
 10
-5.68929379205419
 20
-2.671515747312367
 10
-5.678965917627649
 20
-2.665849681376046
 10
-5.668895023374005
 20
-2.659738512723726
 10
-5.659100279812867
 20
-2.653193874312274
 10
-5.649600331795295
 20
-2.646228224232879
 10
-5.640413263012286
 20
-2.638854821996369
 10
-5.63155656157142
 20
-2.631087703292979
 10
-5.623047086707282
 20
-2.622941653274613
 10
-5.614901036688915
 20
-2.614432178410475
 10
-5.607133917985526
 20
-2.605575476969611
 10
-5.599760515749017
 20
-2.596388408186601
 10
-5.592794865669619
 20
-2.586888460169029
 10
-5.586250227258171
 20
-2.577093716607888
 10
-5.58013905860585
 20
-2.567022822354246
 10
-5.574472992669531
 20
-2.556694947927705
 10
-5.569262815127755
 20
-2.546129753024235
 10
-5.564518443849602
 20
-2.535347349092822
 10
-5.560248910015455
 20
-2.524368261052176
 10
-5.556462340925625
 20
-2.513213388220401
 10
-5.553165944529601
 20
-2.501903964531927
 10
-5.550365995705268
 20
-2.490461518117535
 10
-5.548067824314354
 20
-2.478907830324318
 10
-5.546275805056723
 20
-2.467264894253661
 10
-5.544993349142876
 20
-2.455554872896114
 10
-5.544222897800546
 20
-2.443800056942887
 10
-5.543965917627649
 20
-2.432022822354246
 10
-5.544127719958733
 20
-2.424607526502138
 10
-5.544612818952055
 20
-2.417206346087144
 10
-5.545420291194101
 20
-2.409833369676838
 10
-5.546548599615571
 20
-2.402502632150868
 10
-5.547995596417261
 20
-2.395228087984769
 10
-5.549758527158507
 20
-2.388023584686817
 10
-5.551834036000454
 20
-2.380902836438521
 10
-5.554218172094044
 20
-2.373879397988882
 10
-5.556906397100729
 20
-2.366966638852181
 10
-5.559893593831419
 20
-2.360177717858328
 10
-5.563174075987352
 20
-2.35352555810429
 10
-5.566741598984294
 20
-2.347022822354246
 10
-5.57058937183946
 20
-2.340681888935286
 10
-5.574710070098519
 20
-2.334514828174569
 10
-5.579095849778141
 20
-2.328533379422764
 10
-5.583738362297425
 20
-2.322748928707534
 10
-5.58862877036993
 20
-2.317172487059584
 10
-5.593757764825934
 20
-2.311814669552533
 10
-5.599115582332985
 20
-2.306685675096526
 10
-5.604692023980935
 20
-2.30179526702402
 10
-5.610476474696168
 20
-2.297152754504737
 10
-5.61645792344797
 20
-2.292766974825118
 10
-5.622624984208689
 20
-2.288646276566055
 10
-5.628965917627649
 20
-2.284798503710891
 10
-5.635468653377693
 20
-2.281230980713949
 10
-5.642120813131731
 20
-2.277950498558016
 10
-5.648909734125586
 20
-2.274963301827328
 10
-5.655822493262285
 20
-2.272275076820641
 10
-5.662845931711922
 20
-2.269890940727047
 10
-5.669966679960222
 20
-2.267815431885104
 10
-5.677171183258173
 20
-2.266052501143858
 10
-5.684445727424269
 20
-2.264605504342172
 10
-5.691776464950241
 20
-2.263477195920698
 10
-5.699149441360549
 20
-2.262669723678648
 10
-5.706550621775541
 20
-2.26218462468533
 10
-5.713965917627649
 20
-2.262022822354246
 97
        0
 75
     0
 76
     1
 98
        0
  0
LINE
  5
246
330
1F
100
AcDbEntity
  8
XR$1$STANDARD_1
  6
AUSGEZOGEN
 62
     7
370
    25
100
AcDbLine
 10
-6.573966
 20
-2.702023
 30
0.0
 11
-6.573966
 21
-3.052023
 31
0.0
  0
LINE
  5
247
330
1F
100
AcDbEntity
  8
XR$1$STANDARD_1
  6
AUSGEZOGEN
 62
     7
370
    25
100
AcDbLine
 10
-5.813966
 20
-2.702023
 30
0.0
 11
-5.813966
 21
-3.052023
 31
0.0
  0
LINE
  5
248
330
1F
100
AcDbEntity
  8
XR$1$STANDARD_1
  6
AUSGEZOGEN
 62
     7
370
    25
100
AcDbLine
 10
-5.813966
 20
-3.052023
 30
0.0
 11
-6.573966
 21
-3.052023
 31
0.0
  0
LINE
  5
249
330
1F
100
AcDbEntity
  8
XR$1$STANDARD_1
  6
AUSGEZOGEN
 62
     7
370
    25
100
AcDbLine
 10
-6.573966
 20
-2.702023
 30
0.0
 11
-5.813966
 21
-2.702023
 31
0.0
  0
LINE
  5
24A
330
1F
100
AcDbEntity
  8
XR$1$STANDARD_1
  6
AUSGEZOGEN
 62
     7
370
    25
100
AcDbLine
 10
-5.813966
 20
-2.712023
 30
0.0
 11
-5.813966
 21
-2.702023
 31
0.0
  0
HATCH
  5
24B
330
1F
100
AcDbEntity
  8
XR$1$STANDARD_1
  6
AUSGEZOGEN
 62
     7
370
    25
100
AcDbHatch
 10
0.0
 20
0.0
 30
0.0
210
0.0
220
0.0
230
1.0
  2
SCHRAFFUR_16
 70
     0
 71
     0
 91
        1
 92
        0
 93
        4
 72
     1
 10
-5.813965917627649
 20
-2.702022822354246
 11
-6.573965917627649
 21
-2.702022822354246
 72
     1
 10
-6.573965917627649
 20
-2.702022822354246
 11
-6.573965917627649
 21
-3.052022822354246
 72
     1
 10
-6.573965917627649
 20
-3.052022822354246
 11
-5.813965917627649
 21
-3.052022822354246
 72
     1
 10
-5.813965917627649
 20
-3.052022822354246
 11
-5.813965917627649
 21
-2.702022822354246
 97
        0
 75
     0
 76
     2
 52
0.0
 41
0.05
 77
     0
 78
     2
 53
45.0
 43
0.0
 44
0.0
 45
-0.1060660171779822
 46
0.1060660171779822
 79
     2
 49
0.2
 49
-0.1
 53
45.0
 43
-0.0530330085889911
 44
0.0530330085889911
 45
-0.1060660171779822
 46
0.1060660171779822
 79
     2
 49
0.2
 49
-0.1
 98
        0
1001
ACAD
1010
0.0
1020
0.0
1030
0.0
1001
NEM_ODX
1002
{
1000
BZM_DEPEND
1070
     1
1000
BZM_SCALE
1040
50.0
1000
SCHRAFFUR_16
1002
}
  0
LINE
  5
24C
330
1F
100
AcDbEntity
  8
XR$1$STANDARD_1
  6
AUSGEZOGEN
 62
     7
370
    25
100
AcDbLine
 10
-5.813966
 20
-2.712023
 30
0.0
 11
-5.252636
 21
-2.712023
 31
0.0
  0
INSERT
  5
270
330
1F
100
AcDbEntity
  8
XR$1$STANDARD_1
  6
AUSGEZOGEN
 62
     7
370
    25
100
AcDbBlockReference
  2
MUSTERELEMENT_7
 10
0.0
 20
0.0
 30
0.0
  0
DIMENSION
  5
27C
330
1F
100
AcDbEntity
  8
XR$1$STANDARD_1
  6
AUSGEZOGEN
 62
    94
370
    25
100
AcDbDimension
280
     0
  2
*D23
 10
-7.243709
 20
-2.262023
 30
0.0
 11
-7.359404
 21
-2.491944
 31
0.0
 70
   160
  1
<>
 71
     5
 42
-1.0
 73
     0
 74
     0
 75
     0
  3
DIMSTYLE_9
100
AcDbAlignedDimension
 13
-6.523967
 23
-2.702023
 33
0.0
 14
-6.28071
 24
-2.262023
 34
0.0
 50
90.0
100
AcDbRotatedDimension
1001
ACAD
1000
DSTYLE
1002
{
1070
     3
1000
<>
1070
   372
1070
    25
1070
   371
1070
     0
1070
   178
1070
    94
1070
   177
1070
    94
1070
   176
1070
    94
1002
}
1001
NEM_ODX
1000
MASSLINIE
1002
{
1000
UTF_TYPE
1070
     6
1000
ODXVALUES
1070
     3
1070
     2
1070
   499
1040
0.1
1002
}
  0
MTEXT
  5
27D
330
1F
100
AcDbEntity
  8
XR$1$STANDARD_1
  6
AUSGEZOGEN
 62
     7
370
    25
100
AcDbMText
 10
-4.590385
 20
-2.014577
 30
0.0
 40
0.125
 41
0.670996
 46
0.0
 71
     9
 72
     5
  1
{\fCalibri|i0|b0;\H0.125000;\W1.000000;\C7;r=17cm}\P
  7
CALIBRI
 73
     1
 44
1.0
  0
LINE
  5
27E
330
1F
100
AcDbEntity
  8
XR$1$STANDARD_1
  6
AUSGEZOGEN
 62
     7
370
    25
100
AcDbLine
 10
-4.597091
 20
-2.070048
 30
0.0
 11
-5.211984
 21
-2.070048
 31
0.0
  0
LINE
  5
27F
330
1F
100
AcDbEntity
  8
XR$1$STANDARD_1
  6
AUSGEZOGEN
 62
     7
370
    25
100
AcDbLine
 10
-5.211984
 20
-2.070048
 30
0.0
 11
-5.588629
 21
-2.317172
 31
0.0
  0
LINE
  5
280
330
1F
100
AcDbEntity
  8
XR$1$STANDARD_1
  6
AUSGEZOGEN
 62
     7
370
    25
100
AcDbLine
 10
-5.588629
 20
-2.267172
 30
0.0
 11
-5.588629
 21
-2.367172
 31
0.0
  0
LINE
  5
281
330
1F
100
AcDbEntity
  8
XR$1$STANDARD_1
  6
AUSGEZOGEN
 62
     7
370
    25
100
AcDbLine
 10
-5.614901
 20
-2.564432
 30
0.0
 11
-5.614901
 21
-2.664432
 31
0.0
  0
LINE
  5
282
330
1F
100
AcDbEntity
  8
XR$1$STANDARD_1
  6
AUSGEZOGEN
 62
     7
370
    25
100
AcDbLine
 10
-4.520367
 20
-3.023106
 30
0.0
 11
-5.135259
 21
-3.023106
 31
0.0
  0
LINE
  5
283
330
1F
100
AcDbEntity
  8
XR$1$STANDARD_1
  6
AUSGEZOGEN
 62
     7
370
    25
100
AcDbLine
 10
-5.135259
 20
-3.023106
 30
0.0
 11
-5.614901
 21
-2.614432
 31
0.0
  0
MTEXT
  5
284
330
1F
100
AcDbEntity
  8
XR$1$STANDARD_1
  6
AUSGEZOGEN
 62
     7
370
    25
100
AcDbMText
 10
-4.513661
 20
-2.967635
 30
0.0
 40
0.125
 41
0.670055
 46
0.0
 71
     9
 72
     5
  1
{\fCalibri|i0|b0;\H0.125000;\W1.000000;\C7;r=27cm}\P
  7
CALIBRI
 73
     1
 44
1.0
  0
MTEXT
  5
285
330
1F
100
AcDbEntity
  8
XR$1$STANDARD_1
  6
AUSGEZOGEN
 62
     7
370
    25
100
AcDbMText
 10
-7.189213
 20
-2.014577
 30
0.0
 40
0.125
 41
0.670996
 46
0.0
 71
     9
 72
     5
  1
{\fCalibri|i0|b0;\H0.125000;\W1.000000;\C7;r=17cm}\P
  7
CALIBRI
 73
     1
 44
1.0
  0
LINE
  5
286
330
1F
100
AcDbEntity
  8
XR$1$STANDARD_1
  6
AUSGEZOGEN
 62
     7
370
    25
100
AcDbLine
 10
-7.79084
 20
-2.070048
 30
0.0
 11
-7.175948
 21
-2.070048
 31
0.0
  0
LINE
  5
287
330
1F
100
AcDbEntity
  8
XR$1$STANDARD_1
  6
AUSGEZOGEN
 62
     7
370
    25
100
AcDbLine
 10
-7.175948
 20
-2.070048
 30
0.0
 11
-6.799303
 21
-2.317172
 31
0.0
  0
LINE
  5
288
330
1F
100
AcDbEntity
  8
XR$1$STANDARD_1
  6
AUSGEZOGEN
 62
     7
370
    25
100
AcDbLine
 10
-6.799303
 20
-2.267172
 30
0.0
 11
-6.799303
 21
-2.367172
 31
0.0
  0
LINE
  5
289
330
1F
100
AcDbEntity
  8
XR$1$STANDARD_1
  6
AUSGEZOGEN
 62
     7
370
    25
100
AcDbLine
 10
-6.773031
 20
-2.564432
 30
0.0
 11
-6.773031
 21
-2.664432
 31
0.0
  0
LINE
  5
28A
330
1F
100
AcDbEntity
  8
XR$1$STANDARD_1
  6
AUSGEZOGEN
 62
     7
370
    25
100
AcDbLine
 10
-7.867565
 20
-3.023106
 30
0.0
 11
-7.252673
 21
-3.023106
 31
0.0
  0
LINE
  5
28B
330
1F
100
AcDbEntity
  8
XR$1$STANDARD_1
  6
AUSGEZOGEN
 62
     7
370
    25
100
AcDbLine
 10
-7.252673
 20
-3.023106
 30
0.0
 11
-6.773031
 21
-2.614432
 31
0.0
  0
MTEXT
  5
28C
330
1F
100
AcDbEntity
  8
XR$1$STANDARD_1
  6
AUSGEZOGEN
 62
     7
370
    25
100
AcDbMText
 10
-7.265938
 20
-2.967635
 30
0.0
 40
0.125
 41
0.670055
 46
0.0
 71
     9
 72
     5
  1
{\fCalibri|i0|b0;\H0.125000;\W1.000000;\C7;r=27cm}\P
  7
CALIBRI
 73
     1
 44
1.0
  0
MTEXT
  5
28D
330
1F
100
AcDbEntity
  8
XR$1$STANDARD_1
  6
AUSGEZOGEN
 62
     7
370
    35
100
AcDbMText
 10
-6.194047
 20
-0.966679
 30
0.0
 40
0.2
 41
1.629635
 46
0.0
 71
     5
 72
     5
  1
{\L\fCalibri|i0|b0;\H0.200000;\W1.000000;\C7;Schnitt A--A\l}\P
  7
CALIBRI
 73
     1
 44
1.0
  0
DIMENSION
  5
298
330
1F
100
AcDbEntity
  8
XR$1$STANDARD_1
  6
AUSGEZOGEN
 62
    94
370
    25
100
AcDbDimension
280
     0
  2
*D24
 10
-5.544128
 20
-1.608882
 30
0.0
 11
-6.190994
 21
-1.491679
 31
0.0
 70
   160
  1
<>
 71
     5
 42
-1.0
 73
     0
 74
     0
 75
     0
  3
DIMSTYLE_8
100
AcDbAlignedDimension
 13
-6.843966
 23
-2.432022
 33
0.0
 14
-5.544128
 24
-2.424607
 34
0.0
100
AcDbRotatedDimension
1001
ACAD
1000
DSTYLE
1002
{
1070
     3
1000
<>
1070
   372
1070
    25
1070
   371
1070
     0
1070
   178
1070
    94
1070
   177
1070
    94
1070
   176
1070
    94
1002
}
1001
NEM_ODX
1000
MASSLINIE
1002
{
1000
UTF_TYPE
1070
     6
1000
ODXVALUES
1070
     3
1070
     2
1070
   499
1040
0.1
1002
}
  0
LINE
  5
299
330
1F
100
AcDbEntity
  8
XR$1$STANDARD_1
  6
AUSGEZOGEN
 62
     7
370
    25
100
AcDbLine
 10
-6.573966
 20
-2.712023
 30
0.0
 11
-7.242349
 21
-2.712023
 31
0.0
  0
INSERT
  5
2C2
330
1F
100
AcDbEntity
  8
XR$1$STANDARD_1
  6
AUSGEZOGEN
 62
     7
370
    25
100
AcDbBlockReference
  2
MUSTERELEMENT_8
 10
0.0
 20
0.0
 30
0.0
  0
LINE
  5
2C3
330
1F
100
AcDbEntity
  8
XR$1$STANDARD_1
  6
AUSGEZOGEN
 62
     7
370
    25
100
AcDbLine
 10
-4.820781
 20
-2.712023
 30
0.0
 11
-5.252636
 21
-2.712023
 31
0.0
  0
INSERT
  5
2DF
330
1F
100
AcDbEntity
  8
XR$1$STANDARD_1
  6
AUSGEZOGEN
 62
     7
370
    25
100
AcDbBlockReference
  2
MUSTERELEMENT_9
 10
0.0
 20
0.0
 30
0.0
  0
LINE
  5
2E0
330
1F
100
AcDbEntity
  8
XR$1$STANDARD_1
  6
STRICHPUNKT2_S5
 62
     7
370
    25
100
AcDbLine
 10
-13.982744
 20
1.079371
 30
0.0
 11
-4.043559
 21
1.079371
 31
0.0
  0
MTEXT
  5
2E1
330
1F
100
AcDbEntity
  8
XR$1$STANDARD_1
  6
AUSGEZOGEN
 62
     7
370
    50
100
AcDbMText
 10
-11.521161
 20
7.10668
 30
0.0
 40
0.25
 41
4.412253
 46
0.0
 71
     5
 72
     5
  1
{\fCalibri|i0|b0;\H0.250000;\W1.000000;\C7;Nova - gebogenes Element}\P
  7
CALIBRI
 73
     1
 44
1.0
  0
MTEXT
  5
2E2
330
1F
100
AcDbEntity
  8
XR$1$STANDARD_1
  6
AUSGEZOGEN
 62
     7
370
    50
100
AcDbMText
 10
-11.537974
 20
-0.002718
 30
0.0
 40
0.25
 41
3.937059
 46
0.0
 71
     5
 72
     5
  1
{\fCalibri|i0|b0;\H0.250000;\W1.000000;\C7;Nova - gerades Element}\P
  7
CALIBRI
 73
     1
 44
1.0
  0
INSERT
  5
2E3
330
1F
100
AcDbEntity
  8
XR$1$STANDARD_1
  6
AUSGEZOGEN
 62
     7
370
    35
100
AcDbBlockReference
  2
NSY202
 10
-11.373529
 20
5.602183
 30
0.0
 41
3.0
 42
3.0
 43
3.0
 50
90.0
  0
MTEXT
  5
2E4
330
1F
100
AcDbEntity
  8
XR$1$STANDARD_1
  6
AUSGEZOGEN
 62
     7
370
    35
100
AcDbMText
 10
-11.198529
 20
5.602183
 30
0.0
 40
0.175
 41
0.241764
 46
0.0
 71
     5
 72
     5
  1
{\fCalibri|i0|b0;\H0.175000;\W1.000000;\C7;A}\P
  7
CALIBRI
 11
-1.836970198721030E-16
 21
-1.0
 31
0.0
 73
     1
 44
1.0
  0
INSERT
  5
2E5
330
1F
100
AcDbEntity
  8
XR$1$STANDARD_1
  6
AUSGEZOGEN
 62
     7
370
    35
100
AcDbBlockReference
  2
NSY202
 10
-11.373529
 20
3.841791
 30
0.0
 41
3.0
 42
3.0
 43
3.0
 50
90.0
  0
MTEXT
  5
2E6
330
1F
100
AcDbEntity
  8
XR$1$STANDARD_1
  6
AUSGEZOGEN
 62
     7
370
    35
100
AcDbMText
 10
-11.198529
 20
3.841791
 30
0.0
 40
0.175
 41
0.241764
 46
0.0
 71
     5
 72
     5
  1
{\fCalibri|i0|b0;\H0.175000;\W1.000000;\C7;A}\P
  7
CALIBRI
 11
-1.836970198721030E-16
 21
-1.0
 31
0.0
 73
     1
 44
1.0
  0
LINE
  5
2E7
330
1F
100
AcDbEntity
  8
XR$1$STANDARD_1
  6
STRICHPUNKT2_S5
 62
     7
370
    35
100
AcDbLine
 10
-11.523529
 20
5.692183
 30
0.0
 11
-11.523529
 21
3.841791
 31
0.0
  0
LINE
  5
2E8
330
1F
100
AcDbEntity
  8
XR$1$STANDARD_1
  6
STRICHPUNKT2_S5
 62
     7
370
    35
100
AcDbLine
 10
-11.523529
 20
3.841791
 30
0.0
 11
-11.523529
 21
3.751791
 31
0.0
  0
INSERT
  5
2E9
330
1F
100
AcDbEntity
  8
XR$1$STANDARD_1
  6
AUSGEZOGEN
 62
     7
370
    35
100
AcDbBlockReference
  2
NSY202
 10
-12.136971
 20
-1.509416
 30
0.0
 41
3.0
 42
3.0
 43
3.0
 50
90.0
  0
MTEXT
  5
2EA
330
1F
100
AcDbEntity
  8
XR$1$STANDARD_1
  6
AUSGEZOGEN
 62
     7
370
    35
100
AcDbMText
 10
-11.961971
 20
-1.509416
 30
0.0
 40
0.175
 41
0.241764
 46
0.0
 71
     5
 72
     5
  1
{\fCalibri|i0|b0;\H0.175000;\W1.000000;\C7;A}\P
  7
CALIBRI
 11
-1.836970198721030E-16
 21
-1.0
 31
0.0
 73
     1
 44
1.0
  0
INSERT
  5
2EB
330
1F
100
AcDbEntity
  8
XR$1$STANDARD_1
  6
AUSGEZOGEN
 62
     7
370
    35
100
AcDbBlockReference
  2
NSY202
 10
-12.136971
 20
-3.269809
 30
0.0
 41
3.0
 42
3.0
 43
3.0
 50
90.0
  0
MTEXT
  5
2EC
330
1F
100
AcDbEntity
  8
XR$1$STANDARD_1
  6
AUSGEZOGEN
 62
     7
370
    35
100
AcDbMText
 10
-11.961971
 20
-3.269809
 30
0.0
 40
0.175
 41
0.241764
 46
0.0
 71
     5
 72
     5
  1
{\fCalibri|i0|b0;\H0.175000;\W1.000000;\C7;A}\P
  7
CALIBRI
 11
-1.836970198721030E-16
 21
-1.0
 31
0.0
 73
     1
 44
1.0
  0
LINE
  5
2ED
330
1F
100
AcDbEntity
  8
XR$1$STANDARD_1
  6
STRICHPUNKT2_S5
 62
     7
370
    35
100
AcDbLine
 10
-12.286971
 20
-1.419416
 30
0.0
 11
-12.286971
 21
-3.269809
 31
0.0
  0
LINE
  5
2EE
330
1F
100
AcDbEntity
  8
XR$1$STANDARD_1
  6
STRICHPUNKT2_S5
 62
     7
370
    35
100
AcDbLine
 10
-12.286971
 20
-3.269809
 30
0.0
 11
-12.286971
 21
-3.359809
 31
0.0
  0
VIEWPORT
  5
72
330
6E
100
AcDbEntity
 67
     1
  8
0
100
AcDbViewport
 10
0.202366
 20
-0.245417
 30
0.0
 40
0.42
 41
0.297
 68
     1
 69
     1
 12
0.202366
 22
-0.245417
 13
0.0
 23
0.0
 14
0.5
 24
0.5
 15
0.5
 25
0.5
 16
0.0
 26
0.0
 36
1.0
 17
0.0
 27
0.0
 37
0.0
 42
50.0
 43
0.0
 44
0.0
 45
0.297
 50
0.0
 51
0.0
 72
   100
 90
   557152
  1

281
     0
 71
     1
 74
     0
110
0.0
120
0.0
130
0.0
111
1.0
121
0.0
131
0.0
112
0.0
122
1.0
132
0.0
 79
     0
146
0.0
170
     0
 61
     5
292
     1
282
     1
141
0.0
142
0.0
 63
   256
361
73
  0
LWPOLYLINE
  5
7C
330
6E
100
AcDbEntity
 67
     1
  8
STANDARD
  6
AUSGEZOGEN
 62
     7
370
    25
100
AcDbPolyline
 90
        5
 70
     1
 43
0.0
 10
-0.007634
 20
-0.393917
 10
0.412366
 20
-0.393917
 10
0.412366
 20
-0.096917
 10
-0.007634
 20
-0.096917
 10
-0.007634
 20
-0.393917
  0
LINE
  5
7D
330
6E
100
AcDbEntity
 67
     1
  8
STANDARD
  6
PUNKT2_S9
 62
     7
370
    18
100
AcDbLine
 10
0.202366
 20
-0.096917
 30
0.0
 11
0.412366
 21
-0.096917
 31
0.0
  0
LINE
  5
7E
330
6E
100
AcDbEntity
 67
     1
  8
STANDARD
  6
AUSGEZOGEN
 62
     7
370
    13
100
AcDbLine
 10
0.407366
 20
-0.253588
 30
0.0
 11
0.407366
 21
-0.255083
 31
0.0
  0
LINE
  5
7F
330
6E
100
AcDbEntity
 67
     1
  8
STANDARD
  6
AUSGEZOGEN
 62
     7
370
    25
100
AcDbLine
 10
0.307366
 20
-0.255083
 30
0.0
 11
0.407366
 21
-0.255083
 31
0.0
  0
LINE
  5
80
330
6E
100
AcDbEntity
 67
     1
  8
STANDARD
  6
AUSGEZOGEN
 62
     7
370
    25
100
AcDbLine
 10
0.407366
 20
-0.255083
 30
0.0
 11
0.407366
 21
-0.388917
 31
0.0
  0
LINE
  5
81
330
6E
100
AcDbEntity
 67
     1
  8
STANDARD
  6
AUSGEZOGEN
 62
     7
370
    25
100
AcDbLine
 10
0.407366
 20
-0.388917
 30
0.0
 11
0.307366
 21
-0.388917
 31
0.0
  0
LINE
  5
82
330
6E
100
AcDbEntity
 67
     1
  8
STANDARD
  6
AUSGEZOGEN
 62
     7
370
    25
100
AcDbLine
 10
0.307366
 20
-0.388917
 30
0.0
 11
0.307366
 21
-0.255083
 31
0.0
  0
HATCH
  5
83
330
6E
100
AcDbEntity
 67
     1
  8
STANDARD
  6
AUSGEZOGEN
 62
    30
370
    25
100
AcDbHatch
 10
0.0
 20
0.0
 30
0.0
210
0.0
220
0.0
230
1.0
  2
SOLID
 70
     1
 71
     0
 91
        1
 92
        3
 72
     0
 73
     1
 93
       90
 10
0.3713917861374326
 20
-0.2603366118597391
 10
0.3713917861374326
 20
-0.2581908188338087
 10
0.3706258066258716
 20
-0.258227544886768
 10
0.3698657603788598
 20
-0.2583295405607031
 10
0.3691171988243674
 20
-0.2584960608724788
 10
0.3683855895054124
 20
-0.2587258895467427
 10
0.3676762761447611
 20
-0.2590173478996834
 10
0.3669944396140319
 20
-0.2593683071002484
 10
0.3663450600922641
 20
-0.2597762037192657
 10
0.36573288069036
 20
-0.2602380584528986
 10
0.3651623728070839
 20
-0.2607504978836795
 10
0.364637703469689
 20
-0.2613097791201721
 10
0.3641627048976501
 20
-0.261911817135301
 10
0.3637408465119039
 20
-0.2625522146036527
 10
0.3633752095939491
 20
-0.2632262940198385
 10
0.363068464779975
 20
-0.2639291318632982
 10
0.3628228525543588
 20
-0.2646555945600177
 10
0.3626401668850104
 20
-0.2654003759784967
 10
0.3625217421201177
 20
-0.266158036186081
 10
0.3624684432419864
 20
-0.2669230411825919
 10
0.3624806595491405
 20
-0.2676898033210267
 10
0.3625583018128631
 20
-0.268452722120101
 10
0.3627008029289379
 20
-0.2692062251705364
 10
0.3629071220598004
 20
-0.2699448088363027
 10
0.3631757522369
 20
-0.2706630784535408
 10
0.3635047313676861
 20
-0.2713557877335465
 10
0.3638916565668671
 20
-0.2720178770819983
 10
0.3643337017072432
 20
-0.2726445105545869
 10
0.3648276380619219
 20
-0.2732311111790537
 10
0.3653698578871564
 20
-0.2737733943857069
 10
0.3659564007735477
 20
-0.2742673993022028
 10
0.366582982573124
 20
-0.2747095176840152
 10
0.3672450266910527
 20
-0.2750965202692936
 10
0.3679376975133893
 20
-0.2754255803656037
 10
0.3686559357267098
 20
-0.2756942944962751
 10
0.369394495271686
 20
-0.2759006999555562
 10
0.3701479816606399
 20
-0.2760432891443464
 10
0.3709108913792358
 20
-0.2761210205817946
 10
0.3716776520845216
 20
-0.2761333265123507
 10
0.372442663305682
 20
-0.2760801170526851
 10
0.3732003373502449
 20
-0.2759617808482034
 10
0.373945140116968
 20
-0.2757791822343578
 10
0.3746716315172681
 20
-0.2755336549234786
 10
0.3753745052099913
 20
-0.2752269922632553
 10
0.3760486273592789
 20
-0.2748614341380042
 10
0.3766890741324461
 20
-0.2744396506084098
 10
0.3756088778842387
 20
-0.2725686958243702
 10
0.3751281541114078
 20
-0.2729076341701306
 10
0.3746200402423234
 20
-0.2732039361175392
 10
0.3740883078751878
 20
-0.2734554022936608
 10
0.3735369039222179
 20
-0.2736601661299268
 10
0.3729699213127402
 20
-0.2738167077171919
 10
0.3723915686124329
 20
-0.2739238650876313
 10
0.3718061387842216
 20
-0.273980842839719
 10
0.3712179773227305
 20
-0.2739872180422975
 10
0.3706314499987899
 20
-0.2739429433738836
 10
0.3700509104534475
 20
-0.2738483474739208
 10
0.3694806678820247
 20
-0.2737041325033764
 10
0.3689249550480518
 20
-0.2735113689327812
 10
0.3683878968645628
 20
-0.2732714875964047
 10
0.3678734797759449
 20
-0.2729862690715348
 10
0.3673855221675641
 20
-0.27265783046172
 10
0.3669276460228986
 20
-0.2722886096820518
 10
0.3665032500384747
 20
-0.2718813473631484
 10
0.3661154843962259
 20
-0.2714390665081652
 10
0.365767227380507
 20
-0.2709650500538161
 10
0.3654610640133184
 20
-0.2704628165019837
 10
0.3651992668663758
 20
-0.2699360938027909
 10
0.364983779192375
 20
-0.2693887916829823
 10
0.3648162005007458
 20
-0.2688249726250357
 10
0.3646977746848935
 20
-0.2682488217123986
 10
0.3646293807891026
 20
-0.2676646155646984
 10
0.364611526483624
 20
-0.267076690593491
 10
0.3646443442963611
 20
-0.266489410814204
 10
0.3647275906291576
 20
-0.2659071354531679
 10
0.3648606475659516
 20
-0.2653341865902111
 10
0.3650425274594205
 20
-0.2647748170769695
 10
0.3652718802620262
 20
-0.2642331789690685
 10
0.3655470035470672
 20
-0.2637132927064876
 10
0.3658658551453583
 20
-0.2632190172708646
 10
0.366226068303722
 20
-0.2627540215412772
 10
0.3666249692527882
 20
-0.2623217570610956
 10
0.3670595970536953
 20
-0.2619254324180689
 10
0.3675267255763784
 20
-0.2615679894278018
 10
0.3680228874462876
 20
-0.2612520812974234
 10
0.3685443997818371
 20
-0.2609800529315047
 10
0.36908739153146
 20
-0.2607539235264461
 10
0.369647832207451
 20
-0.2605753715824995
 10
0.3702215618032184
 20
-0.2604457224446943
 10
0.3708043216719465
 20
-0.2603659384651395
 97
        0
 75
     0
 76
     1
 98
        0
  0
HATCH
  5
84
330
6E
100
AcDbEntity
 67
     1
  8
STANDARD
  6
AUSGEZOGEN
 62
   250
370
    25
100
AcDbHatch
 10
0.0
 20
0.0
 30
0.0
210
0.0
220
0.0
230
1.0
  2
SOLID
 70
     1
 71
     0
 91
        2
 92
        3
 72
     0
 73
     1
 93
       39
 10
0.3684272758191022
 20
-0.2712593049881615
 10
0.3705205330829942
 20
-0.2712593049881615
 10
0.3705205330829942
 20
-0.2682250851102641
 10
0.3711674470653458
 20
-0.2682250851102641
 10
0.3725671033316018
 20
-0.2712593049881615
 10
0.3749546418312922
 20
-0.2712593049881615
 10
0.3731316252579155
 20
-0.2678866636499405
 10
0.3733251870538226
 20
-0.2677825561150791
 10
0.3735089920847408
 20
-0.2676620560808086
 10
0.3736816556319157
 20
-0.267526071349581
 10
0.3738418769123861
 20
-0.2673756263797947
 10
0.3739884488786048
 20
-0.2672118545679083
 10
0.3741202673118834
 20
-0.2670359897098546
 10
0.3742363391411574
 20
-0.2668493567060781
 10
0.3743357899244307
 20
-0.2666533615802295
 10
0.3744178704364818
 20
-0.2664494808867069
 10
0.3744819623132545
 20
-0.2662392505868403
 10
0.3745275827103811
 20
-0.2660242544775366
 10
0.3745543879407539
 20
-0.2658061122595355
 10
0.3745621760637365
 20
-0.2655864673351904
 10
0.3745508884065049
 20
-0.265366974427688
 10
0.374520610006072
 20
-0.2651492871149729
 10
0.3744715689686465
 20
-0.2649350453723129
 10
0.3744041347511681
 20
-0.2647258632173302
 10
0.3743188153779594
 20
-0.264523316550596
 10
0.3742162536134471
 20
-0.2643289312833809
 10
0.37409722211983
 20
-0.2641441718420059
 10
0.3739626176361182
 20
-0.2639704301353989
 10
0.3738134542224417
 20
-0.2638090150689705
 10
0.3736508556204887
 20
-0.2636611426838107
 10
0.3734760467876671
 20
-0.2635279269954812
 10
0.3732903446687166
 20
-0.2634103716014414
 10
0.3730951482743523
 20
-0.2633093621203187
 10
0.3728919281416223
 20
-0.2632256595199818
 10
0.3726822152554406
 20
-0.2631598943846967
 10
0.3724675895147072
 20
-0.2631125621645378
 10
0.3722496678299482
 20
-0.2630840194428514
 10
0.3720300919421003
 20
-0.2630744812498902
 10
0.3684272758191022
 20
-0.2630744812498902
 97
        0
 92
       18
 72
     0
 73
     1
 93
       39
 10
0.3716887983268467
 20
-0.2648804930902762
 10
0.3717596603029503
 20
-0.2648835869909689
 10
0.3718299829766241
 20
-0.2648928451465953
 10
0.3718992311498652
 20
-0.2649081970970006
 10
0.3719668778022611
 20
-0.2649295260045727
 10
0.3720324081019384
 20
-0.2649566695434461
 10
0.3720953233237511
 20
-0.2649894211349005
 10
0.3721551446448719
 20
-0.2650275315195471
 10
0.372211416788923
 20
-0.2650707106543499
 10
0.3722637114909143
 20
-0.2651186299200189
 10
0.3723116307565839
 20
-0.2651709246220095
 10
0.3723548098913854
 20
-0.2652271967660612
 10
0.3723929202760334
 20
-0.2652870180871806
 10
0.3724256718674857
 20
-0.2653499333089934
 10
0.3724528154063597
 20
-0.2654154636086722
 10
0.3724741443139311
 20
-0.2654831102610664
 10
0.3724894962643358
 20
-0.2655523584343083
 10
0.3724987544199636
 20
-0.265622681107984
 10
0.3725018483206569
 20
-0.2656935430840857
 10
0.3724987544199636
 20
-0.2657644050601865
 10
0.3724894962643358
 20
-0.2658347277338622
 10
0.3724741443139311
 20
-0.2659039759071042
 10
0.3724528154063597
 20
-0.2659716225594997
 10
0.3724256718674857
 20
-0.2660371528591781
 10
0.3723929202760334
 20
-0.2661000680809899
 10
0.3723548098913854
 20
-0.2661598894021101
 10
0.3723116307565839
 20
-0.2662161615461625
 10
0.3722637114909143
 20
-0.2662684562481514
 10
0.372211416788923
 20
-0.2663163755138206
 10
0.3721551446448719
 20
-0.2663595546486234
 10
0.3720953233237511
 20
-0.2663976650332714
 10
0.3720324081019384
 20
-0.2664304166247251
 10
0.3719668778022611
 20
-0.2664575601635978
 10
0.3718992311498652
 20
-0.2664788890711701
 10
0.3718299829766241
 20
-0.2664942410215753
 10
0.3717596603029503
 20
-0.2665034991772017
 10
0.3716887983268467
 20
-0.266506593077895
 10
0.3705205330829942
 20
-0.266506593077895
 10
0.3705205330829942
 20
-0.2648804930902762
 97
        0
 75
     0
 76
     1
 98
        0
  0
HATCH
  5
85
330
6E
100
AcDbEntity
 67
     1
  8
STANDARD
  6
AUSGEZOGEN
 62
   250
370
    25
100
AcDbHatch
 10
0.0
 20
0.0
 30
0.0
210
0.0
220
0.0
230
1.0
  2
SOLID
 70
     1
 71
     0
 91
        1
 92
        3
 72
     0
 73
     1
 93
      147
 10
0.3792221274963687
 20
-0.2638394118547698
 10
0.3795378507681013
 20
-0.2638394118547698
 10
0.3795333820941156
 20
-0.263777294346863
 10
0.3795236155664962
 20
-0.2637157868776095
 10
0.3795086227980661
 20
-0.2636553404490095
 10
0.3794885137229281
 20
-0.2635963982830082
 10
0.3794634357903839
 20
-0.2635393925715854
 10
0.379433572883749
 20
-0.2634847413077108
 10
0.3793991439720527
 20
-0.2634328452204299
 10
0.3793604015044403
 20
-0.2633840848365202
 10
0.3793176295590975
 20
-0.2633388176902953
 10
0.3792711417602606
 20
-0.2632973757019864
 10
0.3792212789785668
 20
-0.2632600627439509
 10
0.3791684068316301
 20
-0.2632271524125319
 10
0.3791129130031646
 20
-0.2631988860219243
 10
0.3790552044003005
 20
-0.2631754708347372
 10
0.3789957041699392
 20
-0.263157078542254
 10
0.3789348485960555
 20
-0.2631438440055052
 10
0.3788730839006415
 20
-0.2631358642664057
 10
0.3788108629718023
 20
-0.2631331978361938
 10
0.3785897682948577
 20
-0.2631331978361938
 10
0.3785261657763175
 20
-0.2631359747821251
 10
0.3784630473113494
 20
-0.2631442844856823
 10
0.378400893269578
 20
-0.2631580637050046
 10
0.3783401766807957
 20
-0.2631772075719122
 10
0.3782813596349071
 20
-0.2632015703900189
 10
0.3782248897651401
 20
-0.2632309667435678
 10
0.3781711968413046
 20
-0.2632651729085598
 10
0.3781206894989702
 20
-0.2633039285554231
 10
0.3780737521295111
 20
-0.2633469387302851
 10
0.3780307419546499
 20
-0.263393876099744
 10
0.377991986307785
 20
-0.2634443834420784
 10
0.377957780142796
 20
-0.2634980763659135
 10
0.3779283837892448
 20
-0.2635545462356798
 10
0.377904020971139
 20
-0.2636133632815705
 10
0.3778848771042314
 20
-0.2636740798703519
 10
0.3778710978849082
 20
-0.2637362339121215
 10
0.377862788181351
 20
-0.2637993523770916
 10
0.3778600112354212
 20
-0.2638629548956323
 10
0.3778600112354212
 20
-0.2648303642367745
 10
0.377862788181351
 20
-0.2648939667553153
 10
0.3778710978849082
 20
-0.2649570852202854
 10
0.3778848771042314
 20
-0.2650192392620551
 10
0.377904020971139
 20
-0.2650799558508369
 10
0.3779283837892448
 20
-0.2651387728967278
 10
0.377957780142796
 20
-0.2651952427664941
 10
0.377991986307785
 20
-0.2652489356903299
 10
0.3780307419546499
 20
-0.2652994430326629
 10
0.3780737521295111
 20
-0.2653463804021234
 10
0.3781206894989702
 20
-0.2653893905769845
 10
0.3781711968413046
 20
-0.2654281462238481
 10
0.3782248897651401
 20
-0.2654623523888391
 10
0.3782813596349071
 20
-0.265491748742389
 10
0.3783401766807957
 20
-0.2655161115604955
 10
0.378400893269578
 20
-0.2655352554274031
 10
0.3784630473113494
 20
-0.2655490346467244
 10
0.3785261657763175
 20
-0.2655573443502816
 10
0.3785897682948577
 20
-0.2655601212962132
 10
0.3788108629718023
 20
-0.2655601212962132
 10
0.3788730839006415
 20
-0.2655574548660019
 10
0.3789348485960555
 20
-0.2655494751269017
 10
0.3789957041699392
 20
-0.2655362405901543
 10
0.3790552044003005
 20
-0.2655178482976704
 10
0.3791129130031646
 20
-0.2654944331104833
 10
0.3791684068316301
 20
-0.2654661667198751
 10
0.3792212789785668
 20
-0.2654332563884576
 10
0.3792711417602606
 20
-0.2653959434304212
 10
0.3793176295590975
 20
-0.2653545014421126
 10
0.3793604015044403
 20
-0.2653092342958865
 10
0.3793991439720527
 20
-0.2652604739119787
 10
0.379433572883749
 20
-0.2652085778246978
 10
0.3794634357903839
 20
-0.2651539265608229
 10
0.3794885137229281
 20
-0.2650969208493988
 10
0.3795086227980661
 20
-0.2650379786833981
 10
0.3795236155664962
 20
-0.2649775322547981
 10
0.3795333820941156
 20
-0.2649160247855447
 10
0.3795378507681013
 20
-0.2648539072776381
 10
0.3795378507681013
 20
-0.2647855063930205
 10
0.3792364343675723
 20
-0.2647855063930205
 10
0.3792281608005807
 20
-0.2648301865662835
 10
0.3792160908512536
 20
-0.2648739939414266
 10
0.3792003132234187
 20
-0.2649166065716362
 10
0.3791809438691658
 20
-0.2649577112904584
 10
0.3791581251367196
 20
-0.2649970060132995
 10
0.3791320247242801
 20
-0.265034201957489
 10
0.3791028344476023
 20
-0.2650690257645896
 10
0.3790707688302979
 20
-0.2651012215093477
 10
0.3790360635272831
 20
-0.2651305525805218
 10
0.3789989735929088
 20
-0.2651568034197773
 10
0.3789597716065283
 20
-0.2651797811058563
 10
0.3789187456692804
 20
-0.2651993167723791
 10
0.3788761972867816
 20
-0.2652152668488756
 10
0.3788324391533178
 20
-0.2652275141158972
 10
0.3787877928538211
 20
-0.2652359685664868
 10
0.3787425865004774
 20
-0.2652405680676506
 10
0.3786971523213939
 20
-0.2652412788169798
 10
0.3786518242190015
 20
-0.2652380955910756
 10
0.3786069353161603
 20
-0.2652310417839295
 10
0.3785628155079854
 20
-0.2652201692350015
 10
0.3785197890374035
 20
-0.2652055578482478
 10
0.3784781721122453
 20
-0.2651873150048863
 10
0.3784382705813824
 20
-0.2651655747742431
 10
0.378400377687006
 20
-0.2651404969284544
 10
0.3783647719095417
 20
-0.2651122657682792
 10
0.3783317149210619
 20
-0.2650810887686456
 10
0.3783014496622078
 20
-0.2650471950538866
 10
0.3782741985568011
 20
-0.2650108337138716
 10
0.3782501618772009
 20
-0.2649722719734112
 10
0.3782295162724828
 20
-0.2649317932283785
 10
0.3782124134702196
 20
-0.2648896949629942
 10
0.3781989791614038
 20
-0.2648462865635742
 10
0.3781893120767423
 20
-0.2648018870447958
 10
0.3781834832610517
 20
-0.2647568227052214
 10
0.3781815355511539
 20
-0.2647114247292783
 10
0.3781815355511539
 20
-0.26398189440313
 10
0.378183538080733
 20
-0.2639358631737135
 10
0.3781895305383638
 20
-0.2638901797559587
 10
0.3781994676450769
 20
-0.2638451893334626
 10
0.3782132743161666
 20
-0.2638012318535556
 10
0.3782308462285119
 20
-0.2637586394586623
 10
0.3782520506088655
 20
-0.2637177339766326
 10
0.3782767272370712
 20
-0.2636788244890141
 10
0.3783046896566867
 20
-0.2636422049956344
 10
0.3783357265838623
 20
-0.26360815219314
 10
0.3783696035037843
 20
-0.2635769233842774
 10
0.3784060644426692
 20
-0.2635487545337195
 10
0.3784448339019115
 20
-0.2635238584851096
 10
0.3784856189397343
 20
-0.2635024233528244
 10
0.378528111384666
 20
-0.2634846111005812
 10
0.3785719901640783
 20
-0.2634705563176366
 10
0.3786169237302059
 20
-0.2634603652018385
 10
0.3786625725653281
 20
-0.2634541147571878
 10
0.3787085917471501
 20
-0.2634518522120019
 10
0.3787546335550429
 20
-0.2634535946620591
 10
0.3788003500974147
 20
-0.2634593289414171
 10
0.3788453959403797
 20
-0.2634690117219001
 10
0.378889430717847
 20
-0.2634825698404824
 10
0.378932121703339
 20
-0.2634999008521121
 10
0.3789731463240493
 20
-0.2635208738037826
 10
0.3790121945982229
 20
-0.2635453302240095
 10
0.3790489714773622
 20
-0.2635730853202471
 10
0.3790831990756111
 20
-0.2636039293751732
 10
0.3791146187694713
 20
-0.2636376293313159
 10
0.3791429931519443
 20
-0.2636739305520326
 10
0.3791681078263847
 20
-0.2637125587455433
 10
0.379189773026484
 20
-0.2637532220374777
 10
0.3792078250501369
 20
-0.2637956131762725
 97
        0
 75
     0
 76
     1
 98
        0
  0
HATCH
  5
86
330
6E
100
AcDbEntity
 67
     1
  8
STANDARD
  6
AUSGEZOGEN
 62
   250
370
    25
100
AcDbHatch
 10
0.0
 20
0.0
 30
0.0
210
0.0
220
0.0
230
1.0
  2
SOLID
 70
     1
 71
     0
 91
        1
 92
        3
 72
     0
 73
     1
 93
       10
 10
0.3859310993900243
 20
-0.2648486307044149
 10
0.3847466279908209
 20
-0.2631331978361938
 10
0.3844528266740068
 20
-0.2631331978361938
 10
0.3844528266740068
 20
-0.2655601212962132
 10
0.3848008120713581
 20
-0.2655601212962132
 10
0.3848008120713581
 20
-0.2637637305572469
 10
0.386041183228701
 20
-0.2655601212962132
 10
0.3862489280239675
 20
-0.2655601212962132
 10
0.3862489280239675
 20
-0.2631331978361938
 10
0.3859310993900243
 20
-0.2631331978361938
 97
        0
 75
     0
 76
     1
 98
        0
  0
HATCH
  5
87
330
6E
100
AcDbEntity
 67
     1
  8
STANDARD
  6
AUSGEZOGEN
 62
   250
370
    25
100
AcDbHatch
 10
0.0
 20
0.0
 30
0.0
210
0.0
220
0.0
230
1.0
  2
SOLID
 70
     1
 71
     0
 91
        1
 92
        3
 72
     0
 73
     1
 93
      147
 10
0.3893042762398582
 20
-0.2638394118547698
 10
0.3896199995115895
 20
-0.2638394118547698
 10
0.3896155308376039
 20
-0.263777294346863
 10
0.3896057643099858
 20
-0.2637157868776095
 10
0.3895907715415559
 20
-0.2636553404490095
 10
0.3895706624664196
 20
-0.2635963982830082
 10
0.3895455845338721
 20
-0.2635393925715854
 10
0.3895157216272388
 20
-0.2634847413077108
 10
0.3894812927155423
 20
-0.2634328452204299
 10
0.3894425502479286
 20
-0.2633840848365202
 10
0.3893997783025885
 20
-0.2633388176902953
 10
0.3893532905037517
 20
-0.2632973757019864
 10
0.3893034277220564
 20
-0.2632600627439509
 10
0.3892505555751201
 20
-0.2632271524125319
 10
0.3891950617466561
 20
-0.2631988860219243
 10
0.3891373531437904
 20
-0.2631754708347372
 10
0.3890778529134301
 20
-0.263157078542254
 10
0.3890169973395438
 20
-0.2631438440055052
 10
0.3889552326441313
 20
-0.2631358642664057
 10
0.3888930117152903
 20
-0.2631331978361938
 10
0.3886719170383505
 20
-0.2631331978361938
 10
0.3886083145198087
 20
-0.2631359747821251
 10
0.3885451960548377
 20
-0.2631442844856823
 10
0.3884830420130689
 20
-0.2631580637050046
 10
0.3884223254242871
 20
-0.2631772075719122
 10
0.3883635083783971
 20
-0.2632015703900189
 10
0.38830703850863
 20
-0.2632309667435678
 10
0.3882533455847944
 20
-0.2632651729085598
 10
0.3882028382424611
 20
-0.2633039285554231
 10
0.3881559008730006
 20
-0.2633469387302851
 10
0.3881128906981395
 20
-0.263393876099744
 10
0.3880741350512759
 20
-0.2634443834420784
 10
0.3880399288862856
 20
-0.2634980763659135
 10
0.3880105325327346
 20
-0.2635545462356798
 10
0.3879861697146286
 20
-0.2636133632815705
 10
0.387967025847721
 20
-0.2636740798703519
 10
0.3879532466283996
 20
-0.2637362339121215
 10
0.3879449369248424
 20
-0.2637993523770916
 10
0.3879421599789108
 20
-0.2638629548956323
 10
0.3879421599789108
 20
-0.2648303642367745
 10
0.3879449369248424
 20
-0.2648939667553153
 10
0.3879532466283996
 20
-0.2649570852202854
 10
0.387967025847721
 20
-0.2650192392620551
 10
0.3879861697146286
 20
-0.2650799558508369
 10
0.3880105325327346
 20
-0.2651387728967278
 10
0.3880399288862856
 20
-0.2651952427664941
 10
0.3880741350512759
 20
-0.2652489356903299
 10
0.3881128906981395
 20
-0.2652994430326629
 10
0.3881559008730006
 20
-0.2653463804021234
 10
0.3882028382424611
 20
-0.2653893905769845
 10
0.3882533455847944
 20
-0.2654281462238481
 10
0.38830703850863
 20
-0.2654623523888391
 10
0.3883635083783971
 20
-0.265491748742389
 10
0.3884223254242871
 20
-0.2655161115604955
 10
0.3884830420130689
 20
-0.2655352554274031
 10
0.3885451960548377
 20
-0.2655490346467244
 10
0.3886083145198087
 20
-0.2655573443502816
 10
0.3886719170383505
 20
-0.2655601212962132
 10
0.3888930117152903
 20
-0.2655601212962132
 10
0.3889552326441313
 20
-0.2655574548660019
 10
0.3890169973395438
 20
-0.2655494751269017
 10
0.3890778529134301
 20
-0.2655362405901543
 10
0.3891373531437904
 20
-0.2655178482976704
 10
0.3891950617466561
 20
-0.2654944331104833
 10
0.3892505555751201
 20
-0.2654661667198751
 10
0.3893034277220564
 20
-0.265433256388456
 10
0.3893532905037517
 20
-0.2653959434304212
 10
0.3893997783025885
 20
-0.2653545014421126
 10
0.3894425502479286
 20
-0.2653092342958865
 10
0.3894812927155423
 20
-0.2652604739119787
 10
0.3895157216272388
 20
-0.2652085778246978
 10
0.3895455845338721
 20
-0.2651539265608229
 10
0.3895706624664196
 20
-0.2650969208493988
 10
0.3895907715415559
 20
-0.2650379786833981
 10
0.3896057643099858
 20
-0.2649775322547981
 10
0.3896155308376039
 20
-0.2649160247855447
 10
0.3896199995115895
 20
-0.2648539072776381
 10
0.3896199995115895
 20
-0.2647855063930205
 10
0.3893185831110605
 20
-0.2647855063930205
 10
0.3893103095440703
 20
-0.2648301865662835
 10
0.3892982395947435
 20
-0.2648739939414266
 10
0.3892824619669069
 20
-0.2649166065716362
 10
0.3892630926126568
 20
-0.2649577112904584
 10
0.3892402738802094
 20
-0.2649970060132995
 10
0.3892141734677713
 20
-0.265034201957489
 10
0.3891849831910919
 20
-0.2650690257645896
 10
0.3891529175737875
 20
-0.2651012215093477
 10
0.3891182122707729
 20
-0.2651305525805218
 10
0.3890811223363968
 20
-0.2651568034197773
 10
0.3890419203500182
 20
-0.2651797811058563
 10
0.3890008944127714
 20
-0.2651993167723791
 10
0.3889583460302712
 20
-0.2652152668488756
 10
0.3889145878968089
 20
-0.2652275141158972
 10
0.3888699415973107
 20
-0.2652359685664868
 10
0.3888247352439672
 20
-0.2652405680676506
 10
0.3887793010648837
 20
-0.2652412788169798
 10
0.3887339729624911
 20
-0.2652380955910756
 10
0.3886890840596499
 20
-0.2652310417839295
 10
0.388644964251475
 20
-0.2652201692350015
 10
0.3886019377808931
 20
-0.2652055578482478
 10
0.3885603208557351
 20
-0.2651873150048863
 10
0.3885204193248722
 20
-0.2651655747742431
 10
0.3884825264304956
 20
-0.2651404969284544
 10
0.3884469206530315
 20
-0.2651122657682792
 10
0.3884138636645518
 20
-0.2650810887686456
 10
0.3883835984056992
 20
-0.2650471950538866
 10
0.3883563473002906
 20
-0.2650108337138716
 10
0.3883323106206905
 20
-0.2649722719734112
 10
0.3883116650159724
 20
-0.2649317932283785
 10
0.3882945622137091
 20
-0.2648896949629942
 10
0.3882811279048953
 20
-0.2648462865635742
 10
0.388271460820232
 20
-0.2648018870447958
 10
0.3882656320045445
 20
-0.2647568227052214
 10
0.3882636842946437
 20
-0.2647114247292783
 10
0.3882636842946437
 20
-0.26398189440313
 10
0.3882656868242212
 20
-0.2639358631737135
 10
0.3882716792818534
 20
-0.2638901797559587
 10
0.3882816163885697
 20
-0.2638451893334626
 10
0.3882954230596564
 20
-0.2638012318535556
 10
0.3883129949720034
 20
-0.2637586394586623
 10
0.3883341993523553
 20
-0.2637177339766326
 10
0.3883588759805608
 20
-0.2636788244890141
 10
0.3883868384001777
 20
-0.2636422049956344
 10
0.3884178753273533
 20
-0.26360815219314
 10
0.388451752247274
 20
-0.2635769233842774
 10
0.3884882131861601
 20
-0.2635487545337195
 10
0.3885269826454011
 20
-0.2635238584851096
 10
0.3885677676832239
 20
-0.2635024233528244
 10
0.3886102601281556
 20
-0.2634846111005812
 10
0.3886541389075679
 20
-0.2634705563176366
 10
0.3886990724736958
 20
-0.2634603652018385
 10
0.3887447213088163
 20
-0.2634541147571878
 10
0.3887907404906397
 20
-0.2634518522120019
 10
0.3888367822985325
 20
-0.2634535946620591
 10
0.3888824988409043
 20
-0.2634593289414171
 10
0.3889275446838695
 20
-0.2634690117219001
 10
0.3889715794613368
 20
-0.2634825698404824
 10
0.3890142704468286
 20
-0.2634999008521121
 10
0.3890552950675388
 20
-0.2635208738037826
 10
0.3890943433417143
 20
-0.2635453302240095
 10
0.3891311202208518
 20
-0.2635730853202471
 10
0.3891653478191025
 20
-0.2636039293751732
 10
0.389196767512961
 20
-0.2636376293313159
 10
0.3892251418954339
 20
-0.2636739305520326
 10
0.3892502565698759
 20
-0.2637125587455433
 10
0.3892719217699752
 20
-0.2637532220374777
 10
0.3892899737936267
 20
-0.2637956131762725
 97
        0
 75
     0
 76
     1
 98
        0
  0
HATCH
  5
88
330
6E
100
AcDbEntity
 67
     1
  8
STANDARD
  6
AUSGEZOGEN
 62
   250
370
    25
100
AcDbHatch
 10
0.0
 20
0.0
 30
0.0
210
0.0
220
0.0
230
1.0
  2
SOLID
 70
     1
 71
     0
 91
        1
 92
        3
 72
     0
 73
     1
 93
       12
 10
0.3949058064308175
 20
-0.2641615031918821
 10
0.3949058064308175
 20
-0.2634203705743982
 10
0.3961030890689746
 20
-0.2634203705743982
 10
0.3961030890689746
 20
-0.2631331978361938
 10
0.3945751463897001
 20
-0.2631331978361938
 10
0.3945751463897001
 20
-0.2655601212962132
 10
0.3961030890689746
 20
-0.2655601212962132
 10
0.3961030890689746
 20
-0.265225002064091
 10
0.394908228432835
 20
-0.265225002064091
 10
0.394908228432835
 20
-0.2644763634542127
 10
0.3959182032743089
 20
-0.2644763634542127
 10
0.3959182032743089
 20
-0.2641615031918821
 97
        0
 75
     0
 76
     1
 98
        0
  0
HATCH
  5
89
330
6E
100
AcDbEntity
 67
     1
  8
STANDARD
  6
AUSGEZOGEN
 62
   250
370
    25
100
AcDbHatch
 10
0.0
 20
0.0
 30
0.0
210
0.0
220
0.0
230
1.0
  2
SOLID
 70
     1
 71
     0
 91
        1
 92
        3
 72
     0
 73
     1
 93
        8
 10
0.3974882959139506
 20
-0.2631331978361938
 10
0.3974882959139506
 20
-0.2634372094315767
 10
0.3981269097272686
 20
-0.2634372094315767
 10
0.3981269097272686
 20
-0.2655601212962132
 10
0.3984371622135437
 20
-0.2655601212962132
 10
0.3984371622135437
 20
-0.2634372094315767
 10
0.3990871956835941
 20
-0.2634372094315767
 10
0.3990871956835941
 20
-0.2631331978361938
 97
        0
 75
     0
 76
     1
 98
        0
  0
HATCH
  5
8A
330
6E
100
AcDbEntity
 67
     1
  8
STANDARD
  6
AUSGEZOGEN
 62
   250
370
    25
100
AcDbHatch
 10
0.0
 20
0.0
 30
0.0
210
0.0
220
0.0
230
1.0
  2
SOLID
 70
     1
 71
     0
 91
        1
 92
        3
 72
     0
 73
     1
 93
       12
 10
0.4009512185037417
 20
-0.263411279488807
 10
0.402128610981859
 20
-0.263411279488807
 10
0.402128610981859
 20
-0.2631331978361938
 10
0.4006512082595465
 20
-0.2631331978361938
 10
0.4006512082595465
 20
-0.2655601212962132
 10
0.402128610981859
 20
-0.2655601212962132
 10
0.402128610981859
 20
-0.2652404965128429
 10
0.4009512185037417
 20
-0.2652404965128429
 10
0.4009512185037417
 20
-0.2644506211047477
 10
0.4019792637508959
 20
-0.2644506211047477
 10
0.4019792637508959
 20
-0.2641745128747047
 10
0.4009512185037417
 20
-0.2641745128747047
 97
        0
 75
     0
 76
     1
 98
        0
  0
HATCH
  5
8B
330
6E
100
AcDbEntity
 67
     1
  8
STANDARD
  6
PUNKT2_S9
 62
   250
370
    25
100
AcDbHatch
 10
0.0
 20
0.0
 30
0.0
210
0.0
220
0.0
230
1.0
  2
SOLID
 70
     1
 71
     0
 91
        2
 92
        3
 72
     0
 73
     1
 93
       76
 10
0.381832668115875
 20
-0.2631331978361938
 10
0.3817706923600441
 20
-0.2631359037561314
 10
0.3817091882771352
 20
-0.263144000922258
 10
0.3816486239503612
 20
-0.263157427710251
 10
0.3815894603108135
 20
-0.263176081934146
 10
0.3815321476295165
 20
-0.2631998216240358
 10
0.3814771220905792
 20
-0.2632284661065443
 10
0.3814248024715781
 20
-0.2632617973798666
 10
0.3813755869564081
 20
-0.2632995617728851
 10
0.3813298501048522
 20
-0.2633414718757662
 10
0.3812879400019711
 20
-0.2633872087273202
 10
0.3812501756089542
 20
-0.2634364242424921
 10
0.3812168443356312
 20
-0.2634887438614918
 10
0.3811881998531204
 20
-0.2635437694004289
 10
0.3811644601632316
 20
-0.2636010820817268
 10
0.3811458059393357
 20
-0.2636602457212738
 10
0.381132379151345
 20
-0.2637208100480501
 10
0.3811242819852168
 20
-0.2637823141309581
 10
0.3811215760652807
 20
-0.2638442898867887
 10
0.3811215760652807
 20
-0.264849029245618
 10
0.3811242819852168
 20
-0.2649110050014505
 10
0.381132379151345
 20
-0.2649725090843578
 10
0.3811458059393357
 20
-0.2650330734111332
 10
0.3811644601632316
 20
-0.2650922370506802
 10
0.3811881998531204
 20
-0.265149549731978
 10
0.3812168443356312
 20
-0.2652045752709158
 10
0.3812501756089542
 20
-0.2652568948899164
 10
0.3812879400019711
 20
-0.2653061104050874
 10
0.3813298501048522
 20
-0.2653518472566424
 10
0.3813755869564081
 20
-0.2653937573595225
 10
0.3814248024715781
 20
-0.2654315217525404
 10
0.3814771220905792
 20
-0.2654648530258627
 10
0.3815321476295165
 20
-0.2654934975083728
 10
0.3815894603108135
 20
-0.2655172371982623
 10
0.3816486239503612
 20
-0.2655358914221573
 10
0.3817091882771352
 20
-0.2655493182101497
 10
0.3817706923600441
 20
-0.2655574153762763
 10
0.381832668115875
 20
-0.2655601212962132
 10
0.3820365840023052
 20
-0.2655601212962132
 10
0.3820985597581358
 20
-0.2655574153762763
 10
0.3821600638410447
 20
-0.2655493182101497
 10
0.3822206281678188
 20
-0.2655358914221573
 10
0.382279791807368
 20
-0.2655172371982623
 10
0.3823371044886636
 20
-0.2654934975083728
 10
0.3823921300276021
 20
-0.2654648530258627
 10
0.3824444496466018
 20
-0.2654315217525404
 10
0.3824936651617737
 20
-0.2653937573595225
 10
0.3825394020133278
 20
-0.2653518472566424
 10
0.3825813121162088
 20
-0.2653061104050874
 10
0.3826190765092257
 20
-0.2652568948899164
 10
0.3826524077825489
 20
-0.2652045752709158
 10
0.3826810522650582
 20
-0.265149549731978
 10
0.3827047919549486
 20
-0.2650922370506802
 10
0.3827234461788429
 20
-0.2650330734111332
 10
0.3827368729668352
 20
-0.2649725090843578
 10
0.3827449701329634
 20
-0.2649110050014505
 10
0.3827476760528995
 20
-0.264849029245618
 10
0.3827476760528995
 20
-0.2638442898867887
 10
0.3827449701329634
 20
-0.2637823141309581
 10
0.3827368729668352
 20
-0.2637208100480501
 10
0.3827234461788429
 20
-0.2636602457212738
 10
0.3827047919549486
 20
-0.2636010820817268
 10
0.3826810522650582
 20
-0.2635437694004289
 10
0.3826524077825489
 20
-0.2634887438614918
 10
0.3826190765092257
 20
-0.2634364242424921
 10
0.3825813121162088
 20
-0.2633872087273202
 10
0.3825394020133278
 20
-0.2633414718757662
 10
0.3824936651617737
 20
-0.2632995617728851
 10
0.3824444496466018
 20
-0.2632617973798666
 10
0.3823921300276021
 20
-0.2632284661065443
 10
0.3823371044886636
 20
-0.2631998216240358
 10
0.382279791807368
 20
-0.263176081934146
 10
0.3822206281678188
 20
-0.263157427710251
 10
0.3821600638410447
 20
-0.263144000922258
 10
0.3820985597581358
 20
-0.2631359037561314
 10
0.3820365840023052
 20
-0.2631331978361938
 97
        0
 92
       18
 72
     0
 73
     1
 93
       74
 10
0.3814054044267558
 20
-0.2639465811897359
 10
0.3814074182748428
 20
-0.2639004564852915
 10
0.3814134444925059
 20
-0.263854682817699
 10
0.3814234372165885
 20
-0.2638096085522074
 10
0.3814373203964252
 20
-0.2637655767311941
 10
0.3814549883726369
 20
-0.2637229224634037
 10
0.3814763066812558
 20
-0.2636819703735683
 10
0.381501113077081
 20
-0.2636430321318216
 10
0.3815292187684619
 20
-0.2636064040816933
 10
0.3815604098541159
 20
-0.2635723649847608
 10
0.3815944489510481
 20
-0.2635411738991078
 10
0.3816310770011757
 20
-0.2635130682077276
 10
0.3816700152429231
 20
-0.2634882618119024
 10
0.3817109673327578
 20
-0.2634669435032835
 10
0.3817536216005484
 20
-0.2634492755270706
 10
0.3817976534215615
 20
-0.2634353923472332
 10
0.3818427276870524
 20
-0.2634253996231515
 10
0.3818885013546466
 20
-0.2634193734054887
 10
0.3819346260590907
 20
-0.2634173595574015
 10
0.3819807507635349
 20
-0.2634193734054887
 10
0.3820265244311278
 20
-0.2634253996231515
 10
0.3820715986966185
 20
-0.2634353923472332
 10
0.3821156305176318
 20
-0.2634492755270706
 10
0.3821582847854221
 20
-0.2634669435032835
 10
0.3821992368752568
 20
-0.2634882618119024
 10
0.3822381751170043
 20
-0.2635130682077276
 10
0.3822748031671332
 20
-0.2635411738991078
 10
0.3823088422640655
 20
-0.2635723649847608
 10
0.3823400333497181
 20
-0.2636064040816933
 10
0.382368139041099
 20
-0.2636430321318216
 10
0.3823929454369241
 20
-0.2636819703735683
 10
0.382414263745543
 20
-0.2637229224634037
 10
0.3824319317217552
 20
-0.2637655767311941
 10
0.3824458149015919
 20
-0.2638096085522074
 10
0.3824558076256741
 20
-0.263854682817699
 10
0.3824618338433371
 20
-0.2639004564852915
 10
0.3824638476914257
 20
-0.2639465811897359
 10
0.3824638476914257
 20
-0.264746737942672
 10
0.3824618338433371
 20
-0.264792862647116
 10
0.3824558076256741
 20
-0.2648386363147087
 10
0.3824458149015919
 20
-0.2648837105802003
 10
0.3824319317217552
 20
-0.2649277424012143
 10
0.382414263745543
 20
-0.2649703966690046
 10
0.3823929454369241
 20
-0.2650113487588386
 10
0.382368139041099
 20
-0.2650502870005854
 10
0.3823400333497181
 20
-0.2650869150507145
 10
0.3823088422640655
 20
-0.2651209541476459
 10
0.3822748031671332
 20
-0.2651521452332998
 10
0.3822381751170043
 20
-0.2651802509246808
 10
0.3821992368752568
 20
-0.2652050573205059
 10
0.3821582847854221
 20
-0.2652263756291249
 10
0.3821156305176318
 20
-0.265244043605337
 10
0.3820715986966185
 20
-0.2652579267851744
 10
0.3820265244311278
 20
-0.2652679195092568
 10
0.3819807507635349
 20
-0.2652739457269189
 10
0.3819346260590907
 20
-0.2652759595750062
 10
0.3818885013546466
 20
-0.2652739457269189
 10
0.3818427276870524
 20
-0.2652679195092568
 10
0.3817976534215615
 20
-0.2652579267851744
 10
0.3817536216005484
 20
-0.265244043605337
 10
0.3817109673327578
 20
-0.2652263756291249
 10
0.3816700152429231
 20
-0.2652050573205059
 10
0.3816310770011757
 20
-0.2651802509246808
 10
0.3815944489510481
 20
-0.2651521452332998
 10
0.3815604098541159
 20
-0.2651209541476459
 10
0.3815292187684619
 20
-0.2650869150507145
 10
0.381501113077081
 20
-0.2650502870005854
 10
0.3814763066812558
 20
-0.2650113487588386
 10
0.3814549883726369
 20
-0.2649703966690046
 10
0.3814373203964252
 20
-0.2649277424012143
 10
0.3814234372165885
 20
-0.2648837105802003
 10
0.3814134444925059
 20
-0.2648386363147087
 10
0.3814074182748428
 20
-0.264792862647116
 10
0.3814054044267558
 20
-0.264746737942672
 97
        0
 75
     0
 76
     1
 98
        0
  0
HATCH
  5
8C
330
6E
100
AcDbEntity
 67
     1
  8
STANDARD
  6
PUNKT2_S9
 62
   250
370
    25
100
AcDbHatch
 10
0.0
 20
0.0
 30
0.0
210
0.0
220
0.0
230
1.0
  2
SOLID
 70
     1
 71
     0
 91
        2
 92
        3
 72
     0
 73
     1
 93
       41
 10
0.3924407360269926
 20
-0.2644544609812619
 10
0.3924961828454258
 20
-0.2644360178005885
 10
0.3925498224347163
 20
-0.2644128381748723
 10
0.3926012510647134
 20
-0.2643850965706587
 10
0.3926500816465319
 20
-0.2643530017912273
 10
0.3926959466460722
 20
-0.2643167954049844
 10
0.3927385008503421
 20
-0.2642767499272521
 10
0.3927774239657666
 20
-0.2642331667691152
 10
0.3928124230289733
 20
-0.2641863739687894
 10
0.3928432346118219
 20
-0.2641367237225657
 10
0.3928696268041637
 20
-0.2640845897339294
 10
0.3928914009593674
 20
-0.2640303644008012
 10
0.3929083931894655
 20
-0.2639744558620629
 10
0.3929204755987095
 20
-0.2639172849256137
 10
0.3929275572461912
 20
-0.2638592819010652
 10
0.3929295848303331
 20
-0.2638008833609278
 10
0.3929265430900788
 20
-0.2637425288546425
 10
0.3929184549197565
 20
-0.2636846576002194
 10
0.3929053811967539
 20
-0.2636277051783692
 10
0.392887420323321
 20
-0.2635721002540085
 10
0.392864707485917
 20
-0.2635182613498144
 10
0.392837413637703
 20
-0.2634665936961297
 10
0.392805744211824
 20
-0.2634174861808989
 10
0.3927699375751683
 20
-0.263371308422625
 10
0.3927302632342577
 20
-0.2633284079883496
 10
0.3926870198067346
 20
-0.2632891077776165
 10
0.3926405327737549
 20
-0.2632537035920969
 10
0.392591152030184
 20
-0.26322246190917
 10
0.3925392492510386
 20
-0.2631956178762247
 10
0.3924852150939897
 20
-0.2631733735407753
 10
0.3924294562589881
 20
-0.2631558963296974
 10
0.3923723924271591
 20
-0.2631433177890602
 10
0.3923144531019669
 20
-0.2631357325940133
 10
0.3922560743764708
 20
-0.2631331978361938
 10
0.3912621696411424
 20
-0.2631331978361938
 10
0.3912621696411424
 20
-0.2655601212962132
 10
0.3915793923015359
 20
-0.2655601212962132
 10
0.3915793923015359
 20
-0.2644802695609538
 10
0.3920678758397756
 20
-0.2644802695609538
 10
0.3926449125436922
 20
-0.2655601212962132
 10
0.3930315639739762
 20
-0.2655601212962132
 97
        0
 92
       18
 72
     0
 73
     1
 93
       39
 10
0.3915793923015359
 20
-0.2634422100923315
 10
0.3922553201984093
 20
-0.2634422100923315
 10
0.3922867934621223
 20
-0.2634435842447018
 10
0.392318027195293
 20
-0.2634476962436819
 10
0.3923487836903547
 20
-0.263454514794479
 10
0.392378828871808
 20
-0.2634639880038027
 10
0.3924079340776804
 20
-0.2634760437748108
 10
0.3924358777997796
 20
-0.2634905903558059
 10
0.3924624473695102
 20
-0.2635075170385232
 10
0.3924874405764009
 20
-0.263526695000687
 10
0.392510667207058
 20
-0.2635479782864251
 10
0.3925319504927953
 20
-0.263571204917081
 10
0.3925511284549606
 20
-0.2635961981239719
 10
0.3925680551376765
 20
-0.2636227676937025
 10
0.392582601718672
 20
-0.2636507114158024
 10
0.3925946574896804
 20
-0.2636798166216742
 10
0.3926041306990029
 20
-0.2637098618031283
 10
0.3926109492498012
 20
-0.2637406182981901
 10
0.3926150612487828
 20
-0.2637718520313614
 10
0.3926164354011513
 20
-0.2638033252950735
 10
0.3926150612487828
 20
-0.2638347985587865
 10
0.3926109492498012
 20
-0.2638660322919585
 10
0.3926041306990029
 20
-0.2638967887870193
 10
0.3925946574896804
 20
-0.2639268339684728
 10
0.392582601718672
 20
-0.2639559391743454
 10
0.3925680551376765
 20
-0.2639838828964451
 10
0.3925511284549606
 20
-0.2640104524661759
 10
0.3925319504927953
 20
-0.264035445673066
 10
0.392510667207058
 20
-0.2640586723037226
 10
0.3924874405764009
 20
-0.2640799555894608
 10
0.3924624473695102
 20
-0.2640991335516247
 10
0.3924358777997796
 20
-0.264116060234342
 10
0.3924079340776804
 20
-0.2641306068153371
 10
0.392378828871808
 20
-0.2641426625863449
 10
0.3923487836903547
 20
-0.2641521357956687
 10
0.392318027195293
 20
-0.2641589543464651
 10
0.3922867934621223
 20
-0.264163066345447
 10
0.3922553201984093
 20
-0.2641644404978168
 10
0.3915793923015359
 20
-0.2641644404978168
 97
        0
 75
     0
 76
     1
 98
        0
  0
HATCH
  5
8D
330
6E
100
AcDbEntity
 67
     1
  8
STANDARD
  6
AUSGEZOGEN
 62
   250
370
    25
100
AcDbHatch
 10
0.0
 20
0.0
 30
0.0
210
0.0
220
0.0
230
1.0
  2
SOLID
 70
     1
 71
     0
 91
        1
 92
        3
 72
     0
 73
     1
 93
       78
 10
0.3822447528092104
 20
-0.2671003702977756
 10
0.3813798162253339
 20
-0.2671003702977756
 10
0.3813798162253339
 20
-0.2697437405330817
 10
0.3813855834056479
 20
-0.2698758306788456
 10
0.3814028410548609
 20
-0.270006915538842
 10
0.3814314578318455
 20
-0.2701359974781366
 10
0.3814712159456514
 20
-0.2702620941052268
 10
0.3815218128130183
 20
-0.2703842457486427
 10
0.3815828633612415
 20
-0.2705015227606208
 10
0.3816539029587844
 20
-0.2706130325922865
 10
0.3817343909514108
 20
-0.2707179265864874
 10
0.3818237147769015
 20
-0.2708154064365935
 10
0.3819211946270081
 20
-0.2709047302620837
 10
0.3820260886212092
 20
-0.2709852182547119
 10
0.3821375984528746
 20
-0.2710562578522535
 10
0.3822548754648527
 20
-0.2711173084004764
 10
0.3823770271082682
 20
-0.2711679052678454
 10
0.3825031237353595
 20
-0.271207663381649
 10
0.3826322056746527
 20
-0.2712362801586336
 10
0.3827632905346492
 20
-0.2712535378078482
 10
0.3828953806804137
 20
-0.2712593049881615
 10
0.3830274708261783
 20
-0.2712535378078482
 10
0.3831585556861763
 20
-0.2712362801586336
 10
0.3832876376254695
 20
-0.271207663381649
 10
0.3834137342525609
 20
-0.2711679052678454
 10
0.3835358858959763
 20
-0.2711173084004764
 10
0.3836531629079542
 20
-0.2710562578522535
 10
0.3837646727396201
 20
-0.2709852182547119
 10
0.3838695667338208
 20
-0.2709047302620837
 10
0.3839670465839259
 20
-0.2708154064365935
 10
0.384056370409418
 20
-0.2707179265864874
 10
0.3841368584020444
 20
-0.2706130325922865
 10
0.3842078979995846
 20
-0.2705015227606208
 10
0.3842689485478091
 20
-0.2703842457486427
 10
0.3843195454151775
 20
-0.2702620941052268
 10
0.3843593035289802
 20
-0.2701359974781366
 10
0.3843879203059665
 20
-0.270006915538842
 10
0.3844051779551811
 20
-0.2698758306788456
 10
0.3844109451354936
 20
-0.2697437405330817
 10
0.3844109451354936
 20
-0.2671003702977756
 10
0.3835678068900475
 20
-0.2671003702977756
 10
0.3835678068900475
 20
-0.2698568337418327
 10
0.3835652895799368
 20
-0.2699144896223887
 10
0.3835577568078589
 20
-0.2699717067068792
 10
0.3835452659027557
 20
-0.2700280495387432
 10
0.38352791192796
 20
-0.2700830893150097
 10
0.3835058269576949
 20
-0.2701364071497484
 10
0.3834791790719201
 20
-0.2701875972620418
 10
0.3834481710771389
 20
-0.2702362700642258
 10
0.3834130389629151
 20
-0.2702820551268866
 10
0.3833740501058475
 20
-0.2703246039980503
 10
0.3833315012346822
 20
-0.2703635928551179
 10
0.3832857161720213
 20
-0.2703987249693436
 10
0.3832370433698362
 20
-0.2704297329641248
 10
0.3831858532575437
 20
-0.2704563808498994
 10
0.3831325354228067
 20
-0.270478465820163
 10
0.3830774956465394
 20
-0.270495819794961
 10
0.3830211528146748
 20
-0.2705083107000636
 10
0.3829639357301841
 20
-0.2705158434721415
 10
0.3829062798496281
 20
-0.2705183607822506
 10
0.3828486239690737
 20
-0.2705158434721415
 10
0.3827914068845817
 20
-0.2705083107000636
 10
0.3827350640527171
 20
-0.270495819794961
 10
0.3826800242764513
 20
-0.270478465820163
 10
0.3826267064417126
 20
-0.2704563808498994
 10
0.3825755163294199
 20
-0.2704297329641248
 10
0.3825268435272366
 20
-0.2703987249693436
 10
0.3824810584645758
 20
-0.2703635928551179
 10
0.3824385095934105
 20
-0.2703246039980503
 10
0.3823995207363443
 20
-0.2702820551268866
 10
0.3823643886221176
 20
-0.2702362700642258
 10
0.382333380627336
 20
-0.2701875972620418
 10
0.382306732741563
 20
-0.2701364071497484
 10
0.3822846477712979
 20
-0.2700830893150097
 10
0.3822672937965009
 20
-0.2700280495387432
 10
0.382254802891399
 20
-0.2699717067068792
 10
0.3822472701193211
 20
-0.2699144896223887
 10
0.3822447528092104
 20
-0.2698568337418327
 97
        0
 75
     0
 76
     1
 98
        0
  0
HATCH
  5
8E
330
6E
100
AcDbEntity
 67
     1
  8
STANDARD
  6
AUSGEZOGEN
 62
   250
370
    25
100
AcDbHatch
 10
0.0
 20
0.0
 30
0.0
210
0.0
220
0.0
230
1.0
  2
SOLID
 70
     1
 71
     0
 91
        1
 92
        3
 72
     0
 73
     1
 93
        6
 10
0.3931014626932539
 20
-0.2704671377718288
 10
0.3931014626932539
 20
-0.2671003702977756
 10
0.3922627827266782
 20
-0.2671003702977756
 10
0.3922627827266782
 20
-0.2712593049881615
 10
0.3949651118671315
 20
-0.2712593049881615
 10
0.3949651118671315
 20
-0.2704671377718288
 97
        0
 75
     0
 76
     1
 98
        0
  0
HATCH
  5
8F
330
6E
100
AcDbEntity
 67
     1
  8
STANDARD
  6
AUSGEZOGEN
 62
   250
370
    25
100
AcDbHatch
 10
0.0
 20
0.0
 30
0.0
210
0.0
220
0.0
230
1.0
  2
SOLID
 70
     1
 71
     0
 91
        1
 92
        3
 72
     0
 73
     1
 93
       12
 10
0.3991777498260136
 20
-0.2671003702977756
 10
0.3991777498260136
 20
-0.2712593049881615
 10
0.3999615720160215
 20
-0.2712593049881615
 10
0.3999615720160215
 20
-0.2695157180592793
 10
0.4013243546760979
 20
-0.2695157180592793
 10
0.4013243546760979
 20
-0.2712593049881615
 10
0.402128610981859
 20
-0.2712593049881615
 10
0.402128610981859
 20
-0.2671003702977756
 10
0.4013243546760979
 20
-0.2671003702977756
 10
0.4013243546760979
 20
-0.2687913644284312
 10
0.3999615720160215
 20
-0.2687913644284312
 10
0.3999615720160215
 20
-0.2671003702977756
 97
        0
 75
     0
 76
     1
 98
        0
  0
HATCH
  5
90
330
6E
100
AcDbEntity
 67
     1
  8
STANDARD
  6
PUNKT2_S9
 62
   250
370
    25
100
AcDbHatch
 10
0.0
 20
0.0
 30
0.0
210
0.0
220
0.0
230
1.0
  2
SOLID
 70
     1
 71
     0
 91
        2
 92
        3
 72
     0
 73
     1
 93
       40
 10
0.385039833242478
 20
-0.2671003702977756
 10
0.385039833242478
 20
-0.2712593049881615
 10
0.3865758208461226
 20
-0.2712593049881615
 10
0.3867028516176875
 20
-0.2712537587048961
 10
0.3868289156083748
 20
-0.2712371620656669
 10
0.3869530533950989
 20
-0.2712096413809164
 10
0.3870743202143455
 20
-0.2711714060996768
 10
0.3871917931524
 20
-0.2711227472155239
 10
0.3873045781692682
 20
-0.2710640350519455
 10
0.3874118169028699
 20
-0.2709957164439605
 10
0.3875126932016943
 20
-0.2709183113374269
 10
0.3876064393361934
 20
-0.2708324088319418
 10
0.3876923418416769
 20
-0.2707386626974425
 10
0.3877697469482115
 20
-0.2706377863986203
 10
0.3878380655561974
 20
-0.2705305476650166
 10
0.387896777719775
 20
-0.2704177626481484
 10
0.3879454366039294
 20
-0.2703002897100954
 10
0.3879836718851681
 20
-0.2701790228908473
 10
0.3880111925699172
 20
-0.2700548851041234
 10
0.3880277892091487
 20
-0.269928821113435
 10
0.3880333354924109
 20
-0.2698017903418726
 10
0.3880333354924109
 20
-0.2684863991288947
 10
0.3880280612342545
 20
-0.2683655987566486
 10
0.388012278600078
 20
-0.2682457177481768
 10
0.3879861077052529
 20
-0.2681276684703399
 10
0.3879497477260926
 20
-0.2680123493494219
 10
0.3879034753839943
 20
-0.2679006380335648
 10
0.3878476428394194
 20
-0.2677933847133355
 10
0.3877826750117482
 20
-0.2676914056512623
 10
0.3877090663453747
 20
-0.2675954769695831
 10
0.3876273770466966
 20
-0.2675063287434904
 10
0.3875382288206039
 20
-0.2674246394448132
 10
0.3874423001389272
 20
-0.2673510307784396
 10
0.3873403210768526
 20
-0.2672860629507676
 10
0.387233067756623
 20
-0.2672302304061944
 10
0.3871213564407666
 20
-0.2671839580640962
 10
0.3870060373198486
 20
-0.2671475980849358
 10
0.3868879880420117
 20
-0.2671214271901107
 10
0.3867681070335385
 20
-0.2671056445559317
 10
0.3866473066612927
 20
-0.2671003702977756
 97
        0
 92
       18
 72
     0
 73
     1
 93
       40
 10
0.3858694082148514
 20
-0.2678142171549192
 10
0.3865816709866959
 20
-0.2678142171549192
 10
0.3866393338304007
 20
-0.2678167347690463
 10
0.3866965578250477
 20
-0.267824268450864
 10
0.3867529074614855
 20
-0.2678367608645043
 10
0.3868079538849521
 20
-0.267854116935155
 10
0.3868612781589315
 20
-0.2678762045726407
 10
0.3869124744534967
 20
-0.2679028556767024
 10
0.3869611531339364
 20
-0.2679338674163467
 10
0.3870069437260987
 20
-0.2679690037735076
 10
0.3870494977359275
 20
-0.268007997339293
 10
0.3870884913017127
 20
-0.2680505513491206
 10
0.387123627658873
 20
-0.2680963419412825
 10
0.3871546393985156
 20
-0.2681450206217213
 10
0.3871812905025775
 20
-0.2681962169162888
 10
0.3872033781400643
 20
-0.2682495411902677
 10
0.3872207342107168
 20
-0.2683045876137357
 10
0.3872332266243549
 20
-0.2683609372501718
 10
0.3872407603061734
 20
-0.2684181612448191
 10
0.3872432779203003
 20
-0.2684758240885252
 10
0.3872432779203003
 20
-0.2698124180584981
 10
0.3872406886815467
 20
-0.2698717213758526
 10
0.3872329406709565
 20
-0.2699305733591549
 10
0.3872200928555714
 20
-0.2699885261092735
 10
0.3872022430150179
 20
-0.2700451385707892
 10
0.3871795269973687
 20
-0.2700999798886863
 10
0.3871521176852258
 20
-0.2701526326874199
 10
0.3871202236800133
 20
-0.2702026962474016
 10
0.387084087714362
 20
-0.2702497895547089
 10
0.3870439848047946
 20
-0.2702935542008384
 10
0.387000220158665
 20
-0.2703336571104052
 10
0.3869531268513598
 20
-0.2703697930760549
 10
0.386903063291377
 20
-0.2704016870812703
 10
0.3868504104926434
 20
-0.2704290963934103
 10
0.3867955691747467
 20
-0.2704518124110618
 10
0.3867389567132306
 20
-0.270469662251613
 10
0.3866810039631111
 20
-0.2704825100669997
 10
0.3866221519798101
 20
-0.2704902580775898
 10
0.3865628486624552
 20
-0.2704928473163426
 10
0.3858694082148514
 20
-0.2704928473163426
 97
        0
 75
     0
 76
     1
 98
        0
  0
HATCH
  5
91
330
6E
100
AcDbEntity
 67
     1
  8
STANDARD
  6
PUNKT2_S9
 62
   250
370
    25
100
AcDbHatch
 10
0.0
 20
0.0
 30
0.0
210
0.0
220
0.0
230
1.0
  2
SOLID
 70
     1
 71
     0
 91
        2
 92
        3
 72
     0
 73
     1
 93
       74
 10
0.3886104097076115
 20
-0.2686089591534766
 10
0.3886104097076115
 20
-0.2697507161324605
 10
0.3886161503436639
 20
-0.2698821983146796
 10
0.3886333285621109
 20
-0.2700126798381017
 10
0.3886618136263388
 20
-0.2701411676595457
 10
0.3887013887478102
 20
-0.2702666839091061
 10
0.3887517527359531
 20
-0.2703882733323379
 10
0.3888125222904101
 20
-0.2705050105603106
 10
0.3888832349181731
 20
-0.2706160071522317
 10
0.3889633524534521
 20
-0.2707204183570155
 10
0.3890522651534239
 20
-0.270817449542349
 10
0.389149296338756
 20
-0.2709063622423208
 10
0.3892537075435413
 20
-0.2709864797775989
 10
0.3893647041354633
 20
-0.271057192405363
 10
0.3894814413634345
 20
-0.2711179619598182
 10
0.3896030307866669
 20
-0.2711683259479622
 10
0.3897285470362282
 20
-0.2712079010694334
 10
0.3898570348576715
 20
-0.2712363861336629
 10
0.3899875163810933
 20
-0.27125356435211
 10
0.3901189985633119
 20
-0.2712593049881615
 10
0.3902504807455304
 20
-0.27125356435211
 10
0.3903809622689524
 20
-0.2712363861336629
 10
0.3905094500903987
 20
-0.2712079010694334
 10
0.3906349663399584
 20
-0.2711683259479622
 10
0.3907565557631907
 20
-0.2711179619598182
 10
0.3908732929911636
 20
-0.271057192405363
 10
0.3909842895830853
 20
-0.2709864797775989
 10
0.3910887007878679
 20
-0.2709063622423208
 10
0.3911857319732013
 20
-0.270817449542349
 10
0.3912746446731732
 20
-0.2707204183570155
 10
0.3913547622084522
 20
-0.2706160071522317
 10
0.391425474836217
 20
-0.2705050105603106
 10
0.3914862443906705
 20
-0.2703882733323379
 10
0.3915366083788137
 20
-0.2702666839091061
 10
0.3915761835002851
 20
-0.2701411676595457
 10
0.3916046685645161
 20
-0.2700126798381017
 10
0.391621846782963
 20
-0.2698821983146796
 10
0.3916275874190138
 20
-0.2697507161324605
 10
0.3916275874190138
 20
-0.2686089591534766
 10
0.391621846782963
 20
-0.2684774769712573
 10
0.3916046685645161
 20
-0.2683469954478359
 10
0.3915761835002851
 20
-0.2682185076263928
 10
0.3915366083788137
 20
-0.2680929913768308
 10
0.3914862443906705
 20
-0.2679714019535992
 10
0.391425474836217
 20
-0.2678546647256263
 10
0.3913547622084522
 20
-0.2677436681337053
 10
0.3912746446731732
 20
-0.2676392569289213
 10
0.3911857319732013
 20
-0.2675422257435879
 10
0.3910887007878679
 20
-0.2674533130436161
 10
0.3909842895830853
 20
-0.267373195508338
 10
0.3908732929911636
 20
-0.2673024828805738
 10
0.3907565557631907
 20
-0.2672417133261187
 10
0.3906349663399584
 20
-0.2671913493379747
 10
0.3905094500903987
 20
-0.2671517742165034
 10
0.3903809622689524
 20
-0.2671232891522753
 10
0.3902504807455304
 20
-0.2671061109338269
 10
0.3901189985633119
 20
-0.2671003702977756
 10
0.3899875163810933
 20
-0.2671061109338269
 10
0.3898570348576715
 20
-0.2671232891522753
 10
0.3897285470362282
 20
-0.2671517742165034
 10
0.3896030307866669
 20
-0.2671913493379747
 10
0.3894814413634345
 20
-0.2672417133261187
 10
0.3893647041354633
 20
-0.2673024828805738
 10
0.3892537075435413
 20
-0.267373195508338
 10
0.389149296338756
 20
-0.2674533130436161
 10
0.3890522651534239
 20
-0.2675422257435879
 10
0.3889633524534521
 20
-0.2676392569289213
 10
0.3888832349181731
 20
-0.2677436681337053
 10
0.3888125222904101
 20
-0.2678546647256263
 10
0.3887517527359531
 20
-0.2679714019535992
 10
0.3887013887478102
 20
-0.2680929913768308
 10
0.3886618136263388
 20
-0.2682185076263928
 10
0.3886333285621109
 20
-0.2683469954478359
 10
0.3886161503436639
 20
-0.2684774769712573
 97
        0
 92
       18
 72
     0
 73
     1
 93
       74
 10
0.3894121234258033
 20
-0.2684878422272021
 10
0.3894147673045778
 20
-0.2684272874476241
 10
0.3894226788193856
 20
-0.2683671935264832
 10
0.3894357977588226
 20
-0.2683080178148049
 10
0.3894540242798397
 20
-0.2682502106754856
 10
0.3894772196676027
 20
-0.2681942120557604
 10
0.3895052073912108
 20
-0.2681404481389389
 10
0.3895377744471804
 20
-0.2680893281008911
 10
0.3895746729805579
 20
-0.2680412409959725
 10
0.3896156221712196
 20
-0.2679965527960911
 10
0.3896603103711028
 20
-0.2679556036054286
 10
0.3897083974760195
 20
-0.267918705072051
 10
0.3897595175140674
 20
-0.2678861380160799
 10
0.3898132814308898
 20
-0.2678581502924743
 10
0.3898692800506143
 20
-0.2678349549047097
 10
0.3899270871899326
 20
-0.2678167283836941
 10
0.389986262901613
 20
-0.2678036094442563
 10
0.3900463568227538
 20
-0.267795697929448
 10
0.3901069116023315
 20
-0.2677930540506739
 10
0.3901674663819086
 20
-0.267795697929448
 10
0.3902275603030511
 20
-0.2678036094442563
 10
0.3902867360147285
 20
-0.2678167283836941
 10
0.3903445431540487
 20
-0.2678349549047097
 10
0.3904005417737732
 20
-0.2678581502924743
 10
0.390454305690594
 20
-0.2678861380160799
 10
0.3905054257286416
 20
-0.267918705072051
 10
0.3905535128335602
 20
-0.2679556036054286
 10
0.3905982010334416
 20
-0.2679965527960911
 10
0.3906391502241051
 20
-0.2680412409959725
 10
0.3906760487574826
 20
-0.2680893281008911
 10
0.3907086158134536
 20
-0.2681404481389389
 10
0.3907366035370597
 20
-0.2681942120557604
 10
0.3907597989248244
 20
-0.2682502106754856
 10
0.3907780254458404
 20
-0.2683080178148049
 10
0.3907911443852773
 20
-0.2683671935264832
 10
0.3907990559000847
 20
-0.2684272874476241
 10
0.3908016997788596
 20
-0.2684878422272021
 10
0.3908016997788596
 20
-0.2698396325379344
 10
0.3907990559000847
 20
-0.2699001873175124
 10
0.3907911443852773
 20
-0.2699602812386532
 10
0.3907780254458404
 20
-0.2700194569503322
 10
0.3907597989248244
 20
-0.2700772640896524
 10
0.3907366035370597
 20
-0.2701332627093774
 10
0.3907086158134536
 20
-0.2701870266261991
 10
0.3906760487574826
 20
-0.2702381466642468
 10
0.3906391502241051
 20
-0.2702862337691637
 10
0.3905982010334416
 20
-0.2703309219690458
 10
0.3905535128335602
 20
-0.2703718711597093
 10
0.3905054257286416
 20
-0.2704087696930855
 10
0.390454305690594
 20
-0.2704413367490573
 10
0.3904005417737732
 20
-0.2704693244726626
 10
0.3903445431540487
 20
-0.2704925198604275
 10
0.3902867360147285
 20
-0.2705107463814432
 10
0.3902275603030511
 20
-0.2705238653208802
 10
0.3901674663819086
 20
-0.2705317768356885
 10
0.3901069116023315
 20
-0.2705344207144625
 10
0.3900463568227538
 20
-0.2705317768356885
 10
0.389986262901613
 20
-0.2705238653208802
 10
0.3899270871899326
 20
-0.2705107463814432
 10
0.3898692800506143
 20
-0.2704925198604275
 10
0.3898132814308898
 20
-0.2704693244726626
 10
0.3897595175140674
 20
-0.2704413367490573
 10
0.3897083974760195
 20
-0.2704087696930855
 10
0.3896603103711028
 20
-0.2703718711597093
 10
0.3896156221712196
 20
-0.2703309219690458
 10
0.3895746729805579
 20
-0.2702862337691637
 10
0.3895377744471804
 20
-0.2702381466642468
 10
0.3895052073912108
 20
-0.2701870266261991
 10
0.3894772196676027
 20
-0.2701332627093774
 10
0.3894540242798397
 20
-0.2700772640896524
 10
0.3894357977588226
 20
-0.2700194569503322
 10
0.3894226788193856
 20
-0.2699602812386532
 10
0.3894147673045778
 20
-0.2699001873175124
 10
0.3894121234258033
 20
-0.2698396325379344
 97
        0
 75
     0
 76
     1
 98
        0
  0
HATCH
  5
92
330
6E
100
AcDbEntity
 67
     1
  8
STANDARD
  6
PUNKT2_S9
 62
   250
370
    25
100
AcDbHatch
 10
0.0
 20
0.0
 30
0.0
210
0.0
220
0.0
230
1.0
  2
SOLID
 70
     1
 71
     0
 91
        2
 92
        3
 72
     0
 73
     1
 93
       41
 10
0.3955975580919118
 20
-0.2671003702977756
 10
0.3955975580919118
 20
-0.2712593049881615
 10
0.3963813802819169
 20
-0.2712593049881615
 10
0.3963813802819169
 20
-0.2696733511584438
 10
0.3972525311434462
 20
-0.2696733511584438
 10
0.3973646561724378
 20
-0.2696684556739541
 10
0.3974759278622602
 20
-0.269653806478079
 10
0.3975854993681595
 20
-0.269629515060043
 10
0.3976925367848159
 20
-0.2695957662922063
 10
0.3977962254928594
 20
-0.2695528170230694
 10
0.3978957763586119
 20
-0.2695009941225047
 10
0.3979904317398747
 20
-0.2694406919940753
 10
0.3980794712520438
 20
-0.2693723695733923
 10
0.3981622172506674
 20
-0.2692965468353308
 10
0.3982380399887289
 20
-0.2692138008367091
 10
0.3983063624094117
 20
-0.2691247613245404
 10
0.3983666645378409
 20
-0.2690301059432769
 10
0.3984184874384051
 20
-0.2689305550775233
 10
0.3984614367075429
 20
-0.2688268663694795
 10
0.3984951854753791
 20
-0.2687198289528215
 10
0.398519476893414
 20
-0.2686102574469229
 10
0.3985341260892898
 20
-0.2684989857571028
 10
0.3985390215737795
 20
-0.2683868607281105
 10
0.3985341260892898
 20
-0.2682747356991157
 10
0.398519476893414
 20
-0.2681634640092962
 10
0.3984951854753791
 20
-0.2680538925033976
 10
0.3984614367075429
 20
-0.2679468550867397
 10
0.3984184874384051
 20
-0.2678431663786959
 10
0.3983666645378409
 20
-0.267743615512942
 10
0.3983063624094117
 20
-0.2676489601316785
 10
0.3982380399887289
 20
-0.2675599206195117
 10
0.3981622172506674
 20
-0.267477174620889
 10
0.3980794712520438
 20
-0.2674013518828268
 10
0.3979904317398747
 20
-0.2673330294621438
 10
0.3978957763586119
 20
-0.2672727273337154
 10
0.3977962254928594
 20
-0.2672209044331506
 10
0.3976925367848159
 20
-0.2671779551640135
 10
0.3975854993681595
 20
-0.2671442063961762
 10
0.3974759278622602
 20
-0.2671199149781409
 10
0.3973646561724378
 20
-0.2671052657822657
 10
0.3972525311434462
 20
-0.2671003702977756
 97
        0
 92
       18
 72
     0
 73
     1
 93
       39
 10
0.3963813802819169
 20
-0.2678347494678973
 10
0.3971349633731303
 20
-0.2678347494678973
 10
0.3971836809816999
 20
-0.2678368765246236
 10
0.3972320278198523
 20
-0.2678432415066171
 10
0.3972796359389537
 20
-0.2678537959725205
 10
0.3973261430124759
 20
-0.2678684595964765
 10
0.3973711950935054
 20
-0.2678871207794517
 10
0.3974144493085019
 20
-0.267909637498576
 10
0.3974555764667713
 20
-0.2679358383880212
 10
0.3974942635658073
 20
-0.2679655240431983
 10
0.3975302161734249
 20
-0.267998468538346
 10
0.3975631606685728
 20
-0.2680344211459639
 10
0.39759284632375
 20
-0.2680731082450001
 10
0.3976190472131958
 20
-0.268114235403269
 10
0.3976415639323196
 20
-0.2681574896182657
 10
0.3976602251152946
 20
-0.2682025416992946
 10
0.3976748887392513
 20
-0.2682490487728159
 10
0.397685443205154
 20
-0.2682966568919197
 10
0.3976918081871473
 20
-0.2683450037300712
 10
0.3976939352438723
 20
-0.2683937213386413
 10
0.3976918081871473
 20
-0.2684424389472109
 10
0.397685443205154
 20
-0.2684907857853631
 10
0.3976748887392513
 20
-0.268538393904466
 10
0.3976602251152946
 20
-0.2685849009779883
 10
0.3976415639323196
 20
-0.2686299530590171
 10
0.3976190472131958
 20
-0.2686732072740129
 10
0.39759284632375
 20
-0.2687143344322834
 10
0.3975631606685728
 20
-0.2687530215313187
 10
0.3975302161734249
 20
-0.2687889741389375
 10
0.3974942635658073
 20
-0.2688219186340844
 10
0.3974555764667713
 20
-0.268851604289261
 10
0.3974144493085019
 20
-0.2688778051787061
 10
0.3973711950935054
 20
-0.2689003218978304
 10
0.3973261430124759
 20
-0.2689189830808069
 10
0.3972796359389537
 20
-0.2689336467047614
 10
0.3972320278198523
 20
-0.2689442011706657
 10
0.3971836809816999
 20
-0.268950566152659
 10
0.3971349633731303
 20
-0.2689526932093849
 10
0.3963813802819169
 20
-0.2689526932093849
 97
        0
 75
     0
 76
     1
 98
        0
  0
HATCH
  5
93
330
6E
100
AcDbEntity
 67
     1
  8
STANDARD
  6
PUNKT2_S9
 62
   250
370
    25
100
AcDbHatch
 10
0.0
 20
0.0
 30
0.0
210
0.0
220
0.0
230
1.0
  2
SOLID
 70
     1
 71
     0
 91
        2
 92
        3
 72
     0
 73
     1
 93
       40
 10
0.3791761575105312
 20
-0.2695670305221137
 10
0.3800561402328755
 20
-0.2712593049881615
 10
0.3809930103493777
 20
-0.2712593049881615
 10
0.3800599979699847
 20
-0.2694650504124037
 10
0.3801536383839658
 20
-0.2694175796176823
 10
0.3802429195049719
 20
-0.2693623448015395
 10
0.3803271991161329
 20
-0.2692997432789968
 10
0.3804058709774401
 20
-0.2692302253552615
 10
0.3804783691865443
 20
-0.2691542910865886
 10
0.3805441722494044
 20
-0.2690724866832805
 10
0.3806028068314942
 20
-0.2689854005806864
 10
0.3806538511626033
 20
-0.2688936592064652
 10
0.380696938070699
 20
-0.2687979224745762
 10
0.3807317576230813
 20
-0.2686988790383774
 10
0.3807580593557831
 20
-0.2685972413370108
 10
0.3807756540752076
 20
-0.2684937404706831
 10
0.3807844152190363
 20
-0.2683891209417167
 10
0.3807842797666207
 20
-0.2682841352991999
 10
0.380775248692297
 20
-0.268179538725744
 10
0.3807573869583759
 20
-0.2680760836053118
 10
0.3807308230478676
 20
-0.2679745141111681
 10
0.3806957480402624
 20
-0.2678755608528903
 10
0.3806524142370687
 20
-0.2677799356209543
 10
0.3806011333469557
 20
-0.267688326266675
 10
0.3805422742435677
 20
-0.2676013917543659
 10
0.3804762603121445
 20
-0.2675197574212692
 10
0.3804035664040286
 20
-0.267444010479382
 10
0.3803247154209645
 20
-0.2673746957915308
 10
0.3802402745537599
 20
-0.2673123119520527
 10
0.3801508512023744
 20
-0.2672573077003186
 10
0.3800570886067609
 20
-0.2672100786928526
 10
0.3799596612199272
 20
-0.2671709646573021
 10
0.3798592698564511
 20
-0.2671402469487065
 10
0.3797566366513789
 20
-0.2671181465256567
 10
0.3796524998657775
 20
-0.2671048223608894
 10
0.3795476085762631
 20
-0.2671003702977756
 10
0.3778162088632641
 20
-0.2671003702977756
 10
0.3778162088632641
 20
-0.2712593049881615
 10
0.3786329445173948
 20
-0.2712593049881615
 10
0.3786329445173948
 20
-0.2695670305221137
 97
        0
 92
       18
 72
     0
 73
     1
 93
       39
 10
0.3786329445173948
 20
-0.267815277353633
 10
0.3794535547773704
 20
-0.267815277353633
 10
0.3795002592616193
 20
-0.2678173165154534
 10
0.3795466082965416
 20
-0.2678234184816616
 10
0.379592249137996
 20
-0.2678335368126103
 10
0.3796368344316198
 20
-0.2678475945016925
 10
0.3796800248564081
 20
-0.2678654845614039
 10
0.3797214917071475
 20
-0.2678870708375899
 10
0.379760919396068
 20
-0.2679121890456526
 10
0.3797980078546472
 20
-0.2679406480208637
 10
0.379832474817323
 20
-0.2679722311732374
 10
0.3798640579696959
 20
-0.2680066981359117
 10
0.3798925169449063
 20
-0.2680437865944917
 10
0.3799176351529714
 20
-0.2680832142834114
 10
0.3799392214291553
 20
-0.2681246811341524
 10
0.3799571114888673
 20
-0.2681678715589391
 10
0.3799711691779486
 20
-0.2682124568525645
 10
0.3799812875088966
 20
-0.2682580976940188
 10
0.3799873894751055
 20
-0.2683044467289413
 10
0.3799894286369264
 20
-0.2683511512131901
 10
0.3799873894751055
 20
-0.2683978556974388
 10
0.3799812875088966
 20
-0.2684442047323613
 10
0.3799711691779486
 20
-0.2684898455738156
 10
0.3799571114888673
 20
-0.2685344308674393
 10
0.3799392214291553
 20
-0.2685776212922277
 10
0.3799176351529714
 20
-0.268619088142968
 10
0.3798925169449063
 20
-0.2686585158318875
 10
0.3798640579696959
 20
-0.2686956042904677
 10
0.379832474817323
 20
-0.2687300712531427
 10
0.3797980078546472
 20
-0.2687616544055155
 10
0.379760919396068
 20
-0.268790113380726
 10
0.3797214917071475
 20
-0.2688152315887886
 10
0.3796800248564081
 20
-0.2688368178649747
 10
0.3796368344316198
 20
-0.2688547079246867
 10
0.379592249137996
 20
-0.2688687656137682
 10
0.3795466082965416
 20
-0.2688788839447169
 10
0.3795002592616193
 20
-0.2688849859109254
 10
0.3794535547773704
 20
-0.2688870250727458
 10
0.3786329445173948
 20
-0.2688870250727458
 97
        0
 75
     0
 76
     1
 98
        0
  0
HATCH
  5
94
330
6E
100
AcDbEntity
 67
     1
  8
STANDARD
  6
AUSGEZOGEN
 62
   254
370
    25
100
AcDbHatch
 10
0.0
 20
0.0
 30
0.0
210
0.0
220
0.0
230
1.0
  2
SOLID
 70
     1
 71
     0
 91
        1
 92
        3
 72
     0
 73
     1
 93
        4
 10
0.4073656181353396
 20
-0.2794707065515601
 10
0.3073656181364196
 20
-0.2794707065515601
 10
0.3073656181364196
 20
-0.3032031085017758
 10
0.4073656181353396
 20
-0.3032031085017758
 97
        0
 75
     0
 76
     1
 98
        0
  0
HATCH
  5
95
330
6E
100
AcDbEntity
 67
     1
  8
STANDARD
  6
AUSGEZOGEN
 62
   254
370
    25
100
AcDbHatch
 10
0.0
 20
0.0
 30
0.0
210
0.0
220
0.0
230
1.0
  2
SOLID
 70
     1
 71
     0
 91
        1
 92
        3
 72
     0
 73
     1
 93
        4
 10
0.4073656181353396
 20
-0.3047068679002558
 10
0.3073656181364196
 20
-0.3047068679002558
 10
0.3073656181364196
 20
-0.3768873190272956
 10
0.4073656181353396
 20
-0.3768873190272956
 97
        0
 75
     0
 76
     1
 98
        0
  0
MTEXT
  5
96
330
6E
100
AcDbEntity
 67
     1
  8
STANDARD
  6
AUSGEZOGEN
 62
     7
370
    25
100
AcDbMText
 10
0.310209
 20
-0.319007
 30
0.0
 40
0.002068
 41
0.011905
 46
0.0
 71
     7
 72
     5
  1
\W0.91;Maßstab:
  7
MICROSOFT_SANS_SERIF
 73
     1
 44
1.0
  0
MTEXT
  5
97
330
6E
100
AcDbEntity
 67
     1
  8
STANDARD
  6
AUSGEZOGEN
 62
     7
370
    25
100
AcDbMText
 10
0.310209
 20
-0.32347
 30
0.0
 40
0.002068
 41
0.012939
 46
0.0
 71
     7
 72
     5
  1
\W0.91;Projektnr.:
  7
MICROSOFT_SANS_SERIF
 73
     1
 44
1.0
  0
MTEXT
  5
98
330
6E
100
AcDbEntity
 67
     1
  8
STANDARD
  6
AUSGEZOGEN
 62
     7
370
    25
100
AcDbMText
 10
0.310209
 20
-0.327934
 30
0.0
 40
0.002068
 41
0.010025
 46
0.0
 71
     7
 72
     5
  1
\W0.91;Plannr.:
  7
MICROSOFT_SANS_SERIF
 73
     1
 44
1.0
  0
MTEXT
  5
99
330
6E
100
AcDbEntity
 67
     1
  8
STANDARD
  6
AUSGEZOGEN
 62
     7
370
    25
100
AcDbMText
 10
0.325012
 20
-0.32347
 30
0.0
 40
0.002068
 41
0.004449
 46
0.0
 71
     7
 72
     5
  1
\W0.91;----
  7
MICROSOFT_SANS_SERIF
 73
     1
 44
1.0
  0
MTEXT
  5
9A
330
6E
100
AcDbEntity
 67
     1
  8
STANDARD
  6
AUSGEZOGEN
 62
     7
370
    25
100
AcDbMText
 10
0.325012
 20
-0.327934
 30
0.0
 40
0.002068
 41
0.002412
 46
0.0
 71
     7
 72
     5
  1
\W0.91;1
  7
MICROSOFT_SANS_SERIF
 73
     1
 44
1.0
  0
MTEXT
  5
9B
330
6E
100
AcDbEntity
 67
     1
  8
STANDARD
  6
AUSGEZOGEN
 62
     7
370
    25
100
AcDbMText
 10
0.310209
 20
-0.351936
 30
0.0
 40
0.002068
 41
0.024843
 46
0.0
 71
     7
 72
     5
  1
\W0.91;A:\~\~\~\~\~\~\~\~\~\~I\~\~\~\~\~\~\~\~\~\~\~\~\~\~\~\~\~\~\~I
  7
MICROSOFT_SANS_SERIF
 73
     1
 44
1.0
  0
MTEXT
  5
9C
330
6E
100
AcDbEntity
 67
     1
  8
STANDARD
  6
AUSGEZOGEN
 62
     7
370
    25
100
AcDbMText
 10
0.310209
 20
-0.355862
 30
0.0
 40
0.002068
 41
0.024843
 46
0.0
 71
     7
 72
     5
  1
\W0.91;B:\~\~\~\~\~\~\~\~\~\~I\~\~\~\~\~\~\~\~\~\~\~\~\~\~\~\~\~\~\~I
  7
MICROSOFT_SANS_SERIF
 73
     1
 44
1.0
  0
MTEXT
  5
9D
330
6E
100
AcDbEntity
 67
     1
  8
STANDARD
  6
AUSGEZOGEN
 62
     7
370
    25
100
AcDbMText
 10
0.310209
 20
-0.359789
 30
0.0
 40
0.002068
 41
0.0247
 46
0.0
 71
     7
 72
     5
  1
\W0.90;C:\~\~\~\~\~\~\~\~\~\~I\~\~\~\~\~\~\~\~\~\~\~\~\~\~\~\~\~\~\~I
  7
MICROSOFT_SANS_SERIF
 73
     1
 44
1.0
  0
MTEXT
  5
9E
330
6E
100
AcDbEntity
 67
     1
  8
STANDARD
  6
AUSGEZOGEN
 62
     7
370
    25
100
AcDbMText
 10
0.310209
 20
-0.363716
 30
0.0
 40
0.002068
 41
0.0247
 46
0.0
 71
     7
 72
     5
  1
\W0.90;D:\~\~\~\~\~\~\~\~\~\~I\~\~\~\~\~\~\~\~\~\~\~\~\~\~\~\~\~\~\~I
  7
MICROSOFT_SANS_SERIF
 73
     1
 44
1.0
  0
MTEXT
  5
9F
330
6E
100
AcDbEntity
 67
     1
  8
STANDARD
  6
AUSGEZOGEN
 62
     7
370
    25
100
AcDbMText
 10
0.310209
 20
-0.338941
 30
0.0
 40
0.00188
 41
0.073755
 46
0.0
 71
     7
 72
     5
  1
{\fCalibri|i0|b1;\H0.001880;\W1.000000;\C7;Technische Prüfung:\fCalibri|i0|b0; Hr. Heuermann I Tel. +49 8384 8210 93}\P
  7
CALIBRI
 73
     1
 44
1.0
  0
MTEXT
  5
A0
330
6E
100
AcDbEntity
 67
     1
  8
STANDARD
  6
AUSGEZOGEN
 62
     7
370
    25
100
AcDbMText
 10
0.310209
 20
-0.342682
 30
0.0
 40
0.00188
 41
0.078052
 46
0.0
 71
     7
 72
     5
  1
{\fCalibri|i0|b1;\H0.001880;\W1.000000;\C7;Kaufmännische Bearbeitung:\fCalibri|i0|b0; Hr. Straub I Tel. +49 8384 8210 43}\P
  7
CALIBRI
 73
     1
 44
1.0
  0
MTEXT
  5
A1
330
6E
100
AcDbEntity
 67
     1
  8
STANDARD
  6
AUSGEZOGEN
 62
     7
370
    25
100
AcDbMText
 10
0.310209
 20
-0.335146
 30
0.0
 40
0.00188
 41
0.073976
 46
0.0
 71
     7
 72
     5
  1
{\fCalibri|i0|b1;\H0.001880;\W1.000000;\C7;Technische Bearbeitung:\fCalibri|i0|b0; Fr. Paredes I Tel. +49 8384 8210 59}\P
  7
CALIBRI
 73
     1
 44
1.0
  0
MTEXT
  5
A2
330
6E
100
AcDbEntity
 67
     1
  8
STANDARD
  6
AUSGEZOGEN
 62
     7
370
    25
100
AcDbMText
 10
0.310209
 20
-0.371397
 30
0.0
 40
0.001316
 41
0.087508
 46
0.0
 71
     1
 72
     5
  3
{\fCalibri|i0|b0;\H0.001316;\W0.914286;\C7;Diese Zeichnung ist urheberrechtlich geschützt und darf ohne unsere Genehmigung weder vervielfältigt noch auf}\P{\fCalibri|i0|b0;\H0.001316;\W0.914286;\C7;irgendwelche Art kopiert oder Dritten zugänglich gem
  1
acht werden!}\P
 73
     1
 44
1.084337
  0
MTEXT
  5
A3
330
6E
100
AcDbEntity
 67
     1
  8
L_KLIMAGERAET
  6
AUSGEZOGEN
 62
     7
370
    25
100
AcDbMText
 10
0.31026
 20
-0.380692
 30
0.0
 40
0.001489
 41
0.065463
 46
0.0
 71
     1
 72
     5
  3
{\fMicrosoft Sans Serif|i0|b0;\H0.001489;\W0.952381;\C7;CONCRETE \fMicrosoft Sans Serif|i0|b1;Rudolph\fMicrosoft Sans Serif|i0|b0; GmbH I Steinbißstr.15 I 88171 Weiler-Simmerberg}\P{\fMicrosoft Sans Serif|i0|b0;\H0.001489;\W0.952381;\C7;Tel. +49 8384
  1
 8210 0 I Fax +49 8384 8210 11 I info@concrete-rudolph.de}\P
  7
MICROSOFT_SANS_SERIF
 73
     1
 44
1.204819
  0
MTEXT
  5
A4
330
6E
100
AcDbEntity
 67
     1
  8
STANDARD
  6
AUSGEZOGEN
 62
     7
370
    25
100
AcDbMText
 10
0.310209
 20
-0.292908
 30
0.0
 40
0.003759
 41
0.03244
 46
0.0
 71
     7
 72
     5
  1
\W0.95;Urban\~Design
  7
MICROSOFT_SANS_SERIF
 73
     1
 44
1.0
  0
MTEXT
  5
A5
330
6E
100
AcDbEntity
 67
     1
  8
STANDARD
  6
AUSGEZOGEN
 62
     7
370
    25
100
AcDbMText
 10
0.325012
 20
-0.319007
 30
0.0
 40
0.002068
 41
0.006078
 46
0.0
 71
     7
 72
     5
  1
\W0.91;1:50
  7
MICROSOFT_SANS_SERIF
 73
     1
 44
1.0
  0
MTEXT
  5
A6
330
6E
100
AcDbEntity
 67
     1
  8
STANDARD
  6
AUSGEZOGEN
 62
    94
370
    25
100
AcDbMText
 10
0.309729
 20
-0.217911
 30
0.0
 40
0.003125
 41
0.027857
 46
0.0
 71
     7
 72
     5
  1
{\L\fCalibri|i0|b0;\H0.003125;\W1.000000;\C94;Farblegende:\l}\P
  7
CALIBRI
 73
     1
 44
1.0
  0
MTEXT
  5
A7
330
6E
100
AcDbEntity
 67
     1
  8
STANDARD
  6
AUSGEZOGEN
 62
     7
370
    25
100
AcDbMText
 10
0.309729
 20
-0.22687
 30
0.0
 40
0.0025
 41
0.043786
 46
0.0
 71
     7
 72
     5
  1
{\fCalibri|i0|b0;\H0.002500;\W1.000000;\C7;Nature Look       betongrau}\P
  7
CALIBRI
 73
     1
 44
1.0
  0
MTEXT
  5
A8
330
6E
100
AcDbEntity
 67
     1
  8
STANDARD
  6
AUSGEZOGEN
 62
     7
370
    25
100
AcDbMText
 10
0.309729
 20
-0.232807
 30
0.0
 40
0.0025
 41
0.045162
 46
0.0
 71
     7
 72
     5
  1
{\fCalibri|i0|b0;\H0.002500;\W1.000000;\C7;Nature Look       dunkelgrau}\P
  7
CALIBRI
 73
     1
 44
1.0
  0
MTEXT
  5
A9
330
6E
100
AcDbEntity
 67
     1
  8
STANDARD
  6
AUSGEZOGEN
 62
     7
370
    25
100
AcDbMText
 10
0.309729
 20
-0.238745
 30
0.0
 40
0.0025
 41
0.045827
 46
0.0
 71
     7
 72
     5
  1
{\fCalibri|i0|b0;\H0.002500;\W1.000000;\C7;Nature Look       creme weiß}\P
  7
CALIBRI
 73
     1
 44
1.0
  0
MTEXT
  5
AA
330
6E
100
AcDbEntity
 67
     1
  8
STANDARD
  6
AUSGEZOGEN
 62
     7
370
    25
100
AcDbMText
 10
0.309729
 20
-0.25062
 30
0.0
 40
0.0025
 41
0.025826
 46
0.0
 71
     7
 72
     5
  1
{\fCalibri|i0|b0;\H0.002500;\W1.000000;\C7;Smooth Look    }\P
  7
CALIBRI
 73
     1
 44
1.0
  0
MTEXT
  5
AB
330
6E
100
AcDbEntity
 67
     1
  8
STANDARD
  6
AUSGEZOGEN
 62
     7
370
    25
100
AcDbMText
 10
0.335634
 20
-0.250597
 30
0.0
 40
0.0025
 41
0.02291
 46
0.0
 71
     7
 72
     5
  1
{\fCalibri|i0|b0;\H0.002500;\W1.000000;\C7;nach RAL Ton}\P
  7
CALIBRI
 73
     1
 44
1.0
  0
MTEXT
  5
AC
330
6E
100
AcDbEntity
 67
     1
  8
STANDARD
  6
AUSGEZOGEN
 62
     7
370
    25
100
AcDbMText
 10
0.309729
 20
-0.244682
 30
0.0
 40
0.0025
 41
0.041494
 46
0.0
 71
     7
 72
     5
  1
{\fCalibri|i0|b0;\H0.002500;\W1.000000;\C7;Nature Look       anthrazit}\P
  7
CALIBRI
 73
     1
 44
1.0
  0
MTEXT
  5
AD
330
6E
100
AcDbEntity
 67
     1
  8
STANDARD
  6
AUSGEZOGEN
 62
     7
370
    25
100
AcDbMText
 10
0.310209
 20
-0.283808
 30
0.0
 40
0.00188
 41
0.021689
 46
0.0
 71
     7
 72
     5
  1
{\fCalibri|i0|b0;\H0.001880;\W0.900000;\C7;Datum: 19.02.2018}\P
  7
CALIBRI
 73
     1
 44
1.0
  0
MTEXT
  5
AE
330
6E
100
AcDbEntity
 67
     1
  8
STANDARD
  6
AUSGEZOGEN
 62
     7
370
    25
100
AcDbMText
 10
0.310209
 20
-0.299921
 30
0.0
 40
0.003
 41
0.037969
 46
0.0
 71
     7
 72
     5
  1
\W0.94;Nova\~-\~Grundmodule
  7
MICROSOFT_SANS_SERIF
 73
     1
 44
1.0
  0
VIEWPORT
  5
2EF
330
6E
100
AcDbEntity
 67
     1
  8
STANDARD
  6
STRICHPUNKT2_S5
 62
     7
370
    25
100
AcDbViewport
 10
0.13258
 20
-0.240181
 30
0.0
 40
0.198984
 41
0.21473
 68
     2
 69
     2
 12
0.0
 22
0.0
 13
0.0
 23
0.0
 14
1.0
 24
1.0
 15
0.0
 25
0.0
 16
0.0
 26
0.0
 36
1.0
 17
-9.013152
 27
1.943436
 37
0.0
 42
50.0
 43
0.0
 44
0.0
 45
10.736489
 50
0.0
 51
0.0
 72
   100
331
10
331
77
331
79
331
101
 90
   557280
  1

281
     0
 71
     1
 74
     0
110
0.0
120
0.0
130
0.0
111
1.0
121
0.0
131
0.0
112
0.0
122
1.0
132
0.0
 79
     0
146
0.0
170
     0
 61
     5
292
     1
282
     1
141
0.0
142
0.0
 63
   256
361
2F0
  0
ENDSEC
  0
SECTION
  2
OBJECTS
  0
DICTIONARY
  5
C
330
0
100
AcDbDictionary
281
     1
  3
ACAD_DETAILVIEWSTYLE
350
328
  3
ACAD_GROUP
350
D
  3
ACAD_LAYOUT
350
1A
  3
ACAD_MATERIAL
350
43
  3
ACAD_MLEADERSTYLE
350
6B
  3
ACAD_MLINESTYLE
350
17
  3
ACAD_PLOTSETTINGS
350
19
  3
ACAD_PLOTSTYLENAME
350
E
  3
ACAD_SCALELIST
350
47
  3
ACAD_SECTIONVIEWSTYLE
350
329
  3
ACAD_TABLESTYLE
350
69
  3
ACAD_VISUALSTYLE
350
2A
  3
ACDB_RECOMPOSE_DATA
350
325
  3
AcDbVariableDictionary
350
2F1
  0
SUN
  5
6D
330
29
100
AcDbSun
 90
        1
290
     0
 63
     7
421
 16777215
 40
1.0
291
     1
 91
  2455826
 92
 54000000
292
     0
 70
     2
 71
   256
280
     1
  0
DICTIONARY
  5
AF
330
6E
100
AcDbDictionary
280
     1
281
     1
  3
ACAD_SORTENTS
360
B0
  0
SUN
  5
73
330
72
100
AcDbSun
 90
        1
290
     0
 63
     7
421
 16777215
 40
1.0
291
     1
 91
  2455826
 92
 54000000
292
     0
 70
     2
 71
   256
280
     1
  0
SUN
  5
2F0
330
2EF
100
AcDbSun
 90
        1
290
     0
 63
     7
421
 16777215
 40
1.0
291
     1
 91
  2455826
 92
 54000000
292
     0
 70
     2
 71
   256
280
     1
  0
DICTIONARY
  5
328
102
{ACAD_REACTORS
330
C
102
}
330
C
100
AcDbDictionary
281
     1
  0
DICTIONARY
  5
D
102
{ACAD_REACTORS
330
C
102
}
330
C
100
AcDbDictionary
281
     1
  0
DICTIONARY
  5
1A
102
{ACAD_REACTORS
330
C
102
}
330
C
100
AcDbDictionary
281
     1
  3
Model
350
22
  3
Pos. Donut D1 (gebogen)
350
6F
  0
DICTIONARY
  5
43
102
{ACAD_REACTORS
330
C
102
}
330
C
100
AcDbDictionary
281
     1
  3
ByBlock
350
45
  3
ByLayer
350
44
  3
Global
350
46
  0
DICTIONARY
  5
6B
102
{ACAD_REACTORS
330
C
102
}
330
C
100
AcDbDictionary
281
     1
  3
Standard
350
6C
  0
DICTIONARY
  5
17
102
{ACAD_REACTORS
330
C
102
}
330
C
100
AcDbDictionary
281
     1
  3
Standard
350
18
  0
DICTIONARY
  5
19
102
{ACAD_REACTORS
330
C
102
}
330
C
100
AcDbDictionary
281
     1
  0
ACDBDICTIONARYWDFLT
  5
E
102
{ACAD_REACTORS
330
C
102
}
330
C
100
AcDbDictionary
281
     1
  3
Normal
350
F
100
AcDbDictionaryWithDefault
340
F
  0
DICTIONARY
  5
47
102
{ACAD_REACTORS
330
C
102
}
330
C
100
AcDbDictionary
281
     1
  3
A0
350
48
  3
A1
350
49
  3
A2
350
4A
  3
A3
350
4B
  3
A4
350
4C
  3
A5
350
4D
  3
A6
350
4E
  3
A7
350
4F
  3
A8
350
50
  3
A9
350
51
  3
B0
350
52
  3
B1
350
53
  3
B2
350
54
  3
B3
350
55
  3
B4
350
56
  3
B5
350
57
  3
B6
350
58
  3
B7
350
59
  3
B8
350
5A
  3
B9
350
5B
  3
C0
350
5C
  3
C1
350
5D
  3
C2
350
5E
  3
C3
350
5F
  3
C4
350
60
  3
C5
350
61
  3
C6
350
62
  3
C7
350
63
  3
C8
350
64
  3
C9
350
65
  3
D0
350
66
  3
D1
350
67
  3
D2
350
68
  0
DICTIONARY
  5
329
102
{ACAD_REACTORS
330
C
102
}
330
C
100
AcDbDictionary
281
     1
  0
DICTIONARY
  5
69
102
{ACAD_REACTORS
330
C
102
}
330
C
100
AcDbDictionary
281
     1
  3
Standard
350
6A
  0
DICTIONARY
  5
2A
102
{ACAD_REACTORS
330
C
102
}
330
C
100
AcDbDictionary
281
     1
  3
2dWireframe
350
2F
  3
Basic
350
32
  3
Brighten
350
36
  3
ColorChange
350
3A
  3
Conceptual
350
34
  3
Dim
350
35
  3
EdgeColorOff
350
3D
  3
Facepattern
350
39
  3
Flat
350
2B
  3
FlatWithEdges
350
2C
  3
Gouraud
350
2D
  3
GouraudWithEdges
350
2E
  3
Hidden
350
31
  3
JitterOff
350
3B
  3
Linepattern
350
38
  3
OverhangOff
350
3C
  3
Realistic
350
33
  3
Shaded
350
42
  3
Shaded with edges
350
41
  3
Shades of Gray
350
3E
  3
Sketchy
350
3F
  3
Thicken
350
37
  3
Wireframe
350
30
  3
X-Ray
350
40
  0
XRECORD
  5
325
102
{ACAD_REACTORS
330
C
102
}
330
C
100
AcDbXrecord
280
     1
 90
        1
330
6A
  0
DICTIONARY
  5
2F1
102
{ACAD_REACTORS
330
C
102
}
330
C
100
AcDbDictionary
281
     1
  3
CANNOSCALE
350
2F2
  3
CMLEADERSTYLE
350
327
  3
CTABLESTYLE
350
326
  0
SORTENTSTABLE
  5
B0
102
{ACAD_REACTORS
330
AF
102
}
330
AF
100
AcDbSortentsTable
330
6E
331
72
  5
8E
331
7C
  5
8F
331
7D
  5
90
331
7E
  5
91
331
7F
  5
92
331
80
  5
93
331
81
  5
94
331
82
  5
95
331
83
  5
72
331
84
  5
7C
331
85
  5
7D
331
86
  5
7E
331
87
  5
7F
331
88
  5
80
331
89
  5
81
331
8A
  5
82
331
8B
  5
83
331
8C
  5
84
331
8D
  5
85
331
8E
  5
86
331
8F
  5
87
331
90
  5
88
331
91
  5
89
331
92
  5
8A
331
93
  5
8B
331
94
  5
8C
331
95
  5
8D
  0
LAYOUT
  5
22
102
{ACAD_REACTORS
330
1A
102
}
330
1A
100
AcDbPlotSettings
  1

  2
none_device
  4
Letter_(8.50_x_11.00_Inches)
  6

 40
6.35
 41
6.35
 42
6.350005
 43
6.350005
 44
215.9
 45
279.4
 46
0.0
 47
0.0
 48
0.0
 49
0.0
140
0.0
141
0.0
142
1.0
143
1.0
 70
  1712
 72
     0
 73
     0
 74
     0
  7

 75
     0
 76
     0
 77
     2
 78
   300
147
1.0
148
0.0
149
0.0
100
AcDbLayout
  1
Model
 70
     1
 71
     0
 10
-13.982744
 20
-3.419809
 11
-4.043559
 21
7.30668
 12
0.0
 22
0.0
 32
0.0
 14
-13.982744
 24
-3.419809
 34
-13.982744
 15
-4.043559
 25
7.30668
 35
-4.043559
146
0.0
 13
0.0
 23
0.0
 33
0.0
 16
1.0
 26
0.0
 36
0.0
 17
0.0
 27
1.0
 37
0.0
 76
     0
330
1F
331
29
  0
LAYOUT
  5
6F
102
{ACAD_REACTORS
330
1A
102
}
330
1A
100
AcDbPlotSettings
  1

  2
none_device
  4
none_user_media
  6

 40
0.0
 41
0.0
 42
0.0
 43
0.0
 44
297.0
 45
420.0
 46
0.0
 47
0.0
 48
0.0
 49
0.0
140
0.0
141
0.0
142
1000.0
143
1.0
 70
   688
 72
     1
 73
     1
 74
     5
  7

 75
    33
 76
     0
 77
     2
 78
   300
147
1000.0
148
0.0
149
0.0
100
AcDbLayout
  1
Pos. Donut D1 (gebogen)
 70
     0
 71
     1
 10
-0.007634
 20
-0.393917
 11
0.412366
 21
-0.096917
 12
0.0
 22
0.0
 32
0.0
 14
-0.007634
 24
-0.393917
 34
0.0
 15
0.412366
 25
-0.096917
 35
0.0
146
0.0
 13
0.0
 23
0.0
 33
0.0
 16
1.0
 26
0.0
 36
0.0
 17
0.0
 27
1.0
 37
0.0
 76
     0
330
6E
331
72
  0
MATERIAL
  5
45
102
{ACAD_REACTORS
330
43
102
}
330
43
100
AcDbMaterial
  1
ByBlock
 72
     1
 94
      127
  0
MATERIAL
  5
44
102
{ACAD_REACTORS
330
43
102
}
330
43
100
AcDbMaterial
  1
ByLayer
 72
     1
 94
      127
  0
MATERIAL
  5
46
102
{ACAD_REACTORS
330
43
102
}
330
43
100
AcDbMaterial
  1
Global
 72
     1
 94
      127
  0
MLEADERSTYLE
  5
6C
102
{ACAD_REACTORS
330
6B
102
}
330
6B
100
AcDbMLeaderStyle
179
     2
170
     2
171
     1
172
     0
 90
        2
 40
0.0
 41
0.0
173
     1
 91
-1056964608
340
14
 92
       -2
290
     1
 42
0.09
291
     1
 43
0.36
  3
Standard
341
0
 44
0.18
300

342
11
174
     1
178
     6
175
     1
176
     0
 93
-1056964608
 45
0.18
292
     0
297
     0
 46
0.18
343
0
 94
-1056964608
 47
1.0
 49
1.0
140
1.0
293
     1
141
0.0
294
     1
177
     0
142
1.0
295
     0
296
     0
143
0.125
271
     0
272
     9
273
     9
  0
MLINESTYLE
  5
18
102
{ACAD_REACTORS
330
17
102
}
330
17
100
AcDbMlineStyle
  2
Standard
 70
     0
  3

 62
   256
 51
90.0
 52
90.0
 71
     2
 49
0.5
 62
   256
  6
BYLAYER
 49
-0.5
 62
   256
  6
BYLAYER
  0
ACDBPLACEHOLDER
  5
F
102
{ACAD_REACTORS
330
E
102
}
330
E
  0
SCALE
  5
48
102
{ACAD_REACTORS
330
47
102
}
330
47
100
AcDbScale
 70
     0
300
1:1
140
1.0
141
1.0
290
     1
  0
SCALE
  5
49
102
{ACAD_REACTORS
330
47
102
}
330
47
100
AcDbScale
 70
     0
300
1:2
140
1.0
141
2.0
290
     0
  0
SCALE
  5
4A
102
{ACAD_REACTORS
330
47
102
}
330
47
100
AcDbScale
 70
     0
300
1:4
140
1.0
141
4.0
290
     0
  0
SCALE
  5
4B
102
{ACAD_REACTORS
330
47
102
}
330
47
100
AcDbScale
 70
     0
300
1:5
140
1.0
141
5.0
290
     0
  0
SCALE
  5
4C
102
{ACAD_REACTORS
330
47
102
}
330
47
100
AcDbScale
 70
     0
300
1:8
140
1.0
141
8.0
290
     0
  0
SCALE
  5
4D
102
{ACAD_REACTORS
330
47
102
}
330
47
100
AcDbScale
 70
     0
300
1:10
140
1.0
141
10.0
290
     0
  0
SCALE
  5
4E
102
{ACAD_REACTORS
330
47
102
}
330
47
100
AcDbScale
 70
     0
300
1:16
140
1.0
141
16.0
290
     0
  0
SCALE
  5
4F
102
{ACAD_REACTORS
330
47
102
}
330
47
100
AcDbScale
 70
     0
300
1:20
140
1.0
141
20.0
290
     0
  0
SCALE
  5
50
102
{ACAD_REACTORS
330
47
102
}
330
47
100
AcDbScale
 70
     0
300
1:30
140
1.0
141
30.0
290
     0
  0
SCALE
  5
51
102
{ACAD_REACTORS
330
47
102
}
330
47
100
AcDbScale
 70
     0
300
1:40
140
1.0
141
40.0
290
     0
  0
SCALE
  5
52
102
{ACAD_REACTORS
330
47
102
}
330
47
100
AcDbScale
 70
     0
300
1:50
140
1.0
141
50.0
290
     0
  0
SCALE
  5
53
102
{ACAD_REACTORS
330
47
102
}
330
47
100
AcDbScale
 70
     0
300
1:100
140
1.0
141
100.0
290
     0
  0
SCALE
  5
54
102
{ACAD_REACTORS
330
47
102
}
330
47
100
AcDbScale
 70
     0
300
2:1
140
2.0
141
1.0
290
     0
  0
SCALE
  5
55
102
{ACAD_REACTORS
330
47
102
}
330
47
100
AcDbScale
 70
     0
300
4:1
140
4.0
141
1.0
290
     0
  0
SCALE
  5
56
102
{ACAD_REACTORS
330
47
102
}
330
47
100
AcDbScale
 70
     0
300
8:1
140
8.0
141
1.0
290
     0
  0
SCALE
  5
57
102
{ACAD_REACTORS
330
47
102
}
330
47
100
AcDbScale
 70
     0
300
10:1
140
10.0
141
1.0
290
     0
  0
SCALE
  5
58
102
{ACAD_REACTORS
330
47
102
}
330
47
100
AcDbScale
 70
     0
300
100:1
140
100.0
141
1.0
290
     0
  0
SCALE
  5
59
102
{ACAD_REACTORS
330
47
102
}
330
47
100
AcDbScale
 70
     0
300
1/128" = 1'-0"
140
0.007812
141
12.0
290
     0
  0
SCALE
  5
5A
102
{ACAD_REACTORS
330
47
102
}
330
47
100
AcDbScale
 70
     0
300
1/64" = 1'-0"
140
0.015625
141
12.0
290
     0
  0
SCALE
  5
5B
102
{ACAD_REACTORS
330
47
102
}
330
47
100
AcDbScale
 70
     0
300
1/32" = 1'-0"
140
0.03125
141
12.0
290
     0
  0
SCALE
  5
5C
102
{ACAD_REACTORS
330
47
102
}
330
47
100
AcDbScale
 70
     0
300
1/16" = 1'-0"
140
0.0625
141
12.0
290
     0
  0
SCALE
  5
5D
102
{ACAD_REACTORS
330
47
102
}
330
47
100
AcDbScale
 70
     0
300
3/32" = 1'-0"
140
0.09375
141
12.0
290
     0
  0
SCALE
  5
5E
102
{ACAD_REACTORS
330
47
102
}
330
47
100
AcDbScale
 70
     0
300
1/8" = 1'-0"
140
0.125
141
12.0
290
     0
  0
SCALE
  5
5F
102
{ACAD_REACTORS
330
47
102
}
330
47
100
AcDbScale
 70
     0
300
3/16" = 1'-0"
140
0.1875
141
12.0
290
     0
  0
SCALE
  5
60
102
{ACAD_REACTORS
330
47
102
}
330
47
100
AcDbScale
 70
     0
300
1/4" = 1'-0"
140
0.25
141
12.0
290
     0
  0
SCALE
  5
61
102
{ACAD_REACTORS
330
47
102
}
330
47
100
AcDbScale
 70
     0
300
3/8" = 1'-0"
140
0.375
141
12.0
290
     0
  0
SCALE
  5
62
102
{ACAD_REACTORS
330
47
102
}
330
47
100
AcDbScale
 70
     0
300
1/2" = 1'-0"
140
0.5
141
12.0
290
     0
  0
SCALE
  5
63
102
{ACAD_REACTORS
330
47
102
}
330
47
100
AcDbScale
 70
     0
300
3/4" = 1'-0"
140
0.75
141
12.0
290
     0
  0
SCALE
  5
64
102
{ACAD_REACTORS
330
47
102
}
330
47
100
AcDbScale
 70
     0
300
1" = 1'-0"
140
1.0
141
12.0
290
     0
  0
SCALE
  5
65
102
{ACAD_REACTORS
330
47
102
}
330
47
100
AcDbScale
 70
     0
300
1-1/2" = 1'-0"
140
1.5
141
12.0
290
     0
  0
SCALE
  5
66
102
{ACAD_REACTORS
330
47
102
}
330
47
100
AcDbScale
 70
     0
300
3" = 1'-0"
140
3.0
141
12.0
290
     0
  0
SCALE
  5
67
102
{ACAD_REACTORS
330
47
102
}
330
47
100
AcDbScale
 70
     0
300
6" = 1'-0"
140
6.0
141
12.0
290
     0
  0
SCALE
  5
68
102
{ACAD_REACTORS
330
47
102
}
330
47
100
AcDbScale
 70
     0
300
1'-0" = 1'-0"
140
12.0
141
12.0
290
     0
  0
TABLESTYLE
  5
6A
102
{ACAD_REACTORS
330
69
102
}
102
{ACAD_XDICTIONARY
360
323
102
}
330
69
100
AcDbTableStyle
  3
Standard
 70
     0
 71
     0
 40
0.06
 41
0.06
280
     0
281
     0
  7
Standard
140
0.18
170
     2
 62
     0
 63
   257
283
     0
 90
        4
 91
        0
  1

274
    -2
284
     1
 64
     0
275
    -2
285
     1
 65
     0
276
    -2
286
     1
 66
     0
277
    -2
287
     1
 67
     0
278
    -2
288
     1
 68
     0
279
    -2
289
     1
 69
     0
  7
Standard
140
0.25
170
     5
 62
     0
 63
   257
283
     0
 90
        4
 91
        0
  1

274
    -2
284
     1
 64
     0
275
    -2
285
     1
 65
     0
276
    -2
286
     1
 66
     0
277
    -2
287
     1
 67
     0
278
    -2
288
     1
 68
     0
279
    -2
289
     1
 69
     0
  7
Standard
140
0.18
170
     5
 62
     0
 63
   257
283
     0
 90
        4
 91
        0
  1

274
    -2
284
     1
 64
     0
275
    -2
285
     1
 65
     0
276
    -2
286
     1
 66
     0
277
    -2
287
     1
 67
     0
278
    -2
288
     1
 68
     0
279
    -2
289
     1
 69
     0
  0
VISUALSTYLE
  5
2F
102
{ACAD_REACTORS
330
2A
102
}
102
{ACAD_XDICTIONARY
360
2FB
102
}
330
2A
100
AcDbVisualStyle
  2
2dWireframe
 70
     4
177
     2
291
     0
 71
     0
176
     1
 72
     2
176
     1
 73
     0
176
     1
 90
        0
176
     1
 40
0.6
176
     1
 41
30.0
176
     1
 62
     5
 63
     7
421
 16777215
176
     1
 74
     1
176
     1
 91
        4
176
     1
 64
     7
176
     1
 65
   257
176
     1
 75
     1
176
     1
175
     1
176
     1
 42
1.0
176
     1
 92
        0
176
     1
 66
   257
176
     1
 43
1.0
176
     1
 76
     1
176
     1
 77
     6
176
     1
 78
     2
176
     1
 67
     7
176
     1
 79
     5
176
     1
170
     0
176
     1
171
     0
176
     1
290
     0
176
     1
 93
        1
176
     1
 44
0.0
176
     1
173
     0
176
     1
  0
VISUALSTYLE
  5
32
102
{ACAD_REACTORS
330
2A
102
}
102
{ACAD_XDICTIONARY
360
301
102
}
330
2A
100
AcDbVisualStyle
  2
Basic
 70
     7
177
     2
291
     1
 71
     1
176
     1
 72
     0
176
     1
 73
     1
176
     1
 90
        0
176
     1
 40
0.6
176
     1
 41
30.0
176
     1
 62
     5
 63
     7
421
 16777215
176
     1
 74
     0
176
     1
 91
        4
176
     1
 64
     7
176
     1
 65
   257
176
     1
 75
     1
176
     1
175
     1
176
     1
 42
1.0
176
     1
 92
        8
176
     1
 66
     7
176
     1
 43
1.0
176
     1
 76
     1
176
     1
 77
     6
176
     1
 78
     2
176
     1
 67
     7
176
     1
 79
     5
176
     1
170
     0
176
     1
171
     0
176
     1
290
     0
176
     1
 93
        1
176
     1
 44
0.0
176
     1
173
     0
176
     1
  0
VISUALSTYLE
  5
36
102
{ACAD_REACTORS
330
2A
102
}
102
{ACAD_XDICTIONARY
360
309
102
}
330
2A
100
AcDbVisualStyle
  2
Brighten
 70
    12
177
     2
291
     1
 71
     2
176
     1
 72
     2
176
     1
 73
     0
176
     1
 90
        0
176
     1
 40
0.6
176
     1
 41
30.0
176
     1
 62
     5
 63
     7
421
 16777215
176
     1
 74
     1
176
     1
 91
        4
176
     1
 64
     7
176
     1
 65
   257
176
     1
 75
     1
176
     1
175
     1
176
     1
 42
1.0
176
     1
 92
        8
176
     1
 66
     7
176
     1
 43
1.0
176
     1
 76
     1
176
     1
 77
     6
176
     1
 78
     2
176
     1
 67
     7
176
     1
 79
     5
176
     1
170
     0
176
     1
171
     0
176
     1
290
     0
176
     1
 93
        1
176
     1
 44
50.0
176
     1
173
     0
176
     1
  0
VISUALSTYLE
  5
3A
102
{ACAD_REACTORS
330
2A
102
}
102
{ACAD_XDICTIONARY
360
311
102
}
330
2A
100
AcDbVisualStyle
  2
ColorChange
 70
    16
177
     2
291
     1
 71
     2
176
     1
 72
     2
176
     1
 73
     3
176
     1
 90
        0
176
     1
 40
0.6
176
     1
 41
30.0
176
     1
 62
     5
 63
     8
421
  8421504
176
     1
 74
     1
176
     1
 91
        4
176
     1
 64
     7
176
     1
 65
   257
176
     1
 75
     1
176
     1
175
     1
176
     1
 42
1.0
176
     1
 92
        8
176
     1
 66
     8
424
  8421504
176
     1
 43
1.0
176
     1
 76
     1
176
     1
 77
     6
176
     1
 78
     2
176
     1
 67
     7
176
     1
 79
     5
176
     1
170
     0
176
     1
171
     0
176
     1
290
     0
176
     1
 93
        1
176
     1
 44
0.0
176
     1
173
     0
176
     1
  0
VISUALSTYLE
  5
34
102
{ACAD_REACTORS
330
2A
102
}
102
{ACAD_XDICTIONARY
360
305
102
}
330
2A
100
AcDbVisualStyle
  2
Conceptual
 70
     9
177
     2
291
     0
 71
     3
176
     1
 72
     2
176
     1
 73
     0
176
     1
 90
        0
176
     1
 40
0.6
176
     1
 41
30.0
176
     1
 62
     5
 63
     7
421
 16777215
176
     1
 74
     2
176
     1
 91
        2
176
     1
 64
     7
176
     1
 65
   257
176
     1
 75
     1
176
     1
175
     1
176
     1
 42
179.0
176
     1
 92
        8
176
     1
 66
     7
176
     1
 43
1.0
176
     1
 76
     1
176
     1
 77
     6
176
     1
 78
     2
176
     1
 67
     7
176
     1
 79
     3
176
     1
170
     0
176
     1
171
     0
176
     1
290
     0
176
     1
 93
        1
176
     1
 44
0.0
176
     1
173
     0
176
     1
  0
VISUALSTYLE
  5
35
102
{ACAD_REACTORS
330
2A
102
}
102
{ACAD_XDICTIONARY
360
307
102
}
330
2A
100
AcDbVisualStyle
  2
Dim
 70
    11
177
     2
291
     1
 71
     2
176
     1
 72
     2
176
     1
 73
     0
176
     1
 90
        0
176
     1
 40
0.6
176
     1
 41
30.0
176
     1
 62
     5
 63
     7
421
 16777215
176
     1
 74
     1
176
     1
 91
        4
176
     1
 64
     7
176
     1
 65
   257
176
     1
 75
     1
176
     1
175
     1
176
     1
 42
1.0
176
     1
 92
        8
176
     1
 66
     7
176
     1
 43
1.0
176
     1
 76
     1
176
     1
 77
     6
176
     1
 78
     2
176
     1
 67
     7
176
     1
 79
     5
176
     1
170
     0
176
     1
171
     0
176
     1
290
     0
176
     1
 93
        1
176
     1
 44
-50.0
176
     1
173
     0
176
     1
  0
VISUALSTYLE
  5
3D
102
{ACAD_REACTORS
330
2A
102
}
102
{ACAD_XDICTIONARY
360
317
102
}
330
2A
100
AcDbVisualStyle
  2
EdgeColorOff
 70
    22
177
     2
291
     1
 71
     2
176
     0
 72
     2
176
     0
 73
     0
176
     0
 90
        0
176
     0
 40
0.6
176
     0
 41
30.0
176
     0
 62
     5
 63
     7
421
 16777215
176
     0
 74
     1
176
     0
 91
        4
176
     0
 64
     7
176
     0
 65
   257
176
     0
 75
     1
176
     0
175
     1
176
     0
 42
1.0
176
     0
 92
        8
176
     2
 66
     7
176
     0
 43
1.0
176
     0
 76
     1
176
     0
 77
     6
176
     0
 78
     2
176
     0
 67
     7
176
     0
 79
     5
176
     0
170
     0
176
     0
171
     0
176
     0
290
     0
176
     0
 93
        1
176
     0
 44
0.0
176
     0
173
     0
176
     0
  0
VISUALSTYLE
  5
39
102
{ACAD_REACTORS
330
2A
102
}
102
{ACAD_XDICTIONARY
360
30F
102
}
330
2A
100
AcDbVisualStyle
  2
Facepattern
 70
    15
177
     2
291
     1
 71
     2
176
     1
 72
     2
176
     1
 73
     0
176
     1
 90
        0
176
     1
 40
0.6
176
     1
 41
30.0
176
     1
 62
     5
 63
     7
421
 16777215
176
     1
 74
     1
176
     1
 91
        4
176
     1
 64
     7
176
     1
 65
   257
176
     1
 75
     1
176
     1
175
     1
176
     1
 42
1.0
176
     1
 92
        8
176
     1
 66
     7
176
     1
 43
1.0
176
     1
 76
     1
176
     1
 77
     6
176
     1
 78
     2
176
     1
 67
     7
176
     1
 79
     5
176
     1
170
     0
176
     1
171
     0
176
     1
290
     0
176
     1
 93
        1
176
     1
 44
0.0
176
     1
173
     0
176
     1
  0
VISUALSTYLE
  5
2B
102
{ACAD_REACTORS
330
2A
102
}
102
{ACAD_XDICTIONARY
360
2F3
102
}
330
2A
100
AcDbVisualStyle
  2
Flat
 70
     0
177
     2
291
     1
 71
     2
176
     1
 72
     1
176
     1
 73
     1
176
     1
 90
        2
176
     1
 40
0.6
176
     1
 41
30.0
176
     1
 62
     5
 63
     7
421
 16777215
176
     1
 74
     0
176
     1
 91
        0
176
     1
 64
     7
176
     1
 65
   257
176
     1
 75
     1
176
     1
175
     1
176
     1
 42
1.0
176
     1
 92
        8
176
     1
 66
     7
176
     1
 43
1.0
176
     1
 76
     1
176
     1
 77
     6
176
     1
 78
     2
176
     1
 67
     7
176
     1
 79
     5
176
     1
170
     0
176
     1
171
     0
176
     1
290
     0
176
     1
 93
       13
176
     1
 44
0.0
176
     1
173
     0
176
     1
  0
VISUALSTYLE
  5
2C
102
{ACAD_REACTORS
330
2A
102
}
102
{ACAD_XDICTIONARY
360
2F5
102
}
330
2A
100
AcDbVisualStyle
  2
FlatWithEdges
 70
     1
177
     2
291
     1
 71
     2
176
     1
 72
     1
176
     1
 73
     1
176
     1
 90
        2
176
     1
 40
0.6
176
     1
 41
30.0
176
     1
 62
     5
 63
     7
421
 16777215
176
     1
 74
     1
176
     1
 91
        0
176
     1
 64
     7
176
     1
 65
   257
176
     1
 75
     1
176
     1
175
     1
176
     1
 42
1.0
176
     1
 92
        0
176
     1
 66
   257
176
     1
 43
1.0
176
     1
 76
     1
176
     1
 77
     6
176
     1
 78
     2
176
     1
 67
     7
176
     1
 79
     5
176
     1
170
     0
176
     1
171
     0
176
     1
290
     0
176
     1
 93
       13
176
     1
 44
0.0
176
     1
173
     0
176
     1
  0
VISUALSTYLE
  5
2D
102
{ACAD_REACTORS
330
2A
102
}
102
{ACAD_XDICTIONARY
360
2F7
102
}
330
2A
100
AcDbVisualStyle
  2
Gouraud
 70
     2
177
     2
291
     1
 71
     2
176
     1
 72
     2
176
     1
 73
     1
176
     1
 90
        2
176
     1
 40
0.6
176
     1
 41
30.0
176
     1
 62
     5
 63
     7
421
 16777215
176
     1
 74
     0
176
     1
 91
        0
176
     1
 64
     7
176
     1
 65
   257
176
     1
 75
     1
176
     1
175
     1
176
     1
 42
1.0
176
     1
 92
        0
176
     1
 66
     7
176
     1
 43
1.0
176
     1
 76
     1
176
     1
 77
     6
176
     1
 78
     2
176
     1
 67
     7
176
     1
 79
     5
176
     1
170
     0
176
     1
171
     0
176
     1
290
     0
176
     1
 93
       13
176
     1
 44
0.0
176
     1
173
     0
176
     1
  0
VISUALSTYLE
  5
2E
102
{ACAD_REACTORS
330
2A
102
}
102
{ACAD_XDICTIONARY
360
2F9
102
}
330
2A
100
AcDbVisualStyle
  2
GouraudWithEdges
 70
     3
177
     2
291
     1
 71
     2
176
     1
 72
     2
176
     1
 73
     1
176
     1
 90
        2
176
     1
 40
0.6
176
     1
 41
30.0
176
     1
 62
     5
 63
     7
421
 16777215
176
     1
 74
     1
176
     1
 91
        0
176
     1
 64
     7
176
     1
 65
   257
176
     1
 75
     1
176
     1
175
     1
176
     1
 42
1.0
176
     1
 92
        0
176
     1
 66
   257
176
     1
 43
1.0
176
     1
 76
     1
176
     1
 77
     6
176
     1
 78
     2
176
     1
 67
     7
176
     1
 79
     5
176
     1
170
     0
176
     1
171
     0
176
     1
290
     0
176
     1
 93
       13
176
     1
 44
0.0
176
     1
173
     0
176
     1
  0
VISUALSTYLE
  5
31
102
{ACAD_REACTORS
330
2A
102
}
102
{ACAD_XDICTIONARY
360
2FF
102
}
330
2A
100
AcDbVisualStyle
  2
Hidden
 70
     6
177
     2
291
     0
 71
     1
176
     1
 72
     2
176
     1
 73
     2
176
     1
 90
        0
176
     1
 40
0.6
176
     1
 41
30.0
176
     1
 62
     5
 63
     7
421
 16777215
176
     1
 74
     2
176
     1
 91
        2
176
     1
 64
     7
176
     1
 65
   257
176
     1
 75
     2
176
     1
175
     1
176
     1
 42
40.0
176
     1
 92
        0
176
     1
 66
   257
176
     1
 43
1.0
176
     1
 76
     1
176
     1
 77
     6
176
     1
 78
     2
176
     1
 67
     7
176
     1
 79
     3
176
     1
170
     0
176
     1
171
     0
176
     1
290
     0
176
     1
 93
        1
176
     1
 44
0.0
176
     1
173
     0
176
     1
  0
VISUALSTYLE
  5
3B
102
{ACAD_REACTORS
330
2A
102
}
102
{ACAD_XDICTIONARY
360
313
102
}
330
2A
100
AcDbVisualStyle
  2
JitterOff
 70
    20
177
     2
291
     1
 71
     2
176
     0
 72
     2
176
     0
 73
     0
176
     0
 90
        0
176
     0
 40
0.6
176
     0
 41
30.0
176
     0
 62
     5
 63
     7
421
 16777215
176
     0
 74
     1
176
     0
 91
        4
176
     0
 64
     7
176
     0
 65
   257
176
     0
 75
     1
176
     0
175
     1
176
     0
 42
1.0
176
     0
 92
       10
176
     2
 66
     7
176
     0
 43
1.0
176
     0
 76
     1
176
     0
 77
     6
176
     0
 78
     2
176
     0
 67
     7
176
     0
 79
     5
176
     0
170
     0
176
     0
171
     0
176
     0
290
     0
176
     0
 93
        1
176
     0
 44
0.0
176
     0
173
     0
176
     0
  0
VISUALSTYLE
  5
38
102
{ACAD_REACTORS
330
2A
102
}
102
{ACAD_XDICTIONARY
360
30D
102
}
330
2A
100
AcDbVisualStyle
  2
Linepattern
 70
    14
177
     2
291
     1
 71
     2
176
     1
 72
     2
176
     1
 73
     0
176
     1
 90
        0
176
     1
 40
0.6
176
     1
 41
30.0
176
     1
 62
     5
 63
     7
421
 16777215
176
     1
 74
     1
176
     1
 91
        4
176
     1
 64
     7
176
     1
 65
   257
176
     1
 75
     7
176
     1
175
     7
176
     1
 42
1.0
176
     1
 92
        8
176
     1
 66
     7
176
     1
 43
1.0
176
     1
 76
     1
176
     1
 77
     6
176
     1
 78
     2
176
     1
 67
     7
176
     1
 79
     5
176
     1
170
     0
176
     1
171
     0
176
     1
290
     0
176
     1
 93
        1
176
     1
 44
0.0
176
     1
173
     0
176
     1
  0
VISUALSTYLE
  5
3C
102
{ACAD_REACTORS
330
2A
102
}
102
{ACAD_XDICTIONARY
360
315
102
}
330
2A
100
AcDbVisualStyle
  2
OverhangOff
 70
    21
177
     2
291
     1
 71
     2
176
     0
 72
     2
176
     0
 73
     0
176
     0
 90
        0
176
     0
 40
0.6
176
     0
 41
30.0
176
     0
 62
     5
 63
     7
421
 16777215
176
     0
 74
     1
176
     0
 91
        4
176
     0
 64
     7
176
     0
 65
   257
176
     0
 75
     1
176
     0
175
     1
176
     0
 42
1.0
176
     0
 92
        9
176
     2
 66
     7
176
     0
 43
1.0
176
     0
 76
     1
176
     0
 77
     6
176
     0
 78
     2
176
     0
 67
     7
176
     0
 79
     5
176
     0
170
     0
176
     0
171
     0
176
     0
290
     0
176
     0
 93
        1
176
     0
 44
0.0
176
     0
173
     0
176
     0
  0
VISUALSTYLE
  5
33
102
{ACAD_REACTORS
330
2A
102
}
102
{ACAD_XDICTIONARY
360
303
102
}
330
2A
100
AcDbVisualStyle
  2
Realistic
 70
     8
177
     2
291
     0
 71
     2
176
     1
 72
     3
176
     1
 73
     0
176
     1
 90
        2
176
     1
 40
0.6
176
     1
 41
30.0
176
     1
 62
     5
 63
     7
421
 16777215
176
     1
 74
     0
176
     1
 91
        0
176
     1
 64
     7
176
     1
 65
   257
176
     1
 75
     1
176
     1
175
     1
176
     1
 42
1.0
176
     1
 92
        8
176
     1
 66
   257
176
     1
 43
1.0
176
     1
 76
     1
176
     1
 77
     6
176
     1
 78
     2
176
     1
 67
     7
176
     1
 79
     3
176
     1
170
     0
176
     1
171
     0
176
     1
290
     0
176
     1
 93
       13
176
     1
 44
0.0
176
     1
173
     0
176
     1
  0
VISUALSTYLE
  5
42
102
{ACAD_REACTORS
330
2A
102
}
102
{ACAD_XDICTIONARY
360
321
102
}
330
2A
100
AcDbVisualStyle
  2
Shaded
 70
    27
177
     2
291
     0
 71
     2
176
     1
 72
     2
176
     1
 73
     1
176
     1
 90
        2
176
     1
 40
0.6
176
     1
 41
30.0
176
     1
 62
     5
 63
     7
421
 16777215
176
     1
 74
     0
176
     1
 91
        4
176
     1
 64
     7
176
     1
 65
   257
176
     1
 75
     1
176
     1
175
     1
176
     1
 42
1.0
176
     1
 92
        8
176
     1
 66
   257
176
     1
 43
1.0
176
     1
 76
     1
176
     1
 77
     6
176
     1
 78
     2
176
     1
 67
     8
425
  7895160
176
     1
 79
     3
176
     1
170
     0
176
     1
171
     0
176
     1
290
     0
176
     1
 93
        5
176
     1
 44
0.0
176
     1
173
     0
176
     1
  0
VISUALSTYLE
  5
41
102
{ACAD_REACTORS
330
2A
102
}
102
{ACAD_XDICTIONARY
360
31F
102
}
330
2A
100
AcDbVisualStyle
  2
Shaded with edges
 70
    26
177
     2
291
     0
 71
     2
176
     1
 72
     2
176
     1
 73
     1
176
     1
 90
        2
176
     1
 40
0.6
176
     1
 41
30.0
176
     1
 62
     5
 63
     7
421
 16777215
176
     1
 74
     1
176
     1
 91
       10
176
     1
 64
     7
176
     1
 65
   257
176
     1
 75
     2
176
     1
175
     1
176
     1
 42
1.0
176
     1
 92
        8
176
     1
 66
   257
176
     1
 43
1.0
176
     1
 76
     1
176
     1
 77
     6
176
     1
 78
     2
176
     1
 67
     7
176
     1
 79
     3
176
     1
170
     0
176
     1
171
     0
176
     1
290
     0
176
     1
 93
        5
176
     1
 44
0.0
176
     1
173
     0
176
     1
  0
VISUALSTYLE
  5
3E
102
{ACAD_REACTORS
330
2A
102
}
102
{ACAD_XDICTIONARY
360
319
102
}
330
2A
100
AcDbVisualStyle
  2
Shades of Gray
 70
    23
177
     2
291
     0
 71
     2
176
     1
 72
     2
176
     1
 73
     3
176
     1
 90
        0
176
     1
 40
0.6
176
     1
 41
30.0
176
     1
 62
     5
 63
     7
421
 16777215
176
     1
 74
     2
176
     1
 91
        2
176
     1
 64
     7
176
     1
 65
     7
176
     1
 75
     1
176
     1
175
     1
176
     1
 42
40.0
176
     1
 92
        8
176
     1
 66
     7
176
     1
 43
1.0
176
     1
 76
     1
176
     1
 77
     6
176
     1
 78
     2
176
     1
 67
     7
176
     1
 79
     3
176
     1
170
     0
176
     1
171
     0
176
     1
290
     0
176
     1
 93
        1
176
     1
 44
0.0
176
     1
173
     0
176
     1
  0
VISUALSTYLE
  5
3F
102
{ACAD_REACTORS
330
2A
102
}
102
{ACAD_XDICTIONARY
360
31B
102
}
330
2A
100
AcDbVisualStyle
  2
Sketchy
 70
    24
177
     2
291
     0
 71
     1
176
     1
 72
     2
176
     1
 73
     2
176
     1
 90
        0
176
     1
 40
0.6
176
     1
 41
30.0
176
     1
 62
     5
 63
     7
421
 16777215
176
     1
 74
     2
176
     1
 91
        2
176
     1
 64
     7
176
     1
 65
     7
176
     1
 75
     1
176
     1
175
     1
176
     1
 42
40.0
176
     1
 92
       11
176
     1
 66
     7
176
     1
 43
1.0
176
     1
 76
     1
176
     1
 77
     6
176
     1
 78
     2
176
     1
 67
     7
176
     1
 79
     6
176
     1
170
     0
176
     1
171
     0
176
     1
290
     0
176
     1
 93
        1
176
     1
 44
0.0
176
     1
173
     0
176
     1
  0
VISUALSTYLE
  5
37
102
{ACAD_REACTORS
330
2A
102
}
102
{ACAD_XDICTIONARY
360
30B
102
}
330
2A
100
AcDbVisualStyle
  2
Thicken
 70
    13
177
     2
291
     1
 71
     2
176
     1
 72
     2
176
     1
 73
     0
176
     1
 90
        0
176
     1
 40
0.6
176
     1
 41
30.0
176
     1
 62
     5
 63
     7
421
 16777215
176
     1
 74
     1
176
     1
 91
        4
176
     1
 64
     7
176
     1
 65
   257
176
     1
 75
     1
176
     1
175
     1
176
     1
 42
1.0
176
     1
 92
       12
176
     1
 66
     7
176
     1
 43
1.0
176
     1
 76
     1
176
     1
 77
     6
176
     1
 78
     2
176
     1
 67
     7
176
     1
 79
     5
176
     1
170
     0
176
     1
171
     0
176
     1
290
     0
176
     1
 93
        1
176
     1
 44
0.0
176
     1
173
     0
176
     1
  0
VISUALSTYLE
  5
30
102
{ACAD_REACTORS
330
2A
102
}
102
{ACAD_XDICTIONARY
360
2FD
102
}
330
2A
100
AcDbVisualStyle
  2
Wireframe
 70
     5
177
     2
291
     0
 71
     0
176
     1
 72
     2
176
     1
 73
     0
176
     1
 90
        0
176
     1
 40
0.6
176
     1
 41
30.0
176
     1
 62
     5
 63
     7
421
 16777215
176
     1
 74
     1
176
     1
 91
        4
176
     1
 64
     7
176
     1
 65
   257
176
     1
 75
     1
176
     1
175
     1
176
     1
 42
1.0
176
     1
 92
        0
176
     1
 66
   257
176
     1
 43
1.0
176
     1
 76
     1
176
     1
 77
     6
176
     1
 78
     2
176
     1
 67
     7
176
     1
 79
     3
176
     1
170
     0
176
     1
171
     0
176
     1
290
     0
176
     1
 93
        1
176
     1
 44
0.0
176
     1
173
     0
176
     1
  0
VISUALSTYLE
  5
40
102
{ACAD_REACTORS
330
2A
102
}
102
{ACAD_XDICTIONARY
360
31D
102
}
330
2A
100
AcDbVisualStyle
  2
X-Ray
 70
    25
177
     2
291
     0
 71
     2
176
     1
 72
     2
176
     1
 73
     1
176
     1
 90
        1
176
     1
 40
0.5
176
     1
 41
30.0
176
     1
 62
     5
 63
     7
421
 16777215
176
     1
 74
     1
176
     1
 91
        0
176
     1
 64
     7
176
     1
 65
   257
176
     1
 75
     1
176
     1
175
     1
176
     1
 42
1.0
176
     1
 92
        8
176
     1
 66
     7
176
     1
 43
1.0
176
     1
 76
     1
176
     1
 77
     6
176
     1
 78
     2
176
     1
 67
     7
176
     1
 79
     3
176
     1
170
     0
176
     1
171
     0
176
     1
290
     0
176
     1
 93
       13
176
     1
 44
0.0
176
     1
173
     0
176
     1
  0
DICTIONARYVAR
  5
2F2
102
{ACAD_REACTORS
330
2F1
102
}
330
2F1
100
DictionaryVariables
280
     0
  1
1:1
  0
DICTIONARYVAR
  5
327
102
{ACAD_REACTORS
330
2F1
102
}
330
2F1
100
DictionaryVariables
280
     0
  1
Standard
  0
DICTIONARYVAR
  5
326
102
{ACAD_REACTORS
330
2F1
102
}
330
2F1
100
DictionaryVariables
280
     0
  1
Standard
  0
DICTIONARY
  5
323
330
6A
100
AcDbDictionary
280
     1
281
     1
  3
ACAD_ROUNDTRIP_2008_TABLESTYLE_CELLSTYLEMAP
360
324
  0
DICTIONARY
  5
2FB
330
2F
100
AcDbDictionary
280
     1
281
     1
  3
ACAD_XREC_ROUNDTRIP
360
2FC
  0
DICTIONARY
  5
301
330
32
100
AcDbDictionary
280
     1
281
     1
  3
ACAD_XREC_ROUNDTRIP
360
302
  0
DICTIONARY
  5
309
330
36
100
AcDbDictionary
280
     1
281
     1
  3
ACAD_XREC_ROUNDTRIP
360
30A
  0
DICTIONARY
  5
311
330
3A
100
AcDbDictionary
280
     1
281
     1
  3
ACAD_XREC_ROUNDTRIP
360
312
  0
DICTIONARY
  5
305
330
34
100
AcDbDictionary
280
     1
281
     1
  3
ACAD_XREC_ROUNDTRIP
360
306
  0
DICTIONARY
  5
307
330
35
100
AcDbDictionary
280
     1
281
     1
  3
ACAD_XREC_ROUNDTRIP
360
308
  0
DICTIONARY
  5
317
330
3D
100
AcDbDictionary
280
     1
281
     1
  3
ACAD_XREC_ROUNDTRIP
360
318
  0
DICTIONARY
  5
30F
330
39
100
AcDbDictionary
280
     1
281
     1
  3
ACAD_XREC_ROUNDTRIP
360
310
  0
DICTIONARY
  5
2F3
330
2B
100
AcDbDictionary
280
     1
281
     1
  3
ACAD_XREC_ROUNDTRIP
360
2F4
  0
DICTIONARY
  5
2F5
330
2C
100
AcDbDictionary
280
     1
281
     1
  3
ACAD_XREC_ROUNDTRIP
360
2F6
  0
DICTIONARY
  5
2F7
330
2D
100
AcDbDictionary
280
     1
281
     1
  3
ACAD_XREC_ROUNDTRIP
360
2F8
  0
DICTIONARY
  5
2F9
330
2E
100
AcDbDictionary
280
     1
281
     1
  3
ACAD_XREC_ROUNDTRIP
360
2FA
  0
DICTIONARY
  5
2FF
330
31
100
AcDbDictionary
280
     1
281
     1
  3
ACAD_XREC_ROUNDTRIP
360
300
  0
DICTIONARY
  5
313
330
3B
100
AcDbDictionary
280
     1
281
     1
  3
ACAD_XREC_ROUNDTRIP
360
314
  0
DICTIONARY
  5
30D
330
38
100
AcDbDictionary
280
     1
281
     1
  3
ACAD_XREC_ROUNDTRIP
360
30E
  0
DICTIONARY
  5
315
330
3C
100
AcDbDictionary
280
     1
281
     1
  3
ACAD_XREC_ROUNDTRIP
360
316
  0
DICTIONARY
  5
303
330
33
100
AcDbDictionary
280
     1
281
     1
  3
ACAD_XREC_ROUNDTRIP
360
304
  0
DICTIONARY
  5
321
330
42
100
AcDbDictionary
280
     1
281
     1
  3
ACAD_XREC_ROUNDTRIP
360
322
  0
DICTIONARY
  5
31F
330
41
100
AcDbDictionary
280
     1
281
     1
  3
ACAD_XREC_ROUNDTRIP
360
320
  0
DICTIONARY
  5
319
330
3E
100
AcDbDictionary
280
     1
281
     1
  3
ACAD_XREC_ROUNDTRIP
360
31A
  0
DICTIONARY
  5
31B
330
3F
100
AcDbDictionary
280
     1
281
     1
  3
ACAD_XREC_ROUNDTRIP
360
31C
  0
DICTIONARY
  5
30B
330
37
100
AcDbDictionary
280
     1
281
     1
  3
ACAD_XREC_ROUNDTRIP
360
30C
  0
DICTIONARY
  5
2FD
330
30
100
AcDbDictionary
280
     1
281
     1
  3
ACAD_XREC_ROUNDTRIP
360
2FE
  0
DICTIONARY
  5
31D
330
40
100
AcDbDictionary
280
     1
281
     1
  3
ACAD_XREC_ROUNDTRIP
360
31E
  0
CELLSTYLEMAP
  5
324
102
{ACAD_REACTORS
330
323
102
}
330
323
100
AcDbCellStyleMap
 90
        3
300
CELLSTYLE
  1
TABLEFORMAT_BEGIN
 90
        5
170
     1
 91
        0
 92
    32768
 62
   257
 93
        1
300
CONTENTFORMAT
  1
CONTENTFORMAT_BEGIN
 90
        0
 91
        0
 92
        4
 93
        0
300

 40
0.0
140
1.0
 94
        5
 62
     0
340
11
144
0.25
309
CONTENTFORMAT_END
171
     1
301
MARGIN
  1
CELLMARGIN_BEGIN
 40
0.06
 40
0.06
 40
0.06
 40
0.06
 40
0.06
 40
0.06
309
CELLMARGIN_END
 94
        6
 95
        1
302
GRIDFORMAT
  1
GRIDFORMAT_BEGIN
 90
        0
 91
        1
 62
     0
 92
       -2
340
14
 93
        0
 40
0.045
309
GRIDFORMAT_END
 95
        2
302
GRIDFORMAT
  1
GRIDFORMAT_BEGIN
 90
        0
 91
        1
 62
     0
 92
       -2
340
14
 93
        0
 40
0.045
309
GRIDFORMAT_END
 95
        4
302
GRIDFORMAT
  1
GRIDFORMAT_BEGIN
 90
        0
 91
        1
 62
     0
 92
       -2
340
14
 93
        0
 40
0.045
309
GRIDFORMAT_END
 95
        8
302
GRIDFORMAT
  1
GRIDFORMAT_BEGIN
 90
        0
 91
        1
 62
     0
 92
       -2
340
14
 93
        0
 40
0.045
309
GRIDFORMAT_END
 95
       16
302
GRIDFORMAT
  1
GRIDFORMAT_BEGIN
 90
        0
 91
        1
 62
     0
 92
       -2
340
14
 93
        0
 40
0.045
309
GRIDFORMAT_END
 95
       32
302
GRIDFORMAT
  1
GRIDFORMAT_BEGIN
 90
        0
 91
        1
 62
     0
 92
       -2
340
14
 93
        0
 40
0.045
309
GRIDFORMAT_END
309
TABLEFORMAT_END
  1
CELLSTYLE_BEGIN
 90
        1
 91
        1
300
_TITLE
309
CELLSTYLE_END
300
CELLSTYLE
  1
TABLEFORMAT_BEGIN
 90
        5
170
     1
 91
        0
 92
        0
 62
   257
 93
        1
300
CONTENTFORMAT
  1
CONTENTFORMAT_BEGIN
 90
        0
 91
        0
 92
        4
 93
        0
300

 40
0.0
140
1.0
 94
        5
 62
     0
340
11
144
0.18
309
CONTENTFORMAT_END
171
     1
301
MARGIN
  1
CELLMARGIN_BEGIN
 40
0.06
 40
0.06
 40
0.06
 40
0.06
 40
0.06
 40
0.06
309
CELLMARGIN_END
 94
        6
 95
        1
302
GRIDFORMAT
  1
GRIDFORMAT_BEGIN
 90
        0
 91
        1
 62
     0
 92
       -2
340
14
 93
        0
 40
0.045
309
GRIDFORMAT_END
 95
        2
302
GRIDFORMAT
  1
GRIDFORMAT_BEGIN
 90
        0
 91
        1
 62
     0
 92
       -2
340
14
 93
        0
 40
0.045
309
GRIDFORMAT_END
 95
        4
302
GRIDFORMAT
  1
GRIDFORMAT_BEGIN
 90
        0
 91
        1
 62
     0
 92
       -2
340
14
 93
        0
 40
0.045
309
GRIDFORMAT_END
 95
        8
302
GRIDFORMAT
  1
GRIDFORMAT_BEGIN
 90
        0
 91
        1
 62
     0
 92
       -2
340
14
 93
        0
 40
0.045
309
GRIDFORMAT_END
 95
       16
302
GRIDFORMAT
  1
GRIDFORMAT_BEGIN
 90
        0
 91
        1
 62
     0
 92
       -2
340
14
 93
        0
 40
0.045
309
GRIDFORMAT_END
 95
       32
302
GRIDFORMAT
  1
GRIDFORMAT_BEGIN
 90
        0
 91
        1
 62
     0
 92
       -2
340
14
 93
        0
 40
0.045
309
GRIDFORMAT_END
309
TABLEFORMAT_END
  1
CELLSTYLE_BEGIN
 90
        2
 91
        1
300
_HEADER
309
CELLSTYLE_END
300
CELLSTYLE
  1
TABLEFORMAT_BEGIN
 90
        5
170
     1
 91
        0
 92
        0
 62
   257
 93
        1
300
CONTENTFORMAT
  1
CONTENTFORMAT_BEGIN
 90
        0
 91
        0
 92
        4
 93
        0
300

 40
0.0
140
1.0
 94
        2
 62
     0
340
11
144
0.18
309
CONTENTFORMAT_END
171
     1
301
MARGIN
  1
CELLMARGIN_BEGIN
 40
0.06
 40
0.06
 40
0.06
 40
0.06
 40
0.06
 40
0.06
309
CELLMARGIN_END
 94
        6
 95
        1
302
GRIDFORMAT
  1
GRIDFORMAT_BEGIN
 90
        0
 91
        1
 62
     0
 92
       -2
340
14
 93
        0
 40
0.045
309
GRIDFORMAT_END
 95
        2
302
GRIDFORMAT
  1
GRIDFORMAT_BEGIN
 90
        0
 91
        1
 62
     0
 92
       -2
340
14
 93
        0
 40
0.045
309
GRIDFORMAT_END
 95
        4
302
GRIDFORMAT
  1
GRIDFORMAT_BEGIN
 90
        0
 91
        1
 62
     0
 92
       -2
340
14
 93
        0
 40
0.045
309
GRIDFORMAT_END
 95
        8
302
GRIDFORMAT
  1
GRIDFORMAT_BEGIN
 90
        0
 91
        1
 62
     0
 92
       -2
340
14
 93
        0
 40
0.045
309
GRIDFORMAT_END
 95
       16
302
GRIDFORMAT
  1
GRIDFORMAT_BEGIN
 90
        0
 91
        1
 62
     0
 92
       -2
340
14
 93
        0
 40
0.045
309
GRIDFORMAT_END
 95
       32
302
GRIDFORMAT
  1
GRIDFORMAT_BEGIN
 90
        0
 91
        1
 62
     0
 92
       -2
340
14
 93
        0
 40
0.045
309
GRIDFORMAT_END
309
TABLEFORMAT_END
  1
CELLSTYLE_BEGIN
 90
        3
 91
        2
300
_DATA
309
CELLSTYLE_END
  0
XRECORD
  5
2FC
102
{ACAD_REACTORS
330
2FB
102
}
330
2FB
100
AcDbXrecord
280
     1
102
RTVSPost2010Prop28
280
     1
102
RTVSPost2010PropOp28
 70
     1
102
RTVSPost2010Prop29
280
     1
102
RTVSPost2010PropOp29
 70
     1
102
RTVSPost2010Prop30
280
     0
102
RTVSPost2010PropOp30
 70
     1
102
RTVSPost2010Prop31
280
     0
102
RTVSPost2010PropOp31
 70
     1
102
RTVSPost2010Prop32
280
     0
102
RTVSPost2010PropOp32
 70
     1
102
RTVSPost2010Prop33
280
     0
102
RTVSPost2010PropOp33
 70
     1
102
RTVSPost2010Prop34
280
     0
102
RTVSPost2010PropOp34
 70
     1
102
RTVSPost2010Prop35
280
     0
102
RTVSPost2010PropOp35
 70
     1
102
RTVSPost2010Prop36
280
     0
102
RTVSPost2010PropOp36
 70
     1
102
RTVSPost2010Prop37
 90
       50
102
RTVSPost2010PropOp37
 70
     1
102
RTVSPost2010Prop38
140
0.0
102
RTVSPost2010PropOp38
 70
     1
102
RTVSPost2010Prop39
140
1.0
102
RTVSPost2010PropOp39
 70
     1
102
RTVSPost2010Prop40
 90
        0
102
RTVSPost2010PropOp40
 70
     1
102
RTVSPost2010Prop41ColorIndex
 90
       18
102
RTVSPost2010Prop41ColorRGB
 90
        0
102
RTVSPost2010PropOp41
 70
     1
102
RTVSPost2010Prop42
 90
       50
102
RTVSPost2010PropOp42
 70
     1
102
RTVSPost2010Prop43
 90
        3
102
RTVSPost2010PropOp43
 70
     1
102
RTVSPost2010Prop44ColorIndex
 90
        5
102
RTVSPost2010Prop44ColorRGB
 90
      255
102
RTVSPost2010PropOp44
 70
     1
102
RTVSPost2010Prop45
280
     0
102
RTVSPost2010PropOp45
 70
     1
102
RTVSPost2010Prop46
 90
       50
102
RTVSPost2010PropOp46
 70
     1
102
RTVSPost2010Prop47
 90
       50
102
RTVSPost2010PropOp47
 70
     1
102
RTVSPost2010Prop48
 90
       50
102
RTVSPost2010PropOp48
 70
     1
102
RTVSPost2010Prop49
280
     0
102
RTVSPost2010PropOp49
 70
     1
102
RTVSPost2010Prop50
 90
       50
102
RTVSPost2010PropOp50
 70
     1
102
RTVSPost2010Prop51ColorIndex
 90
      256
102
RTVSPost2010Prop51ColorRGB
 90
-16777216
102
RTVSPost2010PropOp51
 70
     0
102
RTVSPost2010Prop52
140
1.0
102
RTVSPost2010PropOp52
 70
     0
102
RTVSPost2010Prop53
 90
        2
102
RTVSPost2010PropOp53
 70
     1
102
RTVSPost2010Prop54
  1
strokes_ogs.tif
102
RTVSPost2010PropOp54
 70
     1
102
RTVSPost2010Prop55
280
     0
102
RTVSPost2010PropOp55
 70
     1
102
RTVSPost2010Prop56
140
1.0
102
RTVSPost2010PropOp56
 70
     1
102
RTVSPost2010Prop57
140
1.0
102
RTVSPost2010PropOp57
 70
     1
  0
XRECORD
  5
302
102
{ACAD_REACTORS
330
301
102
}
330
301
100
AcDbXrecord
280
     1
102
RTVSPost2010Prop28
280
     0
102
RTVSPost2010PropOp28
 70
     1
102
RTVSPost2010Prop29
280
     1
102
RTVSPost2010PropOp29
 70
     1
102
RTVSPost2010Prop30
280
     1
102
RTVSPost2010PropOp30
 70
     1
102
RTVSPost2010Prop31
280
     0
102
RTVSPost2010PropOp31
 70
     1
102
RTVSPost2010Prop32
280
     0
102
RTVSPost2010PropOp32
 70
     1
102
RTVSPost2010Prop33
280
     0
102
RTVSPost2010PropOp33
 70
     1
102
RTVSPost2010Prop34
280
     0
102
RTVSPost2010PropOp34
 70
     1
102
RTVSPost2010Prop35
280
     0
102
RTVSPost2010PropOp35
 70
     1
102
RTVSPost2010Prop36
280
     0
102
RTVSPost2010PropOp36
 70
     1
102
RTVSPost2010Prop37
 90
       50
102
RTVSPost2010PropOp37
 70
     1
102
RTVSPost2010Prop38
140
0.0
102
RTVSPost2010PropOp38
 70
     1
102
RTVSPost2010Prop39
140
1.0
102
RTVSPost2010PropOp39
 70
     1
102
RTVSPost2010Prop40
 90
        0
102
RTVSPost2010PropOp40
 70
     1
102
RTVSPost2010Prop41ColorIndex
 90
       18
102
RTVSPost2010Prop41ColorRGB
 90
        0
102
RTVSPost2010PropOp41
 70
     1
102
RTVSPost2010Prop42
 90
       50
102
RTVSPost2010PropOp42
 70
     1
102
RTVSPost2010Prop43
 90
        3
102
RTVSPost2010PropOp43
 70
     1
102
RTVSPost2010Prop44ColorIndex
 90
        5
102
RTVSPost2010Prop44ColorRGB
 90
      255
102
RTVSPost2010PropOp44
 70
     1
102
RTVSPost2010Prop45
280
     0
102
RTVSPost2010PropOp45
 70
     1
102
RTVSPost2010Prop46
 90
       50
102
RTVSPost2010PropOp46
 70
     1
102
RTVSPost2010Prop47
 90
       50
102
RTVSPost2010PropOp47
 70
     1
102
RTVSPost2010Prop48
 90
       50
102
RTVSPost2010PropOp48
 70
     1
102
RTVSPost2010Prop49
280
     0
102
RTVSPost2010PropOp49
 70
     1
102
RTVSPost2010Prop50
 90
       50
102
RTVSPost2010PropOp50
 70
     1
102
RTVSPost2010Prop51ColorIndex
 90
      256
102
RTVSPost2010Prop51ColorRGB
 90
-16777216
102
RTVSPost2010PropOp51
 70
     0
102
RTVSPost2010Prop52
140
1.0
102
RTVSPost2010PropOp52
 70
     0
102
RTVSPost2010Prop53
 90
        2
102
RTVSPost2010PropOp53
 70
     1
102
RTVSPost2010Prop54
  1
strokes_ogs.tif
102
RTVSPost2010PropOp54
 70
     1
102
RTVSPost2010Prop55
280
     0
102
RTVSPost2010PropOp55
 70
     1
102
RTVSPost2010Prop56
140
1.0
102
RTVSPost2010PropOp56
 70
     1
102
RTVSPost2010Prop57
140
1.0
102
RTVSPost2010PropOp57
 70
     1
  0
XRECORD
  5
30A
102
{ACAD_REACTORS
330
309
102
}
330
309
100
AcDbXrecord
280
     1
102
RTVSPost2010Prop28
280
     0
102
RTVSPost2010PropOp28
 70
     1
102
RTVSPost2010Prop29
280
     1
102
RTVSPost2010PropOp29
 70
     1
102
RTVSPost2010Prop30
280
     1
102
RTVSPost2010PropOp30
 70
     1
102
RTVSPost2010Prop31
280
     0
102
RTVSPost2010PropOp31
 70
     1
102
RTVSPost2010Prop32
280
     0
102
RTVSPost2010PropOp32
 70
     1
102
RTVSPost2010Prop33
280
     0
102
RTVSPost2010PropOp33
 70
     1
102
RTVSPost2010Prop34
280
     0
102
RTVSPost2010PropOp34
 70
     1
102
RTVSPost2010Prop35
280
     0
102
RTVSPost2010PropOp35
 70
     1
102
RTVSPost2010Prop36
280
     0
102
RTVSPost2010PropOp36
 70
     1
102
RTVSPost2010Prop37
 90
       50
102
RTVSPost2010PropOp37
 70
     1
102
RTVSPost2010Prop38
140
0.0
102
RTVSPost2010PropOp38
 70
     1
102
RTVSPost2010Prop39
140
1.0
102
RTVSPost2010PropOp39
 70
     1
102
RTVSPost2010Prop40
 90
        0
102
RTVSPost2010PropOp40
 70
     1
102
RTVSPost2010Prop41ColorIndex
 90
       18
102
RTVSPost2010Prop41ColorRGB
 90
        0
102
RTVSPost2010PropOp41
 70
     1
102
RTVSPost2010Prop42
 90
       50
102
RTVSPost2010PropOp42
 70
     1
102
RTVSPost2010Prop43
 90
        3
102
RTVSPost2010PropOp43
 70
     1
102
RTVSPost2010Prop44ColorIndex
 90
        5
102
RTVSPost2010Prop44ColorRGB
 90
      255
102
RTVSPost2010PropOp44
 70
     1
102
RTVSPost2010Prop45
280
     0
102
RTVSPost2010PropOp45
 70
     1
102
RTVSPost2010Prop46
 90
       50
102
RTVSPost2010PropOp46
 70
     1
102
RTVSPost2010Prop47
 90
       50
102
RTVSPost2010PropOp47
 70
     1
102
RTVSPost2010Prop48
 90
       50
102
RTVSPost2010PropOp48
 70
     1
102
RTVSPost2010Prop49
280
     0
102
RTVSPost2010PropOp49
 70
     1
102
RTVSPost2010Prop50
 90
       50
102
RTVSPost2010PropOp50
 70
     1
102
RTVSPost2010Prop51ColorIndex
 90
      256
102
RTVSPost2010Prop51ColorRGB
 90
-16777216
102
RTVSPost2010PropOp51
 70
     0
102
RTVSPost2010Prop52
140
1.0
102
RTVSPost2010PropOp52
 70
     0
102
RTVSPost2010Prop53
 90
        2
102
RTVSPost2010PropOp53
 70
     1
102
RTVSPost2010Prop54
  1
strokes_ogs.tif
102
RTVSPost2010PropOp54
 70
     1
102
RTVSPost2010Prop55
280
     0
102
RTVSPost2010PropOp55
 70
     1
102
RTVSPost2010Prop56
140
1.0
102
RTVSPost2010PropOp56
 70
     1
102
RTVSPost2010Prop57
140
1.0
102
RTVSPost2010PropOp57
 70
     1
  0
XRECORD
  5
312
102
{ACAD_REACTORS
330
311
102
}
330
311
100
AcDbXrecord
280
     1
102
RTVSPost2010Prop28
280
     0
102
RTVSPost2010PropOp28
 70
     1
102
RTVSPost2010Prop29
280
     1
102
RTVSPost2010PropOp29
 70
     1
102
RTVSPost2010Prop30
280
     1
102
RTVSPost2010PropOp30
 70
     1
102
RTVSPost2010Prop31
280
     0
102
RTVSPost2010PropOp31
 70
     1
102
RTVSPost2010Prop32
280
     0
102
RTVSPost2010PropOp32
 70
     1
102
RTVSPost2010Prop33
280
     0
102
RTVSPost2010PropOp33
 70
     1
102
RTVSPost2010Prop34
280
     0
102
RTVSPost2010PropOp34
 70
     1
102
RTVSPost2010Prop35
280
     0
102
RTVSPost2010PropOp35
 70
     1
102
RTVSPost2010Prop36
280
     0
102
RTVSPost2010PropOp36
 70
     1
102
RTVSPost2010Prop37
 90
       50
102
RTVSPost2010PropOp37
 70
     1
102
RTVSPost2010Prop38
140
0.0
102
RTVSPost2010PropOp38
 70
     1
102
RTVSPost2010Prop39
140
1.0
102
RTVSPost2010PropOp39
 70
     1
102
RTVSPost2010Prop40
 90
        0
102
RTVSPost2010PropOp40
 70
     1
102
RTVSPost2010Prop41ColorIndex
 90
       18
102
RTVSPost2010Prop41ColorRGB
 90
        0
102
RTVSPost2010PropOp41
 70
     1
102
RTVSPost2010Prop42
 90
       50
102
RTVSPost2010PropOp42
 70
     1
102
RTVSPost2010Prop43
 90
        3
102
RTVSPost2010PropOp43
 70
     1
102
RTVSPost2010Prop44ColorIndex
 90
        5
102
RTVSPost2010Prop44ColorRGB
 90
      255
102
RTVSPost2010PropOp44
 70
     1
102
RTVSPost2010Prop45
280
     0
102
RTVSPost2010PropOp45
 70
     1
102
RTVSPost2010Prop46
 90
       50
102
RTVSPost2010PropOp46
 70
     1
102
RTVSPost2010Prop47
 90
       50
102
RTVSPost2010PropOp47
 70
     1
102
RTVSPost2010Prop48
 90
       50
102
RTVSPost2010PropOp48
 70
     1
102
RTVSPost2010Prop49
280
     0
102
RTVSPost2010PropOp49
 70
     1
102
RTVSPost2010Prop50
 90
       50
102
RTVSPost2010PropOp50
 70
     1
102
RTVSPost2010Prop51ColorIndex
 90
      256
102
RTVSPost2010Prop51ColorRGB
 90
-16777216
102
RTVSPost2010PropOp51
 70
     0
102
RTVSPost2010Prop52
140
1.0
102
RTVSPost2010PropOp52
 70
     0
102
RTVSPost2010Prop53
 90
        2
102
RTVSPost2010PropOp53
 70
     1
102
RTVSPost2010Prop54
  1
strokes_ogs.tif
102
RTVSPost2010PropOp54
 70
     1
102
RTVSPost2010Prop55
280
     0
102
RTVSPost2010PropOp55
 70
     1
102
RTVSPost2010Prop56
140
1.0
102
RTVSPost2010PropOp56
 70
     1
102
RTVSPost2010Prop57
140
1.0
102
RTVSPost2010PropOp57
 70
     1
  0
XRECORD
  5
306
102
{ACAD_REACTORS
330
305
102
}
330
305
100
AcDbXrecord
280
     1
102
RTVSPost2010Prop28
280
     0
102
RTVSPost2010PropOp28
 70
     1
102
RTVSPost2010Prop29
280
     1
102
RTVSPost2010PropOp29
 70
     1
102
RTVSPost2010Prop30
280
     1
102
RTVSPost2010PropOp30
 70
     1
102
RTVSPost2010Prop31
280
     0
102
RTVSPost2010PropOp31
 70
     1
102
RTVSPost2010Prop32
280
     0
102
RTVSPost2010PropOp32
 70
     1
102
RTVSPost2010Prop33
280
     0
102
RTVSPost2010PropOp33
 70
     1
102
RTVSPost2010Prop34
280
     0
102
RTVSPost2010PropOp34
 70
     1
102
RTVSPost2010Prop35
280
     0
102
RTVSPost2010PropOp35
 70
     1
102
RTVSPost2010Prop36
280
     0
102
RTVSPost2010PropOp36
 70
     1
102
RTVSPost2010Prop37
 90
       50
102
RTVSPost2010PropOp37
 70
     1
102
RTVSPost2010Prop38
140
0.0
102
RTVSPost2010PropOp38
 70
     1
102
RTVSPost2010Prop39
140
1.0
102
RTVSPost2010PropOp39
 70
     1
102
RTVSPost2010Prop40
 90
        0
102
RTVSPost2010PropOp40
 70
     1
102
RTVSPost2010Prop41ColorIndex
 90
       18
102
RTVSPost2010Prop41ColorRGB
 90
        0
102
RTVSPost2010PropOp41
 70
     1
102
RTVSPost2010Prop42
 90
       50
102
RTVSPost2010PropOp42
 70
     1
102
RTVSPost2010Prop43
 90
        3
102
RTVSPost2010PropOp43
 70
     1
102
RTVSPost2010Prop44ColorIndex
 90
        5
102
RTVSPost2010Prop44ColorRGB
 90
      255
102
RTVSPost2010PropOp44
 70
     1
102
RTVSPost2010Prop45
280
     0
102
RTVSPost2010PropOp45
 70
     1
102
RTVSPost2010Prop46
 90
       50
102
RTVSPost2010PropOp46
 70
     1
102
RTVSPost2010Prop47
 90
       50
102
RTVSPost2010PropOp47
 70
     1
102
RTVSPost2010Prop48
 90
       50
102
RTVSPost2010PropOp48
 70
     1
102
RTVSPost2010Prop49
280
     0
102
RTVSPost2010PropOp49
 70
     1
102
RTVSPost2010Prop50
 90
       50
102
RTVSPost2010PropOp50
 70
     1
102
RTVSPost2010Prop51ColorIndex
 90
      256
102
RTVSPost2010Prop51ColorRGB
 90
-16777216
102
RTVSPost2010PropOp51
 70
     0
102
RTVSPost2010Prop52
140
1.0
102
RTVSPost2010PropOp52
 70
     0
102
RTVSPost2010Prop53
 90
        2
102
RTVSPost2010PropOp53
 70
     1
102
RTVSPost2010Prop54
  1
strokes_ogs.tif
102
RTVSPost2010PropOp54
 70
     1
102
RTVSPost2010Prop55
280
     0
102
RTVSPost2010PropOp55
 70
     1
102
RTVSPost2010Prop56
140
1.0
102
RTVSPost2010PropOp56
 70
     1
102
RTVSPost2010Prop57
140
1.0
102
RTVSPost2010PropOp57
 70
     1
  0
XRECORD
  5
308
102
{ACAD_REACTORS
330
307
102
}
330
307
100
AcDbXrecord
280
     1
102
RTVSPost2010Prop28
280
     0
102
RTVSPost2010PropOp28
 70
     1
102
RTVSPost2010Prop29
280
     1
102
RTVSPost2010PropOp29
 70
     1
102
RTVSPost2010Prop30
280
     1
102
RTVSPost2010PropOp30
 70
     1
102
RTVSPost2010Prop31
280
     0
102
RTVSPost2010PropOp31
 70
     1
102
RTVSPost2010Prop32
280
     0
102
RTVSPost2010PropOp32
 70
     1
102
RTVSPost2010Prop33
280
     0
102
RTVSPost2010PropOp33
 70
     1
102
RTVSPost2010Prop34
280
     0
102
RTVSPost2010PropOp34
 70
     1
102
RTVSPost2010Prop35
280
     0
102
RTVSPost2010PropOp35
 70
     1
102
RTVSPost2010Prop36
280
     0
102
RTVSPost2010PropOp36
 70
     1
102
RTVSPost2010Prop37
 90
       50
102
RTVSPost2010PropOp37
 70
     1
102
RTVSPost2010Prop38
140
0.0
102
RTVSPost2010PropOp38
 70
     1
102
RTVSPost2010Prop39
140
1.0
102
RTVSPost2010PropOp39
 70
     1
102
RTVSPost2010Prop40
 90
        0
102
RTVSPost2010PropOp40
 70
     1
102
RTVSPost2010Prop41ColorIndex
 90
       18
102
RTVSPost2010Prop41ColorRGB
 90
        0
102
RTVSPost2010PropOp41
 70
     1
102
RTVSPost2010Prop42
 90
       50
102
RTVSPost2010PropOp42
 70
     1
102
RTVSPost2010Prop43
 90
        3
102
RTVSPost2010PropOp43
 70
     1
102
RTVSPost2010Prop44ColorIndex
 90
        5
102
RTVSPost2010Prop44ColorRGB
 90
      255
102
RTVSPost2010PropOp44
 70
     1
102
RTVSPost2010Prop45
280
     0
102
RTVSPost2010PropOp45
 70
     1
102
RTVSPost2010Prop46
 90
       50
102
RTVSPost2010PropOp46
 70
     1
102
RTVSPost2010Prop47
 90
       50
102
RTVSPost2010PropOp47
 70
     1
102
RTVSPost2010Prop48
 90
       50
102
RTVSPost2010PropOp48
 70
     1
102
RTVSPost2010Prop49
280
     0
102
RTVSPost2010PropOp49
 70
     1
102
RTVSPost2010Prop50
 90
       50
102
RTVSPost2010PropOp50
 70
     1
102
RTVSPost2010Prop51ColorIndex
 90
      256
102
RTVSPost2010Prop51ColorRGB
 90
-16777216
102
RTVSPost2010PropOp51
 70
     0
102
RTVSPost2010Prop52
140
1.0
102
RTVSPost2010PropOp52
 70
     0
102
RTVSPost2010Prop53
 90
        2
102
RTVSPost2010PropOp53
 70
     1
102
RTVSPost2010Prop54
  1
strokes_ogs.tif
102
RTVSPost2010PropOp54
 70
     1
102
RTVSPost2010Prop55
280
     0
102
RTVSPost2010PropOp55
 70
     1
102
RTVSPost2010Prop56
140
1.0
102
RTVSPost2010PropOp56
 70
     1
102
RTVSPost2010Prop57
140
1.0
102
RTVSPost2010PropOp57
 70
     1
  0
XRECORD
  5
318
102
{ACAD_REACTORS
330
317
102
}
330
317
100
AcDbXrecord
280
     1
102
RTVSPost2010Prop28
280
     0
102
RTVSPost2010PropOp28
 70
     0
102
RTVSPost2010Prop29
280
     1
102
RTVSPost2010PropOp29
 70
     0
102
RTVSPost2010Prop30
280
     1
102
RTVSPost2010PropOp30
 70
     0
102
RTVSPost2010Prop31
280
     0
102
RTVSPost2010PropOp31
 70
     0
102
RTVSPost2010Prop32
280
     0
102
RTVSPost2010PropOp32
 70
     0
102
RTVSPost2010Prop33
280
     0
102
RTVSPost2010PropOp33
 70
     0
102
RTVSPost2010Prop34
280
     0
102
RTVSPost2010PropOp34
 70
     0
102
RTVSPost2010Prop35
280
     0
102
RTVSPost2010PropOp35
 70
     0
102
RTVSPost2010Prop36
280
     0
102
RTVSPost2010PropOp36
 70
     0
102
RTVSPost2010Prop37
 90
       50
102
RTVSPost2010PropOp37
 70
     0
102
RTVSPost2010Prop38
140
0.0
102
RTVSPost2010PropOp38
 70
     0
102
RTVSPost2010Prop39
140
1.0
102
RTVSPost2010PropOp39
 70
     0
102
RTVSPost2010Prop40
 90
        0
102
RTVSPost2010PropOp40
 70
     0
102
RTVSPost2010Prop41ColorIndex
 90
       18
102
RTVSPost2010Prop41ColorRGB
 90
        0
102
RTVSPost2010PropOp41
 70
     0
102
RTVSPost2010Prop42
 90
       50
102
RTVSPost2010PropOp42
 70
     0
102
RTVSPost2010Prop43
 90
        3
102
RTVSPost2010PropOp43
 70
     0
102
RTVSPost2010Prop44ColorIndex
 90
        5
102
RTVSPost2010Prop44ColorRGB
 90
      255
102
RTVSPost2010PropOp44
 70
     0
102
RTVSPost2010Prop45
280
     0
102
RTVSPost2010PropOp45
 70
     0
102
RTVSPost2010Prop46
 90
       50
102
RTVSPost2010PropOp46
 70
     0
102
RTVSPost2010Prop47
 90
       50
102
RTVSPost2010PropOp47
 70
     0
102
RTVSPost2010Prop48
 90
       50
102
RTVSPost2010PropOp48
 70
     0
102
RTVSPost2010Prop49
280
     0
102
RTVSPost2010PropOp49
 70
     0
102
RTVSPost2010Prop50
 90
       50
102
RTVSPost2010PropOp50
 70
     0
102
RTVSPost2010Prop51ColorIndex
 90
      256
102
RTVSPost2010Prop51ColorRGB
 90
-16777216
102
RTVSPost2010PropOp51
 70
     0
102
RTVSPost2010Prop52
140
1.0
102
RTVSPost2010PropOp52
 70
     0
102
RTVSPost2010Prop53
 90
        2
102
RTVSPost2010PropOp53
 70
     0
102
RTVSPost2010Prop54
  1
strokes_ogs.tif
102
RTVSPost2010PropOp54
 70
     0
102
RTVSPost2010Prop55
280
     0
102
RTVSPost2010PropOp55
 70
     0
102
RTVSPost2010Prop56
140
1.0
102
RTVSPost2010PropOp56
 70
     0
102
RTVSPost2010Prop57
140
1.0
102
RTVSPost2010PropOp57
 70
     0
  0
XRECORD
  5
310
102
{ACAD_REACTORS
330
30F
102
}
330
30F
100
AcDbXrecord
280
     1
102
RTVSPost2010Prop28
280
     0
102
RTVSPost2010PropOp28
 70
     1
102
RTVSPost2010Prop29
280
     1
102
RTVSPost2010PropOp29
 70
     1
102
RTVSPost2010Prop30
280
     1
102
RTVSPost2010PropOp30
 70
     1
102
RTVSPost2010Prop31
280
     0
102
RTVSPost2010PropOp31
 70
     1
102
RTVSPost2010Prop32
280
     0
102
RTVSPost2010PropOp32
 70
     1
102
RTVSPost2010Prop33
280
     0
102
RTVSPost2010PropOp33
 70
     1
102
RTVSPost2010Prop34
280
     0
102
RTVSPost2010PropOp34
 70
     1
102
RTVSPost2010Prop35
280
     0
102
RTVSPost2010PropOp35
 70
     1
102
RTVSPost2010Prop36
280
     0
102
RTVSPost2010PropOp36
 70
     1
102
RTVSPost2010Prop37
 90
       50
102
RTVSPost2010PropOp37
 70
     1
102
RTVSPost2010Prop38
140
0.0
102
RTVSPost2010PropOp38
 70
     1
102
RTVSPost2010Prop39
140
1.0
102
RTVSPost2010PropOp39
 70
     1
102
RTVSPost2010Prop40
 90
        0
102
RTVSPost2010PropOp40
 70
     1
102
RTVSPost2010Prop41ColorIndex
 90
       18
102
RTVSPost2010Prop41ColorRGB
 90
        0
102
RTVSPost2010PropOp41
 70
     1
102
RTVSPost2010Prop42
 90
       50
102
RTVSPost2010PropOp42
 70
     1
102
RTVSPost2010Prop43
 90
        3
102
RTVSPost2010PropOp43
 70
     1
102
RTVSPost2010Prop44ColorIndex
 90
        5
102
RTVSPost2010Prop44ColorRGB
 90
      255
102
RTVSPost2010PropOp44
 70
     1
102
RTVSPost2010Prop45
280
     0
102
RTVSPost2010PropOp45
 70
     1
102
RTVSPost2010Prop46
 90
       50
102
RTVSPost2010PropOp46
 70
     1
102
RTVSPost2010Prop47
 90
       50
102
RTVSPost2010PropOp47
 70
     1
102
RTVSPost2010Prop48
 90
       50
102
RTVSPost2010PropOp48
 70
     1
102
RTVSPost2010Prop49
280
     0
102
RTVSPost2010PropOp49
 70
     1
102
RTVSPost2010Prop50
 90
       50
102
RTVSPost2010PropOp50
 70
     1
102
RTVSPost2010Prop51ColorIndex
 90
      256
102
RTVSPost2010Prop51ColorRGB
 90
-16777216
102
RTVSPost2010PropOp51
 70
     0
102
RTVSPost2010Prop52
140
1.0
102
RTVSPost2010PropOp52
 70
     0
102
RTVSPost2010Prop53
 90
        2
102
RTVSPost2010PropOp53
 70
     1
102
RTVSPost2010Prop54
  1
strokes_ogs.tif
102
RTVSPost2010PropOp54
 70
     1
102
RTVSPost2010Prop55
280
     0
102
RTVSPost2010PropOp55
 70
     1
102
RTVSPost2010Prop56
140
1.0
102
RTVSPost2010PropOp56
 70
     1
102
RTVSPost2010Prop57
140
1.0
102
RTVSPost2010PropOp57
 70
     1
  0
XRECORD
  5
2F4
102
{ACAD_REACTORS
330
2F3
102
}
330
2F3
100
AcDbXrecord
280
     1
102
RTVSPost2010Prop28
280
     0
102
RTVSPost2010PropOp28
 70
     1
102
RTVSPost2010Prop29
280
     1
102
RTVSPost2010PropOp29
 70
     1
102
RTVSPost2010Prop30
280
     1
102
RTVSPost2010PropOp30
 70
     1
102
RTVSPost2010Prop31
280
     0
102
RTVSPost2010PropOp31
 70
     1
102
RTVSPost2010Prop32
280
     0
102
RTVSPost2010PropOp32
 70
     1
102
RTVSPost2010Prop33
280
     0
102
RTVSPost2010PropOp33
 70
     1
102
RTVSPost2010Prop34
280
     0
102
RTVSPost2010PropOp34
 70
     1
102
RTVSPost2010Prop35
280
     0
102
RTVSPost2010PropOp35
 70
     1
102
RTVSPost2010Prop36
280
     0
102
RTVSPost2010PropOp36
 70
     1
102
RTVSPost2010Prop37
 90
       50
102
RTVSPost2010PropOp37
 70
     1
102
RTVSPost2010Prop38
140
0.0
102
RTVSPost2010PropOp38
 70
     1
102
RTVSPost2010Prop39
140
1.0
102
RTVSPost2010PropOp39
 70
     1
102
RTVSPost2010Prop40
 90
        0
102
RTVSPost2010PropOp40
 70
     1
102
RTVSPost2010Prop41ColorIndex
 90
       18
102
RTVSPost2010Prop41ColorRGB
 90
        0
102
RTVSPost2010PropOp41
 70
     1
102
RTVSPost2010Prop42
 90
       50
102
RTVSPost2010PropOp42
 70
     1
102
RTVSPost2010Prop43
 90
        3
102
RTVSPost2010PropOp43
 70
     1
102
RTVSPost2010Prop44ColorIndex
 90
        5
102
RTVSPost2010Prop44ColorRGB
 90
      255
102
RTVSPost2010PropOp44
 70
     1
102
RTVSPost2010Prop45
280
     0
102
RTVSPost2010PropOp45
 70
     1
102
RTVSPost2010Prop46
 90
       50
102
RTVSPost2010PropOp46
 70
     1
102
RTVSPost2010Prop47
 90
       50
102
RTVSPost2010PropOp47
 70
     1
102
RTVSPost2010Prop48
 90
       50
102
RTVSPost2010PropOp48
 70
     1
102
RTVSPost2010Prop49
280
     0
102
RTVSPost2010PropOp49
 70
     1
102
RTVSPost2010Prop50
 90
       50
102
RTVSPost2010PropOp50
 70
     1
102
RTVSPost2010Prop51ColorIndex
 90
      256
102
RTVSPost2010Prop51ColorRGB
 90
-16777216
102
RTVSPost2010PropOp51
 70
     0
102
RTVSPost2010Prop52
140
1.0
102
RTVSPost2010PropOp52
 70
     0
102
RTVSPost2010Prop53
 90
        2
102
RTVSPost2010PropOp53
 70
     1
102
RTVSPost2010Prop54
  1
strokes_ogs.tif
102
RTVSPost2010PropOp54
 70
     1
102
RTVSPost2010Prop55
280
     0
102
RTVSPost2010PropOp55
 70
     1
102
RTVSPost2010Prop56
140
1.0
102
RTVSPost2010PropOp56
 70
     1
102
RTVSPost2010Prop57
140
1.0
102
RTVSPost2010PropOp57
 70
     1
  0
XRECORD
  5
2F6
102
{ACAD_REACTORS
330
2F5
102
}
330
2F5
100
AcDbXrecord
280
     1
102
RTVSPost2010Prop28
280
     0
102
RTVSPost2010PropOp28
 70
     1
102
RTVSPost2010Prop29
280
     1
102
RTVSPost2010PropOp29
 70
     1
102
RTVSPost2010Prop30
280
     1
102
RTVSPost2010PropOp30
 70
     1
102
RTVSPost2010Prop31
280
     0
102
RTVSPost2010PropOp31
 70
     1
102
RTVSPost2010Prop32
280
     0
102
RTVSPost2010PropOp32
 70
     1
102
RTVSPost2010Prop33
280
     0
102
RTVSPost2010PropOp33
 70
     1
102
RTVSPost2010Prop34
280
     0
102
RTVSPost2010PropOp34
 70
     1
102
RTVSPost2010Prop35
280
     0
102
RTVSPost2010PropOp35
 70
     1
102
RTVSPost2010Prop36
280
     0
102
RTVSPost2010PropOp36
 70
     1
102
RTVSPost2010Prop37
 90
       50
102
RTVSPost2010PropOp37
 70
     1
102
RTVSPost2010Prop38
140
0.0
102
RTVSPost2010PropOp38
 70
     1
102
RTVSPost2010Prop39
140
1.0
102
RTVSPost2010PropOp39
 70
     1
102
RTVSPost2010Prop40
 90
        0
102
RTVSPost2010PropOp40
 70
     1
102
RTVSPost2010Prop41ColorIndex
 90
       18
102
RTVSPost2010Prop41ColorRGB
 90
        0
102
RTVSPost2010PropOp41
 70
     1
102
RTVSPost2010Prop42
 90
       50
102
RTVSPost2010PropOp42
 70
     1
102
RTVSPost2010Prop43
 90
        3
102
RTVSPost2010PropOp43
 70
     1
102
RTVSPost2010Prop44ColorIndex
 90
        5
102
RTVSPost2010Prop44ColorRGB
 90
      255
102
RTVSPost2010PropOp44
 70
     1
102
RTVSPost2010Prop45
280
     0
102
RTVSPost2010PropOp45
 70
     1
102
RTVSPost2010Prop46
 90
       50
102
RTVSPost2010PropOp46
 70
     1
102
RTVSPost2010Prop47
 90
       50
102
RTVSPost2010PropOp47
 70
     1
102
RTVSPost2010Prop48
 90
       50
102
RTVSPost2010PropOp48
 70
     1
102
RTVSPost2010Prop49
280
     0
102
RTVSPost2010PropOp49
 70
     1
102
RTVSPost2010Prop50
 90
       50
102
RTVSPost2010PropOp50
 70
     1
102
RTVSPost2010Prop51ColorIndex
 90
      256
102
RTVSPost2010Prop51ColorRGB
 90
-16777216
102
RTVSPost2010PropOp51
 70
     0
102
RTVSPost2010Prop52
140
1.0
102
RTVSPost2010PropOp52
 70
     0
102
RTVSPost2010Prop53
 90
        2
102
RTVSPost2010PropOp53
 70
     1
102
RTVSPost2010Prop54
  1
strokes_ogs.tif
102
RTVSPost2010PropOp54
 70
     1
102
RTVSPost2010Prop55
280
     0
102
RTVSPost2010PropOp55
 70
     1
102
RTVSPost2010Prop56
140
1.0
102
RTVSPost2010PropOp56
 70
     1
102
RTVSPost2010Prop57
140
1.0
102
RTVSPost2010PropOp57
 70
     1
  0
XRECORD
  5
2F8
102
{ACAD_REACTORS
330
2F7
102
}
330
2F7
100
AcDbXrecord
280
     1
102
RTVSPost2010Prop28
280
     0
102
RTVSPost2010PropOp28
 70
     1
102
RTVSPost2010Prop29
280
     1
102
RTVSPost2010PropOp29
 70
     1
102
RTVSPost2010Prop30
280
     1
102
RTVSPost2010PropOp30
 70
     1
102
RTVSPost2010Prop31
280
     0
102
RTVSPost2010PropOp31
 70
     1
102
RTVSPost2010Prop32
280
     0
102
RTVSPost2010PropOp32
 70
     1
102
RTVSPost2010Prop33
280
     0
102
RTVSPost2010PropOp33
 70
     1
102
RTVSPost2010Prop34
280
     0
102
RTVSPost2010PropOp34
 70
     1
102
RTVSPost2010Prop35
280
     0
102
RTVSPost2010PropOp35
 70
     1
102
RTVSPost2010Prop36
280
     0
102
RTVSPost2010PropOp36
 70
     1
102
RTVSPost2010Prop37
 90
       50
102
RTVSPost2010PropOp37
 70
     1
102
RTVSPost2010Prop38
140
0.0
102
RTVSPost2010PropOp38
 70
     1
102
RTVSPost2010Prop39
140
1.0
102
RTVSPost2010PropOp39
 70
     1
102
RTVSPost2010Prop40
 90
        0
102
RTVSPost2010PropOp40
 70
     1
102
RTVSPost2010Prop41ColorIndex
 90
       18
102
RTVSPost2010Prop41ColorRGB
 90
        0
102
RTVSPost2010PropOp41
 70
     1
102
RTVSPost2010Prop42
 90
       50
102
RTVSPost2010PropOp42
 70
     1
102
RTVSPost2010Prop43
 90
        3
102
RTVSPost2010PropOp43
 70
     1
102
RTVSPost2010Prop44ColorIndex
 90
        5
102
RTVSPost2010Prop44ColorRGB
 90
      255
102
RTVSPost2010PropOp44
 70
     1
102
RTVSPost2010Prop45
280
     0
102
RTVSPost2010PropOp45
 70
     1
102
RTVSPost2010Prop46
 90
       50
102
RTVSPost2010PropOp46
 70
     1
102
RTVSPost2010Prop47
 90
       50
102
RTVSPost2010PropOp47
 70
     1
102
RTVSPost2010Prop48
 90
       50
102
RTVSPost2010PropOp48
 70
     1
102
RTVSPost2010Prop49
280
     0
102
RTVSPost2010PropOp49
 70
     1
102
RTVSPost2010Prop50
 90
       50
102
RTVSPost2010PropOp50
 70
     1
102
RTVSPost2010Prop51ColorIndex
 90
      256
102
RTVSPost2010Prop51ColorRGB
 90
-16777216
102
RTVSPost2010PropOp51
 70
     0
102
RTVSPost2010Prop52
140
1.0
102
RTVSPost2010PropOp52
 70
     0
102
RTVSPost2010Prop53
 90
        2
102
RTVSPost2010PropOp53
 70
     1
102
RTVSPost2010Prop54
  1
strokes_ogs.tif
102
RTVSPost2010PropOp54
 70
     1
102
RTVSPost2010Prop55
280
     0
102
RTVSPost2010PropOp55
 70
     1
102
RTVSPost2010Prop56
140
1.0
102
RTVSPost2010PropOp56
 70
     1
102
RTVSPost2010Prop57
140
1.0
102
RTVSPost2010PropOp57
 70
     1
  0
XRECORD
  5
2FA
102
{ACAD_REACTORS
330
2F9
102
}
330
2F9
100
AcDbXrecord
280
     1
102
RTVSPost2010Prop28
280
     0
102
RTVSPost2010PropOp28
 70
     1
102
RTVSPost2010Prop29
280
     1
102
RTVSPost2010PropOp29
 70
     1
102
RTVSPost2010Prop30
280
     1
102
RTVSPost2010PropOp30
 70
     1
102
RTVSPost2010Prop31
280
     0
102
RTVSPost2010PropOp31
 70
     1
102
RTVSPost2010Prop32
280
     0
102
RTVSPost2010PropOp32
 70
     1
102
RTVSPost2010Prop33
280
     0
102
RTVSPost2010PropOp33
 70
     1
102
RTVSPost2010Prop34
280
     0
102
RTVSPost2010PropOp34
 70
     1
102
RTVSPost2010Prop35
280
     0
102
RTVSPost2010PropOp35
 70
     1
102
RTVSPost2010Prop36
280
     0
102
RTVSPost2010PropOp36
 70
     1
102
RTVSPost2010Prop37
 90
       50
102
RTVSPost2010PropOp37
 70
     1
102
RTVSPost2010Prop38
140
0.0
102
RTVSPost2010PropOp38
 70
     1
102
RTVSPost2010Prop39
140
1.0
102
RTVSPost2010PropOp39
 70
     1
102
RTVSPost2010Prop40
 90
        0
102
RTVSPost2010PropOp40
 70
     1
102
RTVSPost2010Prop41ColorIndex
 90
       18
102
RTVSPost2010Prop41ColorRGB
 90
        0
102
RTVSPost2010PropOp41
 70
     1
102
RTVSPost2010Prop42
 90
       50
102
RTVSPost2010PropOp42
 70
     1
102
RTVSPost2010Prop43
 90
        3
102
RTVSPost2010PropOp43
 70
     1
102
RTVSPost2010Prop44ColorIndex
 90
        5
102
RTVSPost2010Prop44ColorRGB
 90
      255
102
RTVSPost2010PropOp44
 70
     1
102
RTVSPost2010Prop45
280
     0
102
RTVSPost2010PropOp45
 70
     1
102
RTVSPost2010Prop46
 90
       50
102
RTVSPost2010PropOp46
 70
     1
102
RTVSPost2010Prop47
 90
       50
102
RTVSPost2010PropOp47
 70
     1
102
RTVSPost2010Prop48
 90
       50
102
RTVSPost2010PropOp48
 70
     1
102
RTVSPost2010Prop49
280
     0
102
RTVSPost2010PropOp49
 70
     1
102
RTVSPost2010Prop50
 90
       50
102
RTVSPost2010PropOp50
 70
     1
102
RTVSPost2010Prop51ColorIndex
 90
      256
102
RTVSPost2010Prop51ColorRGB
 90
-16777216
102
RTVSPost2010PropOp51
 70
     0
102
RTVSPost2010Prop52
140
1.0
102
RTVSPost2010PropOp52
 70
     0
102
RTVSPost2010Prop53
 90
        2
102
RTVSPost2010PropOp53
 70
     1
102
RTVSPost2010Prop54
  1
strokes_ogs.tif
102
RTVSPost2010PropOp54
 70
     1
102
RTVSPost2010Prop55
280
     0
102
RTVSPost2010PropOp55
 70
     1
102
RTVSPost2010Prop56
140
1.0
102
RTVSPost2010PropOp56
 70
     1
102
RTVSPost2010Prop57
140
1.0
102
RTVSPost2010PropOp57
 70
     1
  0
XRECORD
  5
300
102
{ACAD_REACTORS
330
2FF
102
}
330
2FF
100
AcDbXrecord
280
     1
102
RTVSPost2010Prop28
280
     0
102
RTVSPost2010PropOp28
 70
     1
102
RTVSPost2010Prop29
280
     1
102
RTVSPost2010PropOp29
 70
     1
102
RTVSPost2010Prop30
280
     1
102
RTVSPost2010PropOp30
 70
     1
102
RTVSPost2010Prop31
280
     0
102
RTVSPost2010PropOp31
 70
     1
102
RTVSPost2010Prop32
280
     0
102
RTVSPost2010PropOp32
 70
     1
102
RTVSPost2010Prop33
280
     0
102
RTVSPost2010PropOp33
 70
     1
102
RTVSPost2010Prop34
280
     0
102
RTVSPost2010PropOp34
 70
     1
102
RTVSPost2010Prop35
280
     0
102
RTVSPost2010PropOp35
 70
     1
102
RTVSPost2010Prop36
280
     0
102
RTVSPost2010PropOp36
 70
     1
102
RTVSPost2010Prop37
 90
       50
102
RTVSPost2010PropOp37
 70
     1
102
RTVSPost2010Prop38
140
0.0
102
RTVSPost2010PropOp38
 70
     1
102
RTVSPost2010Prop39
140
1.0
102
RTVSPost2010PropOp39
 70
     1
102
RTVSPost2010Prop40
 90
        0
102
RTVSPost2010PropOp40
 70
     1
102
RTVSPost2010Prop41ColorIndex
 90
       18
102
RTVSPost2010Prop41ColorRGB
 90
        0
102
RTVSPost2010PropOp41
 70
     1
102
RTVSPost2010Prop42
 90
       50
102
RTVSPost2010PropOp42
 70
     1
102
RTVSPost2010Prop43
 90
        3
102
RTVSPost2010PropOp43
 70
     1
102
RTVSPost2010Prop44ColorIndex
 90
        5
102
RTVSPost2010Prop44ColorRGB
 90
      255
102
RTVSPost2010PropOp44
 70
     1
102
RTVSPost2010Prop45
280
     0
102
RTVSPost2010PropOp45
 70
     1
102
RTVSPost2010Prop46
 90
       50
102
RTVSPost2010PropOp46
 70
     1
102
RTVSPost2010Prop47
 90
       50
102
RTVSPost2010PropOp47
 70
     1
102
RTVSPost2010Prop48
 90
       50
102
RTVSPost2010PropOp48
 70
     1
102
RTVSPost2010Prop49
280
     0
102
RTVSPost2010PropOp49
 70
     1
102
RTVSPost2010Prop50
 90
       50
102
RTVSPost2010PropOp50
 70
     1
102
RTVSPost2010Prop51ColorIndex
 90
      256
102
RTVSPost2010Prop51ColorRGB
 90
-16777216
102
RTVSPost2010PropOp51
 70
     0
102
RTVSPost2010Prop52
140
1.0
102
RTVSPost2010PropOp52
 70
     0
102
RTVSPost2010Prop53
 90
        2
102
RTVSPost2010PropOp53
 70
     1
102
RTVSPost2010Prop54
  1
strokes_ogs.tif
102
RTVSPost2010PropOp54
 70
     1
102
RTVSPost2010Prop55
280
     0
102
RTVSPost2010PropOp55
 70
     1
102
RTVSPost2010Prop56
140
1.0
102
RTVSPost2010PropOp56
 70
     1
102
RTVSPost2010Prop57
140
1.0
102
RTVSPost2010PropOp57
 70
     1
  0
XRECORD
  5
314
102
{ACAD_REACTORS
330
313
102
}
330
313
100
AcDbXrecord
280
     1
102
RTVSPost2010Prop28
280
     0
102
RTVSPost2010PropOp28
 70
     0
102
RTVSPost2010Prop29
280
     1
102
RTVSPost2010PropOp29
 70
     0
102
RTVSPost2010Prop30
280
     1
102
RTVSPost2010PropOp30
 70
     0
102
RTVSPost2010Prop31
280
     0
102
RTVSPost2010PropOp31
 70
     0
102
RTVSPost2010Prop32
280
     0
102
RTVSPost2010PropOp32
 70
     0
102
RTVSPost2010Prop33
280
     0
102
RTVSPost2010PropOp33
 70
     0
102
RTVSPost2010Prop34
280
     0
102
RTVSPost2010PropOp34
 70
     0
102
RTVSPost2010Prop35
280
     0
102
RTVSPost2010PropOp35
 70
     0
102
RTVSPost2010Prop36
280
     0
102
RTVSPost2010PropOp36
 70
     0
102
RTVSPost2010Prop37
 90
       50
102
RTVSPost2010PropOp37
 70
     0
102
RTVSPost2010Prop38
140
0.0
102
RTVSPost2010PropOp38
 70
     0
102
RTVSPost2010Prop39
140
1.0
102
RTVSPost2010PropOp39
 70
     0
102
RTVSPost2010Prop40
 90
        0
102
RTVSPost2010PropOp40
 70
     0
102
RTVSPost2010Prop41ColorIndex
 90
       18
102
RTVSPost2010Prop41ColorRGB
 90
        0
102
RTVSPost2010PropOp41
 70
     0
102
RTVSPost2010Prop42
 90
       50
102
RTVSPost2010PropOp42
 70
     0
102
RTVSPost2010Prop43
 90
        3
102
RTVSPost2010PropOp43
 70
     0
102
RTVSPost2010Prop44ColorIndex
 90
        5
102
RTVSPost2010Prop44ColorRGB
 90
      255
102
RTVSPost2010PropOp44
 70
     0
102
RTVSPost2010Prop45
280
     0
102
RTVSPost2010PropOp45
 70
     0
102
RTVSPost2010Prop46
 90
       50
102
RTVSPost2010PropOp46
 70
     0
102
RTVSPost2010Prop47
 90
       50
102
RTVSPost2010PropOp47
 70
     0
102
RTVSPost2010Prop48
 90
       50
102
RTVSPost2010PropOp48
 70
     0
102
RTVSPost2010Prop49
280
     0
102
RTVSPost2010PropOp49
 70
     0
102
RTVSPost2010Prop50
 90
       50
102
RTVSPost2010PropOp50
 70
     0
102
RTVSPost2010Prop51ColorIndex
 90
      256
102
RTVSPost2010Prop51ColorRGB
 90
-16777216
102
RTVSPost2010PropOp51
 70
     0
102
RTVSPost2010Prop52
140
1.0
102
RTVSPost2010PropOp52
 70
     0
102
RTVSPost2010Prop53
 90
        2
102
RTVSPost2010PropOp53
 70
     0
102
RTVSPost2010Prop54
  1
strokes_ogs.tif
102
RTVSPost2010PropOp54
 70
     0
102
RTVSPost2010Prop55
280
     0
102
RTVSPost2010PropOp55
 70
     0
102
RTVSPost2010Prop56
140
1.0
102
RTVSPost2010PropOp56
 70
     0
102
RTVSPost2010Prop57
140
1.0
102
RTVSPost2010PropOp57
 70
     0
  0
XRECORD
  5
30E
102
{ACAD_REACTORS
330
30D
102
}
330
30D
100
AcDbXrecord
280
     1
102
RTVSPost2010Prop28
280
     0
102
RTVSPost2010PropOp28
 70
     1
102
RTVSPost2010Prop29
280
     1
102
RTVSPost2010PropOp29
 70
     1
102
RTVSPost2010Prop30
280
     1
102
RTVSPost2010PropOp30
 70
     1
102
RTVSPost2010Prop31
280
     0
102
RTVSPost2010PropOp31
 70
     1
102
RTVSPost2010Prop32
280
     0
102
RTVSPost2010PropOp32
 70
     1
102
RTVSPost2010Prop33
280
     0
102
RTVSPost2010PropOp33
 70
     1
102
RTVSPost2010Prop34
280
     0
102
RTVSPost2010PropOp34
 70
     1
102
RTVSPost2010Prop35
280
     0
102
RTVSPost2010PropOp35
 70
     1
102
RTVSPost2010Prop36
280
     0
102
RTVSPost2010PropOp36
 70
     1
102
RTVSPost2010Prop37
 90
       50
102
RTVSPost2010PropOp37
 70
     1
102
RTVSPost2010Prop38
140
0.0
102
RTVSPost2010PropOp38
 70
     1
102
RTVSPost2010Prop39
140
1.0
102
RTVSPost2010PropOp39
 70
     1
102
RTVSPost2010Prop40
 90
        0
102
RTVSPost2010PropOp40
 70
     1
102
RTVSPost2010Prop41ColorIndex
 90
       18
102
RTVSPost2010Prop41ColorRGB
 90
        0
102
RTVSPost2010PropOp41
 70
     1
102
RTVSPost2010Prop42
 90
       50
102
RTVSPost2010PropOp42
 70
     1
102
RTVSPost2010Prop43
 90
        3
102
RTVSPost2010PropOp43
 70
     1
102
RTVSPost2010Prop44ColorIndex
 90
        5
102
RTVSPost2010Prop44ColorRGB
 90
      255
102
RTVSPost2010PropOp44
 70
     1
102
RTVSPost2010Prop45
280
     0
102
RTVSPost2010PropOp45
 70
     1
102
RTVSPost2010Prop46
 90
       50
102
RTVSPost2010PropOp46
 70
     1
102
RTVSPost2010Prop47
 90
       50
102
RTVSPost2010PropOp47
 70
     1
102
RTVSPost2010Prop48
 90
       50
102
RTVSPost2010PropOp48
 70
     1
102
RTVSPost2010Prop49
280
     0
102
RTVSPost2010PropOp49
 70
     1
102
RTVSPost2010Prop50
 90
       50
102
RTVSPost2010PropOp50
 70
     1
102
RTVSPost2010Prop51ColorIndex
 90
      256
102
RTVSPost2010Prop51ColorRGB
 90
-16777216
102
RTVSPost2010PropOp51
 70
     0
102
RTVSPost2010Prop52
140
1.0
102
RTVSPost2010PropOp52
 70
     0
102
RTVSPost2010Prop53
 90
        2
102
RTVSPost2010PropOp53
 70
     1
102
RTVSPost2010Prop54
  1
strokes_ogs.tif
102
RTVSPost2010PropOp54
 70
     1
102
RTVSPost2010Prop55
280
     0
102
RTVSPost2010PropOp55
 70
     1
102
RTVSPost2010Prop56
140
1.0
102
RTVSPost2010PropOp56
 70
     1
102
RTVSPost2010Prop57
140
1.0
102
RTVSPost2010PropOp57
 70
     1
  0
XRECORD
  5
316
102
{ACAD_REACTORS
330
315
102
}
330
315
100
AcDbXrecord
280
     1
102
RTVSPost2010Prop28
280
     0
102
RTVSPost2010PropOp28
 70
     0
102
RTVSPost2010Prop29
280
     1
102
RTVSPost2010PropOp29
 70
     0
102
RTVSPost2010Prop30
280
     1
102
RTVSPost2010PropOp30
 70
     0
102
RTVSPost2010Prop31
280
     0
102
RTVSPost2010PropOp31
 70
     0
102
RTVSPost2010Prop32
280
     0
102
RTVSPost2010PropOp32
 70
     0
102
RTVSPost2010Prop33
280
     0
102
RTVSPost2010PropOp33
 70
     0
102
RTVSPost2010Prop34
280
     0
102
RTVSPost2010PropOp34
 70
     0
102
RTVSPost2010Prop35
280
     0
102
RTVSPost2010PropOp35
 70
     0
102
RTVSPost2010Prop36
280
     0
102
RTVSPost2010PropOp36
 70
     0
102
RTVSPost2010Prop37
 90
       50
102
RTVSPost2010PropOp37
 70
     0
102
RTVSPost2010Prop38
140
0.0
102
RTVSPost2010PropOp38
 70
     0
102
RTVSPost2010Prop39
140
1.0
102
RTVSPost2010PropOp39
 70
     0
102
RTVSPost2010Prop40
 90
        0
102
RTVSPost2010PropOp40
 70
     0
102
RTVSPost2010Prop41ColorIndex
 90
       18
102
RTVSPost2010Prop41ColorRGB
 90
        0
102
RTVSPost2010PropOp41
 70
     0
102
RTVSPost2010Prop42
 90
       50
102
RTVSPost2010PropOp42
 70
     0
102
RTVSPost2010Prop43
 90
        3
102
RTVSPost2010PropOp43
 70
     0
102
RTVSPost2010Prop44ColorIndex
 90
        5
102
RTVSPost2010Prop44ColorRGB
 90
      255
102
RTVSPost2010PropOp44
 70
     0
102
RTVSPost2010Prop45
280
     0
102
RTVSPost2010PropOp45
 70
     0
102
RTVSPost2010Prop46
 90
       50
102
RTVSPost2010PropOp46
 70
     0
102
RTVSPost2010Prop47
 90
       50
102
RTVSPost2010PropOp47
 70
     0
102
RTVSPost2010Prop48
 90
       50
102
RTVSPost2010PropOp48
 70
     0
102
RTVSPost2010Prop49
280
     0
102
RTVSPost2010PropOp49
 70
     0
102
RTVSPost2010Prop50
 90
       50
102
RTVSPost2010PropOp50
 70
     0
102
RTVSPost2010Prop51ColorIndex
 90
      256
102
RTVSPost2010Prop51ColorRGB
 90
-16777216
102
RTVSPost2010PropOp51
 70
     0
102
RTVSPost2010Prop52
140
1.0
102
RTVSPost2010PropOp52
 70
     0
102
RTVSPost2010Prop53
 90
        2
102
RTVSPost2010PropOp53
 70
     0
102
RTVSPost2010Prop54
  1
strokes_ogs.tif
102
RTVSPost2010PropOp54
 70
     0
102
RTVSPost2010Prop55
280
     0
102
RTVSPost2010PropOp55
 70
     0
102
RTVSPost2010Prop56
140
1.0
102
RTVSPost2010PropOp56
 70
     0
102
RTVSPost2010Prop57
140
1.0
102
RTVSPost2010PropOp57
 70
     0
  0
XRECORD
  5
304
102
{ACAD_REACTORS
330
303
102
}
330
303
100
AcDbXrecord
280
     1
102
RTVSPost2010Prop28
280
     0
102
RTVSPost2010PropOp28
 70
     1
102
RTVSPost2010Prop29
280
     1
102
RTVSPost2010PropOp29
 70
     1
102
RTVSPost2010Prop30
280
     1
102
RTVSPost2010PropOp30
 70
     1
102
RTVSPost2010Prop31
280
     0
102
RTVSPost2010PropOp31
 70
     1
102
RTVSPost2010Prop32
280
     0
102
RTVSPost2010PropOp32
 70
     1
102
RTVSPost2010Prop33
280
     0
102
RTVSPost2010PropOp33
 70
     1
102
RTVSPost2010Prop34
280
     0
102
RTVSPost2010PropOp34
 70
     1
102
RTVSPost2010Prop35
280
     0
102
RTVSPost2010PropOp35
 70
     1
102
RTVSPost2010Prop36
280
     0
102
RTVSPost2010PropOp36
 70
     1
102
RTVSPost2010Prop37
 90
       50
102
RTVSPost2010PropOp37
 70
     1
102
RTVSPost2010Prop38
140
0.0
102
RTVSPost2010PropOp38
 70
     1
102
RTVSPost2010Prop39
140
1.0
102
RTVSPost2010PropOp39
 70
     1
102
RTVSPost2010Prop40
 90
        0
102
RTVSPost2010PropOp40
 70
     1
102
RTVSPost2010Prop41ColorIndex
 90
       18
102
RTVSPost2010Prop41ColorRGB
 90
        0
102
RTVSPost2010PropOp41
 70
     1
102
RTVSPost2010Prop42
 90
       50
102
RTVSPost2010PropOp42
 70
     1
102
RTVSPost2010Prop43
 90
        3
102
RTVSPost2010PropOp43
 70
     1
102
RTVSPost2010Prop44ColorIndex
 90
        5
102
RTVSPost2010Prop44ColorRGB
 90
      255
102
RTVSPost2010PropOp44
 70
     1
102
RTVSPost2010Prop45
280
     0
102
RTVSPost2010PropOp45
 70
     1
102
RTVSPost2010Prop46
 90
       50
102
RTVSPost2010PropOp46
 70
     1
102
RTVSPost2010Prop47
 90
       50
102
RTVSPost2010PropOp47
 70
     1
102
RTVSPost2010Prop48
 90
       50
102
RTVSPost2010PropOp48
 70
     1
102
RTVSPost2010Prop49
280
     0
102
RTVSPost2010PropOp49
 70
     1
102
RTVSPost2010Prop50
 90
       50
102
RTVSPost2010PropOp50
 70
     1
102
RTVSPost2010Prop51ColorIndex
 90
      256
102
RTVSPost2010Prop51ColorRGB
 90
-16777216
102
RTVSPost2010PropOp51
 70
     0
102
RTVSPost2010Prop52
140
1.0
102
RTVSPost2010PropOp52
 70
     0
102
RTVSPost2010Prop53
 90
        2
102
RTVSPost2010PropOp53
 70
     1
102
RTVSPost2010Prop54
  1
strokes_ogs.tif
102
RTVSPost2010PropOp54
 70
     1
102
RTVSPost2010Prop55
280
     0
102
RTVSPost2010PropOp55
 70
     1
102
RTVSPost2010Prop56
140
1.0
102
RTVSPost2010PropOp56
 70
     1
102
RTVSPost2010Prop57
140
1.0
102
RTVSPost2010PropOp57
 70
     1
  0
XRECORD
  5
322
102
{ACAD_REACTORS
330
321
102
}
330
321
100
AcDbXrecord
280
     1
102
RTVSPost2010Prop28
280
     0
102
RTVSPost2010PropOp28
 70
     1
102
RTVSPost2010Prop29
280
     1
102
RTVSPost2010PropOp29
 70
     1
102
RTVSPost2010Prop30
280
     1
102
RTVSPost2010PropOp30
 70
     1
102
RTVSPost2010Prop31
280
     0
102
RTVSPost2010PropOp31
 70
     1
102
RTVSPost2010Prop32
280
     0
102
RTVSPost2010PropOp32
 70
     1
102
RTVSPost2010Prop33
280
     0
102
RTVSPost2010PropOp33
 70
     1
102
RTVSPost2010Prop34
280
     0
102
RTVSPost2010PropOp34
 70
     1
102
RTVSPost2010Prop35
280
     0
102
RTVSPost2010PropOp35
 70
     1
102
RTVSPost2010Prop36
280
     0
102
RTVSPost2010PropOp36
 70
     1
102
RTVSPost2010Prop37
 90
       50
102
RTVSPost2010PropOp37
 70
     1
102
RTVSPost2010Prop38
140
0.0
102
RTVSPost2010PropOp38
 70
     1
102
RTVSPost2010Prop39
140
1.0
102
RTVSPost2010PropOp39
 70
     1
102
RTVSPost2010Prop40
 90
        0
102
RTVSPost2010PropOp40
 70
     1
102
RTVSPost2010Prop41ColorIndex
 90
       18
102
RTVSPost2010Prop41ColorRGB
 90
        0
102
RTVSPost2010PropOp41
 70
     1
102
RTVSPost2010Prop42
 90
       50
102
RTVSPost2010PropOp42
 70
     1
102
RTVSPost2010Prop43
 90
        3
102
RTVSPost2010PropOp43
 70
     1
102
RTVSPost2010Prop44ColorIndex
 90
        5
102
RTVSPost2010Prop44ColorRGB
 90
      255
102
RTVSPost2010PropOp44
 70
     1
102
RTVSPost2010Prop45
280
     0
102
RTVSPost2010PropOp45
 70
     1
102
RTVSPost2010Prop46
 90
       50
102
RTVSPost2010PropOp46
 70
     1
102
RTVSPost2010Prop47
 90
       50
102
RTVSPost2010PropOp47
 70
     1
102
RTVSPost2010Prop48
 90
       50
102
RTVSPost2010PropOp48
 70
     1
102
RTVSPost2010Prop49
280
     0
102
RTVSPost2010PropOp49
 70
     1
102
RTVSPost2010Prop50
 90
       50
102
RTVSPost2010PropOp50
 70
     1
102
RTVSPost2010Prop51ColorIndex
 90
      256
102
RTVSPost2010Prop51ColorRGB
 90
-16777216
102
RTVSPost2010PropOp51
 70
     0
102
RTVSPost2010Prop52
140
1.0
102
RTVSPost2010PropOp52
 70
     0
102
RTVSPost2010Prop53
 90
        2
102
RTVSPost2010PropOp53
 70
     1
102
RTVSPost2010Prop54
  1
strokes_ogs.tif
102
RTVSPost2010PropOp54
 70
     1
102
RTVSPost2010Prop55
280
     0
102
RTVSPost2010PropOp55
 70
     1
102
RTVSPost2010Prop56
140
1.0
102
RTVSPost2010PropOp56
 70
     1
102
RTVSPost2010Prop57
140
1.0
102
RTVSPost2010PropOp57
 70
     1
  0
XRECORD
  5
320
102
{ACAD_REACTORS
330
31F
102
}
330
31F
100
AcDbXrecord
280
     1
102
RTVSPost2010Prop28
280
     0
102
RTVSPost2010PropOp28
 70
     1
102
RTVSPost2010Prop29
280
     1
102
RTVSPost2010PropOp29
 70
     1
102
RTVSPost2010Prop30
280
     1
102
RTVSPost2010PropOp30
 70
     1
102
RTVSPost2010Prop31
280
     0
102
RTVSPost2010PropOp31
 70
     1
102
RTVSPost2010Prop32
280
     0
102
RTVSPost2010PropOp32
 70
     1
102
RTVSPost2010Prop33
280
     0
102
RTVSPost2010PropOp33
 70
     1
102
RTVSPost2010Prop34
280
     0
102
RTVSPost2010PropOp34
 70
     1
102
RTVSPost2010Prop35
280
     0
102
RTVSPost2010PropOp35
 70
     1
102
RTVSPost2010Prop36
280
     0
102
RTVSPost2010PropOp36
 70
     1
102
RTVSPost2010Prop37
 90
       50
102
RTVSPost2010PropOp37
 70
     1
102
RTVSPost2010Prop38
140
0.0
102
RTVSPost2010PropOp38
 70
     1
102
RTVSPost2010Prop39
140
1.0
102
RTVSPost2010PropOp39
 70
     1
102
RTVSPost2010Prop40
 90
        0
102
RTVSPost2010PropOp40
 70
     1
102
RTVSPost2010Prop41ColorIndex
 90
       18
102
RTVSPost2010Prop41ColorRGB
 90
        0
102
RTVSPost2010PropOp41
 70
     1
102
RTVSPost2010Prop42
 90
       50
102
RTVSPost2010PropOp42
 70
     1
102
RTVSPost2010Prop43
 90
        3
102
RTVSPost2010PropOp43
 70
     1
102
RTVSPost2010Prop44ColorIndex
 90
        5
102
RTVSPost2010Prop44ColorRGB
 90
      255
102
RTVSPost2010PropOp44
 70
     1
102
RTVSPost2010Prop45
280
     0
102
RTVSPost2010PropOp45
 70
     1
102
RTVSPost2010Prop46
 90
       50
102
RTVSPost2010PropOp46
 70
     1
102
RTVSPost2010Prop47
 90
       50
102
RTVSPost2010PropOp47
 70
     1
102
RTVSPost2010Prop48
 90
       50
102
RTVSPost2010PropOp48
 70
     1
102
RTVSPost2010Prop49
280
     0
102
RTVSPost2010PropOp49
 70
     1
102
RTVSPost2010Prop50
 90
       50
102
RTVSPost2010PropOp50
 70
     1
102
RTVSPost2010Prop51ColorIndex
 90
      256
102
RTVSPost2010Prop51ColorRGB
 90
-16777216
102
RTVSPost2010PropOp51
 70
     0
102
RTVSPost2010Prop52
140
1.0
102
RTVSPost2010PropOp52
 70
     0
102
RTVSPost2010Prop53
 90
        2
102
RTVSPost2010PropOp53
 70
     1
102
RTVSPost2010Prop54
  1
strokes_ogs.tif
102
RTVSPost2010PropOp54
 70
     1
102
RTVSPost2010Prop55
280
     0
102
RTVSPost2010PropOp55
 70
     1
102
RTVSPost2010Prop56
140
1.0
102
RTVSPost2010PropOp56
 70
     1
102
RTVSPost2010Prop57
140
1.0
102
RTVSPost2010PropOp57
 70
     1
  0
XRECORD
  5
31A
102
{ACAD_REACTORS
330
319
102
}
330
319
100
AcDbXrecord
280
     1
102
RTVSPost2010Prop28
280
     0
102
RTVSPost2010PropOp28
 70
     1
102
RTVSPost2010Prop29
280
     1
102
RTVSPost2010PropOp29
 70
     1
102
RTVSPost2010Prop30
280
     1
102
RTVSPost2010PropOp30
 70
     1
102
RTVSPost2010Prop31
280
     0
102
RTVSPost2010PropOp31
 70
     1
102
RTVSPost2010Prop32
280
     0
102
RTVSPost2010PropOp32
 70
     1
102
RTVSPost2010Prop33
280
     0
102
RTVSPost2010PropOp33
 70
     1
102
RTVSPost2010Prop34
280
     0
102
RTVSPost2010PropOp34
 70
     1
102
RTVSPost2010Prop35
280
     0
102
RTVSPost2010PropOp35
 70
     1
102
RTVSPost2010Prop36
280
     0
102
RTVSPost2010PropOp36
 70
     1
102
RTVSPost2010Prop37
 90
       50
102
RTVSPost2010PropOp37
 70
     1
102
RTVSPost2010Prop38
140
0.0
102
RTVSPost2010PropOp38
 70
     1
102
RTVSPost2010Prop39
140
1.0
102
RTVSPost2010PropOp39
 70
     1
102
RTVSPost2010Prop40
 90
        0
102
RTVSPost2010PropOp40
 70
     1
102
RTVSPost2010Prop41ColorIndex
 90
       18
102
RTVSPost2010Prop41ColorRGB
 90
        0
102
RTVSPost2010PropOp41
 70
     1
102
RTVSPost2010Prop42
 90
       50
102
RTVSPost2010PropOp42
 70
     1
102
RTVSPost2010Prop43
 90
        3
102
RTVSPost2010PropOp43
 70
     1
102
RTVSPost2010Prop44ColorIndex
 90
        5
102
RTVSPost2010Prop44ColorRGB
 90
      255
102
RTVSPost2010PropOp44
 70
     1
102
RTVSPost2010Prop45
280
     0
102
RTVSPost2010PropOp45
 70
     1
102
RTVSPost2010Prop46
 90
       50
102
RTVSPost2010PropOp46
 70
     1
102
RTVSPost2010Prop47
 90
       50
102
RTVSPost2010PropOp47
 70
     1
102
RTVSPost2010Prop48
 90
       50
102
RTVSPost2010PropOp48
 70
     1
102
RTVSPost2010Prop49
280
     0
102
RTVSPost2010PropOp49
 70
     1
102
RTVSPost2010Prop50
 90
       50
102
RTVSPost2010PropOp50
 70
     1
102
RTVSPost2010Prop51ColorIndex
 90
      256
102
RTVSPost2010Prop51ColorRGB
 90
-16777216
102
RTVSPost2010PropOp51
 70
     0
102
RTVSPost2010Prop52
140
1.0
102
RTVSPost2010PropOp52
 70
     0
102
RTVSPost2010Prop53
 90
        2
102
RTVSPost2010PropOp53
 70
     1
102
RTVSPost2010Prop54
  1
strokes_ogs.tif
102
RTVSPost2010PropOp54
 70
     1
102
RTVSPost2010Prop55
280
     0
102
RTVSPost2010PropOp55
 70
     1
102
RTVSPost2010Prop56
140
1.0
102
RTVSPost2010PropOp56
 70
     1
102
RTVSPost2010Prop57
140
1.0
102
RTVSPost2010PropOp57
 70
     1
  0
XRECORD
  5
31C
102
{ACAD_REACTORS
330
31B
102
}
330
31B
100
AcDbXrecord
280
     1
102
RTVSPost2010Prop28
280
     0
102
RTVSPost2010PropOp28
 70
     1
102
RTVSPost2010Prop29
280
     1
102
RTVSPost2010PropOp29
 70
     1
102
RTVSPost2010Prop30
280
     1
102
RTVSPost2010PropOp30
 70
     1
102
RTVSPost2010Prop31
280
     0
102
RTVSPost2010PropOp31
 70
     1
102
RTVSPost2010Prop32
280
     0
102
RTVSPost2010PropOp32
 70
     1
102
RTVSPost2010Prop33
280
     0
102
RTVSPost2010PropOp33
 70
     1
102
RTVSPost2010Prop34
280
     0
102
RTVSPost2010PropOp34
 70
     1
102
RTVSPost2010Prop35
280
     0
102
RTVSPost2010PropOp35
 70
     1
102
RTVSPost2010Prop36
280
     0
102
RTVSPost2010PropOp36
 70
     1
102
RTVSPost2010Prop37
 90
       50
102
RTVSPost2010PropOp37
 70
     1
102
RTVSPost2010Prop38
140
0.0
102
RTVSPost2010PropOp38
 70
     1
102
RTVSPost2010Prop39
140
1.0
102
RTVSPost2010PropOp39
 70
     1
102
RTVSPost2010Prop40
 90
        0
102
RTVSPost2010PropOp40
 70
     1
102
RTVSPost2010Prop41ColorIndex
 90
       18
102
RTVSPost2010Prop41ColorRGB
 90
        0
102
RTVSPost2010PropOp41
 70
     1
102
RTVSPost2010Prop42
 90
       50
102
RTVSPost2010PropOp42
 70
     1
102
RTVSPost2010Prop43
 90
        3
102
RTVSPost2010PropOp43
 70
     1
102
RTVSPost2010Prop44ColorIndex
 90
        5
102
RTVSPost2010Prop44ColorRGB
 90
      255
102
RTVSPost2010PropOp44
 70
     1
102
RTVSPost2010Prop45
280
     0
102
RTVSPost2010PropOp45
 70
     1
102
RTVSPost2010Prop46
 90
       50
102
RTVSPost2010PropOp46
 70
     1
102
RTVSPost2010Prop47
 90
       50
102
RTVSPost2010PropOp47
 70
     1
102
RTVSPost2010Prop48
 90
       50
102
RTVSPost2010PropOp48
 70
     1
102
RTVSPost2010Prop49
280
     0
102
RTVSPost2010PropOp49
 70
     1
102
RTVSPost2010Prop50
 90
       50
102
RTVSPost2010PropOp50
 70
     1
102
RTVSPost2010Prop51ColorIndex
 90
      256
102
RTVSPost2010Prop51ColorRGB
 90
-16777216
102
RTVSPost2010PropOp51
 70
     0
102
RTVSPost2010Prop52
140
1.0
102
RTVSPost2010PropOp52
 70
     0
102
RTVSPost2010Prop53
 90
        2
102
RTVSPost2010PropOp53
 70
     1
102
RTVSPost2010Prop54
  1
strokes_ogs.tif
102
RTVSPost2010PropOp54
 70
     1
102
RTVSPost2010Prop55
280
     0
102
RTVSPost2010PropOp55
 70
     1
102
RTVSPost2010Prop56
140
1.0
102
RTVSPost2010PropOp56
 70
     1
102
RTVSPost2010Prop57
140
1.0
102
RTVSPost2010PropOp57
 70
     1
  0
XRECORD
  5
30C
102
{ACAD_REACTORS
330
30B
102
}
330
30B
100
AcDbXrecord
280
     1
102
RTVSPost2010Prop28
280
     0
102
RTVSPost2010PropOp28
 70
     1
102
RTVSPost2010Prop29
280
     1
102
RTVSPost2010PropOp29
 70
     1
102
RTVSPost2010Prop30
280
     1
102
RTVSPost2010PropOp30
 70
     1
102
RTVSPost2010Prop31
280
     0
102
RTVSPost2010PropOp31
 70
     1
102
RTVSPost2010Prop32
280
     0
102
RTVSPost2010PropOp32
 70
     1
102
RTVSPost2010Prop33
280
     0
102
RTVSPost2010PropOp33
 70
     1
102
RTVSPost2010Prop34
280
     0
102
RTVSPost2010PropOp34
 70
     1
102
RTVSPost2010Prop35
280
     0
102
RTVSPost2010PropOp35
 70
     1
102
RTVSPost2010Prop36
280
     0
102
RTVSPost2010PropOp36
 70
     1
102
RTVSPost2010Prop37
 90
       50
102
RTVSPost2010PropOp37
 70
     1
102
RTVSPost2010Prop38
140
0.0
102
RTVSPost2010PropOp38
 70
     1
102
RTVSPost2010Prop39
140
1.0
102
RTVSPost2010PropOp39
 70
     1
102
RTVSPost2010Prop40
 90
        0
102
RTVSPost2010PropOp40
 70
     1
102
RTVSPost2010Prop41ColorIndex
 90
       18
102
RTVSPost2010Prop41ColorRGB
 90
        0
102
RTVSPost2010PropOp41
 70
     1
102
RTVSPost2010Prop42
 90
       50
102
RTVSPost2010PropOp42
 70
     1
102
RTVSPost2010Prop43
 90
        3
102
RTVSPost2010PropOp43
 70
     1
102
RTVSPost2010Prop44ColorIndex
 90
        5
102
RTVSPost2010Prop44ColorRGB
 90
      255
102
RTVSPost2010PropOp44
 70
     1
102
RTVSPost2010Prop45
280
     0
102
RTVSPost2010PropOp45
 70
     1
102
RTVSPost2010Prop46
 90
       50
102
RTVSPost2010PropOp46
 70
     1
102
RTVSPost2010Prop47
 90
       50
102
RTVSPost2010PropOp47
 70
     1
102
RTVSPost2010Prop48
 90
       50
102
RTVSPost2010PropOp48
 70
     1
102
RTVSPost2010Prop49
280
     0
102
RTVSPost2010PropOp49
 70
     1
102
RTVSPost2010Prop50
 90
       50
102
RTVSPost2010PropOp50
 70
     1
102
RTVSPost2010Prop51ColorIndex
 90
      256
102
RTVSPost2010Prop51ColorRGB
 90
-16777216
102
RTVSPost2010PropOp51
 70
     0
102
RTVSPost2010Prop52
140
1.0
102
RTVSPost2010PropOp52
 70
     0
102
RTVSPost2010Prop53
 90
        2
102
RTVSPost2010PropOp53
 70
     1
102
RTVSPost2010Prop54
  1
strokes_ogs.tif
102
RTVSPost2010PropOp54
 70
     1
102
RTVSPost2010Prop55
280
     0
102
RTVSPost2010PropOp55
 70
     1
102
RTVSPost2010Prop56
140
1.0
102
RTVSPost2010PropOp56
 70
     1
102
RTVSPost2010Prop57
140
1.0
102
RTVSPost2010PropOp57
 70
     1
  0
XRECORD
  5
2FE
102
{ACAD_REACTORS
330
2FD
102
}
330
2FD
100
AcDbXrecord
280
     1
102
RTVSPost2010Prop28
280
     0
102
RTVSPost2010PropOp28
 70
     1
102
RTVSPost2010Prop29
280
     1
102
RTVSPost2010PropOp29
 70
     1
102
RTVSPost2010Prop30
280
     1
102
RTVSPost2010PropOp30
 70
     1
102
RTVSPost2010Prop31
280
     0
102
RTVSPost2010PropOp31
 70
     1
102
RTVSPost2010Prop32
280
     0
102
RTVSPost2010PropOp32
 70
     1
102
RTVSPost2010Prop33
280
     0
102
RTVSPost2010PropOp33
 70
     1
102
RTVSPost2010Prop34
280
     0
102
RTVSPost2010PropOp34
 70
     1
102
RTVSPost2010Prop35
280
     0
102
RTVSPost2010PropOp35
 70
     1
102
RTVSPost2010Prop36
280
     0
102
RTVSPost2010PropOp36
 70
     1
102
RTVSPost2010Prop37
 90
       50
102
RTVSPost2010PropOp37
 70
     1
102
RTVSPost2010Prop38
140
0.0
102
RTVSPost2010PropOp38
 70
     1
102
RTVSPost2010Prop39
140
1.0
102
RTVSPost2010PropOp39
 70
     1
102
RTVSPost2010Prop40
 90
        0
102
RTVSPost2010PropOp40
 70
     1
102
RTVSPost2010Prop41ColorIndex
 90
       18
102
RTVSPost2010Prop41ColorRGB
 90
        0
102
RTVSPost2010PropOp41
 70
     1
102
RTVSPost2010Prop42
 90
       50
102
RTVSPost2010PropOp42
 70
     1
102
RTVSPost2010Prop43
 90
        3
102
RTVSPost2010PropOp43
 70
     1
102
RTVSPost2010Prop44ColorIndex
 90
        5
102
RTVSPost2010Prop44ColorRGB
 90
      255
102
RTVSPost2010PropOp44
 70
     1
102
RTVSPost2010Prop45
280
     0
102
RTVSPost2010PropOp45
 70
     1
102
RTVSPost2010Prop46
 90
       50
102
RTVSPost2010PropOp46
 70
     1
102
RTVSPost2010Prop47
 90
       50
102
RTVSPost2010PropOp47
 70
     1
102
RTVSPost2010Prop48
 90
       50
102
RTVSPost2010PropOp48
 70
     1
102
RTVSPost2010Prop49
280
     0
102
RTVSPost2010PropOp49
 70
     1
102
RTVSPost2010Prop50
 90
       50
102
RTVSPost2010PropOp50
 70
     1
102
RTVSPost2010Prop51ColorIndex
 90
      256
102
RTVSPost2010Prop51ColorRGB
 90
-16777216
102
RTVSPost2010PropOp51
 70
     0
102
RTVSPost2010Prop52
140
1.0
102
RTVSPost2010PropOp52
 70
     0
102
RTVSPost2010Prop53
 90
        2
102
RTVSPost2010PropOp53
 70
     1
102
RTVSPost2010Prop54
  1
strokes_ogs.tif
102
RTVSPost2010PropOp54
 70
     1
102
RTVSPost2010Prop55
280
     0
102
RTVSPost2010PropOp55
 70
     1
102
RTVSPost2010Prop56
140
1.0
102
RTVSPost2010PropOp56
 70
     1
102
RTVSPost2010Prop57
140
1.0
102
RTVSPost2010PropOp57
 70
     1
  0
XRECORD
  5
31E
102
{ACAD_REACTORS
330
31D
102
}
330
31D
100
AcDbXrecord
280
     1
102
RTVSPost2010Prop28
280
     0
102
RTVSPost2010PropOp28
 70
     1
102
RTVSPost2010Prop29
280
     1
102
RTVSPost2010PropOp29
 70
     1
102
RTVSPost2010Prop30
280
     1
102
RTVSPost2010PropOp30
 70
     1
102
RTVSPost2010Prop31
280
     0
102
RTVSPost2010PropOp31
 70
     1
102
RTVSPost2010Prop32
280
     0
102
RTVSPost2010PropOp32
 70
     1
102
RTVSPost2010Prop33
280
     0
102
RTVSPost2010PropOp33
 70
     1
102
RTVSPost2010Prop34
280
     0
102
RTVSPost2010PropOp34
 70
     1
102
RTVSPost2010Prop35
280
     0
102
RTVSPost2010PropOp35
 70
     1
102
RTVSPost2010Prop36
280
     0
102
RTVSPost2010PropOp36
 70
     1
102
RTVSPost2010Prop37
 90
       50
102
RTVSPost2010PropOp37
 70
     1
102
RTVSPost2010Prop38
140
0.0
102
RTVSPost2010PropOp38
 70
     1
102
RTVSPost2010Prop39
140
1.0
102
RTVSPost2010PropOp39
 70
     1
102
RTVSPost2010Prop40
 90
        0
102
RTVSPost2010PropOp40
 70
     1
102
RTVSPost2010Prop41ColorIndex
 90
       18
102
RTVSPost2010Prop41ColorRGB
 90
        0
102
RTVSPost2010PropOp41
 70
     1
102
RTVSPost2010Prop42
 90
       50
102
RTVSPost2010PropOp42
 70
     1
102
RTVSPost2010Prop43
 90
        3
102
RTVSPost2010PropOp43
 70
     1
102
RTVSPost2010Prop44ColorIndex
 90
        5
102
RTVSPost2010Prop44ColorRGB
 90
      255
102
RTVSPost2010PropOp44
 70
     1
102
RTVSPost2010Prop45
280
     0
102
RTVSPost2010PropOp45
 70
     1
102
RTVSPost2010Prop46
 90
       50
102
RTVSPost2010PropOp46
 70
     1
102
RTVSPost2010Prop47
 90
       50
102
RTVSPost2010PropOp47
 70
     1
102
RTVSPost2010Prop48
 90
       50
102
RTVSPost2010PropOp48
 70
     1
102
RTVSPost2010Prop49
280
     0
102
RTVSPost2010PropOp49
 70
     1
102
RTVSPost2010Prop50
 90
       50
102
RTVSPost2010PropOp50
 70
     1
102
RTVSPost2010Prop51ColorIndex
 90
      256
102
RTVSPost2010Prop51ColorRGB
 90
-16777216
102
RTVSPost2010PropOp51
 70
     0
102
RTVSPost2010Prop52
140
1.0
102
RTVSPost2010PropOp52
 70
     0
102
RTVSPost2010Prop53
 90
        2
102
RTVSPost2010PropOp53
 70
     1
102
RTVSPost2010Prop54
  1
strokes_ogs.tif
102
RTVSPost2010PropOp54
 70
     1
102
RTVSPost2010Prop55
280
     0
102
RTVSPost2010PropOp55
 70
     1
102
RTVSPost2010Prop56
140
1.0
102
RTVSPost2010PropOp56
 70
     1
102
RTVSPost2010Prop57
140
1.0
102
RTVSPost2010PropOp57
 70
     1
  0
ENDSEC
  0
EOF
